  0
SECTION
  2
HEADER
  9
$ACADVER
  1
AC1021
  9
$ACADMAINTVER
 70
    50
  9
$DWGCODEPAGE
  3
ANSI_1252
  9
$LASTSAVEDBY
  1
François
  9
$INSBASE
 10
200.000368
 20
157.163017
 30
0.0
  9
$EXTMIN
 10
171.8139059953475
 20
140.606953
 30
-0.0015258207003583
  9
$EXTMAX
 10
214.264754
 20
173.4394166768866
 30
0.0000000349246037
  9
$LIMMIN
 10
186.622717
 20
141.49455
  9
$LIMMAX
 10
213.377157
 20
158.505398
  9
$ORTHOMODE
 70
     0
  9
$REGENMODE
 70
     1
  9
$FILLMODE
 70
     1
  9
$QTEXTMODE
 70
     0
  9
$MIRRTEXT
 70
     1
  9
$LTSCALE
 40
1.0
  9
$ATTMODE
 70
     1
  9
$TEXTSIZE
 40
0.0
  9
$TRACEWID
 40
0.05
  9
$TEXTSTYLE
  7
Standard
  9
$CLAYER
  8
Cotation-JacobDelafon
  9
$CELTYPE
  6
Continuous
  9
$CECOLOR
 62
   256
  9
$CELTSCALE
 40
1.0
  9
$DISPSILH
 70
     0
  9
$DIMSCALE
 40
1.0
  9
$DIMASZ
 40
1.8
  9
$DIMEXO
 40
0.625
  9
$DIMDLI
 40
3.799999999999998
  9
$DIMRND
 40
0.0
  9
$DIMDLE
 40
0.0
  9
$DIMEXE
 40
1.8
  9
$DIMTP
 40
0.0
  9
$DIMTM
 40
0.0
  9
$DIMTXT
 40
3.0
  9
$DIMCEN
 40
0.9
  9
$DIMTSZ
 40
0.0
  9
$DIMTOL
 70
     0
  9
$DIMLIM
 70
     0
  9
$DIMTIH
 70
     0
  9
$DIMTOH
 70
     0
  9
$DIMSE1
 70
     0
  9
$DIMSE2
 70
     0
  9
$DIMTAD
 70
     1
  9
$DIMZIN
 70
    12
  9
$DIMBLK
  1
Oblique
  9
$DIMASO
 70
     1
  9
$DIMSHO
 70
     1
  9
$DIMPOST
  1

  9
$DIMAPOST
  1

  9
$DIMALT
 70
     0
  9
$DIMALTD
 70
     2
  9
$DIMALTF
 40
25.4
  9
$DIMLFAC
 40
1.0
  9
$DIMTOFL
 70
     0
  9
$DIMTVP
 40
0.0
  9
$DIMTIX
 70
     0
  9
$DIMSOXD
 70
     0
  9
$DIMSAH
 70
     0
  9
$DIMBLK1
  1

  9
$DIMBLK2
  1

  9
$DIMSTYLE
  2
Cotation-Jacob-Delafon
  9
$DIMCLRD
 70
     0
  9
$DIMCLRE
 70
     0
  9
$DIMCLRT
 70
     0
  9
$DIMTFAC
 40
1.0
  9
$DIMGAP
 40
0.9
  9
$DIMJUST
 70
     0
  9
$DIMSD1
 70
     0
  9
$DIMSD2
 70
     0
  9
$DIMTOLJ
 70
     1
  9
$DIMTZIN
 70
     0
  9
$DIMALTZ
 70
     0
  9
$DIMALTTZ
 70
     0
  9
$DIMUPT
 70
     0
  9
$DIMDEC
 70
     2
  9
$DIMTDEC
 70
     2
  9
$DIMALTU
 70
     2
  9
$DIMALTTD
 70
     2
  9
$DIMTXSTY
  7
Jacob-Delafon
  9
$DIMAUNIT
 70
     0
  9
$DIMADEC
 70
     0
  9
$DIMALTRND
 40
0.0
  9
$DIMAZIN
 70
     3
  9
$DIMDSEP
 70
    46
  9
$DIMATFIT
 70
     3
  9
$DIMFRAC
 70
     0
  9
$DIMLDRBLK
  1
Oblique
  9
$DIMLUNIT
 70
     2
  9
$DIMLWD
 70
    -2
  9
$DIMLWE
 70
    -2
  9
$DIMTMOVE
 70
     2
  9
$DIMFXL
 40
1.0
  9
$DIMFXLON
 70
     0
  9
$DIMJOGANG
 40
0.7853981633974483
  9
$DIMTFILL
 70
     0
  9
$DIMTFILLCLR
 70
     0
  9
$DIMARCSYM
 70
     0
  9
$DIMLTYPE
  6

  9
$DIMLTEX1
  6

  9
$DIMLTEX2
  6

  9
$LUNITS
 70
     2
  9
$LUPREC
 70
     4
  9
$SKETCHINC
 40
0.1
  9
$FILLETRAD
 40
0.0
  9
$AUNITS
 70
     0
  9
$AUPREC
 70
     0
  9
$MENU
  1
acad
  9
$ELEVATION
 40
0.0
  9
$PELEVATION
 40
0.0
  9
$THICKNESS
 40
0.0
  9
$LIMCHECK
 70
     0
  9
$CHAMFERA
 40
0.0
  9
$CHAMFERB
 40
0.0
  9
$CHAMFERC
 40
0.0
  9
$CHAMFERD
 40
0.0
  9
$SKPOLY
 70
     0
  9
$TDCREATE
 40
2455398.592597836
  9
$TDUCREATE
 40
2455398.509264502
  9
$TDUPDATE
 40
2455398.594102095
  9
$TDUUPDATE
 40
2455398.510768762
  9
$TDINDWG
 40
0.0015057176
  9
$TDUSRTIMER
 40
0.0015057176
  9
$USRTIMER
 70
     1
  9
$ANGBASE
 50
0.0
  9
$ANGDIR
 70
     0
  9
$PDMODE
 70
     0
  9
$PDSIZE
 40
0.0
  9
$PLINEWID
 40
0.0
  9
$SPLFRAME
 70
     0
  9
$SPLINETYPE
 70
     6
  9
$SPLINESEGS
 70
     8
  9
$HANDSEED
  5
210
  9
$SURFTAB1
 70
     6
  9
$SURFTAB2
 70
     6
  9
$SURFTYPE
 70
     6
  9
$SURFU
 70
     6
  9
$SURFV
 70
     6
  9
$UCSBASE
  2

  9
$UCSNAME
  2

  9
$UCSORG
 10
0.0
 20
0.0
 30
0.0
  9
$UCSXDIR
 10
1.0
 20
0.0
 30
0.0
  9
$UCSYDIR
 10
0.0
 20
1.0
 30
0.0
  9
$UCSORTHOREF
  2

  9
$UCSORTHOVIEW
 70
     0
  9
$UCSORGTOP
 10
0.0
 20
0.0
 30
0.0
  9
$UCSORGBOTTOM
 10
0.0
 20
0.0
 30
0.0
  9
$UCSORGLEFT
 10
0.0
 20
0.0
 30
0.0
  9
$UCSORGRIGHT
 10
0.0
 20
0.0
 30
0.0
  9
$UCSORGFRONT
 10
0.0
 20
0.0
 30
0.0
  9
$UCSORGBACK
 10
0.0
 20
0.0
 30
0.0
  9
$PUCSBASE
  2

  9
$PUCSNAME
  2

  9
$PUCSORG
 10
0.0
 20
0.0
 30
0.0
  9
$PUCSXDIR
 10
1.0
 20
0.0
 30
0.0
  9
$PUCSYDIR
 10
0.0
 20
1.0
 30
0.0
  9
$PUCSORTHOREF
  2

  9
$PUCSORTHOVIEW
 70
     0
  9
$PUCSORGTOP
 10
0.0
 20
0.0
 30
0.0
  9
$PUCSORGBOTTOM
 10
0.0
 20
0.0
 30
0.0
  9
$PUCSORGLEFT
 10
0.0
 20
0.0
 30
0.0
  9
$PUCSORGRIGHT
 10
0.0
 20
0.0
 30
0.0
  9
$PUCSORGFRONT
 10
0.0
 20
0.0
 30
0.0
  9
$PUCSORGBACK
 10
0.0
 20
0.0
 30
0.0
  9
$USERI1
 70
     0
  9
$USERI2
 70
     0
  9
$USERI3
 70
     0
  9
$USERI4
 70
     0
  9
$USERI5
 70
     0
  9
$USERR1
 40
0.0
  9
$USERR2
 40
0.0
  9
$USERR3
 40
0.0
  9
$USERR4
 40
0.0
  9
$USERR5
 40
0.0
  9
$WORLDVIEW
 70
     1
  9
$SHADEDGE
 70
     3
  9
$SHADEDIF
 70
    70
  9
$TILEMODE
 70
     1
  9
$MAXACTVP
 70
    16
  9
$PINSBASE
 10
0.0
 20
0.0
 30
0.0
  9
$PLIMCHECK
 70
     0
  9
$PEXTMIN
 10
1.000000000000000E+20
 20
1.000000000000000E+20
 30
1.000000000000000E+20
  9
$PEXTMAX
 10
-1.000000000000000E+20
 20
-1.000000000000000E+20
 30
-1.000000000000000E+20
  9
$PLIMMIN
 10
0.0
 20
0.0
  9
$PLIMMAX
 10
12.0
 20
9.0
  9
$UNITMODE
 70
     0
  9
$VISRETAIN
 70
     0
  9
$PLINEGEN
 70
     1
  9
$PSLTSCALE
 70
     0
  9
$TREEDEPTH
 70
  3020
  9
$CMLSTYLE
  2
Standard
  9
$CMLJUST
 70
     0
  9
$CMLSCALE
 40
1.0
  9
$PROXYGRAPHICS
 70
     0
  9
$MEASUREMENT
 70
     1
  9
$CELWEIGHT
370
     0
  9
$ENDCAPS
280
     0
  9
$JOINSTYLE
280
     0
  9
$LWDISPLAY
290
     0
  9
$INSUNITS
 70
     0
  9
$HYPERLINKBASE
  1

  9
$STYLESHEET
  1

  9
$XEDIT
290
     1
  9
$CEPSNTYPE
380
     0
  9
$PSTYLEMODE
290
     1
  9
$FINGERPRINTGUID
  2

  9
$VERSIONGUID
  2
{1CF32250-0A0A-4FEE-915E-9483F2C99BCD}
  9
$EXTNAMES
290
     1
  9
$PSVPSCALE
 40
0.0
  9
$OLESTARTUP
290
     0
  9
$SORTENTS
280
   127
  9
$INDEXCTL
280
     0
  9
$HIDETEXT
280
     0
  9
$XCLIPFRAME
290
     0
  9
$HALOGAP
280
     0
  9
$OBSCOLOR
 70
   257
  9
$OBSLTYPE
280
     0
  9
$INTERSECTIONDISPLAY
280
     0
  9
$INTERSECTIONCOLOR
 70
   257
  9
$DIMASSOC
280
     1
  9
$PROJECTNAME
  1

  9
$CAMERADISPLAY
290
     0
  9
$LENSLENGTH
 40
50.0
  9
$CAMERAHEIGHT
 40
0.0
  9
$STEPSPERSEC
 40
2.0
  9
$STEPSIZE
 40
6.0
  9
$3DDWFPREC
 40
2.0
  9
$PSOLWIDTH
 40
0.25
  9
$PSOLHEIGHT
 40
4.0
  9
$LOFTANG1
 40
1.570796326794896
  9
$LOFTANG2
 40
1.570796326794896
  9
$LOFTMAG1
 40
0.0
  9
$LOFTMAG2
 40
0.0
  9
$LOFTPARAM
 70
     7
  9
$LOFTNORMALS
280
     1
  9
$LATITUDE
 40
37.795
  9
$LONGITUDE
 40
-122.394
  9
$NORTHDIRECTION
 40
0.0
  9
$TIMEZONE
 70
 -8000
  9
$LIGHTGLYPHDISPLAY
280
     1
  9
$TILEMODELIGHTSYNCH
280
     1
  9
$CMATERIAL
347
164
  9
$SOLIDHIST
280
     1
  9
$SHOWHIST
280
     1
  9
$DWFFRAME
280
     2
  9
$DGNFRAME
280
     0
  9
$REALWORLDSCALE
290
     1
  9
$INTERFERECOLOR
 62
     1
  9
$INTERFEREOBJVS
345
186
  9
$INTERFEREVPVS
346
183
  9
$CSHADOW
280
     0
  9
$SHADOWPLANELOCATION
 40
0.0
  0
ENDSEC
  0
SECTION
  2
CLASSES
  0
CLASS
  1
IMAGE
  2
AcDbRasterImage
  3
ISM
 90
     2175
 91
        0
280
     0
281
     1
  0
CLASS
  1
DICTIONARYVAR
  2
AcDbDictionaryVar
  3
ObjectDBX Classes
 90
        0
 91
        7
280
     0
281
     0
  0
CLASS
  1
RASTERVARIABLES
  2
AcDbRasterVariables
  3
ISM
 90
        0
 91
        0
280
     0
281
     0
  0
CLASS
  1
IMAGEDEF
  2
AcDbRasterImageDef
  3
ISM
 90
        0
 91
        0
280
     0
281
     0
  0
CLASS
  1
IMAGEDEF_REACTOR
  2
AcDbRasterImageDefReactor
  3
ISM
 90
        1
 91
        0
280
     0
281
     0
  0
CLASS
  1
IDBUFFER
  2
AcDbIdBuffer
  3
ObjectDBX Classes
 90
        0
 91
        0
280
     0
281
     0
  0
CLASS
  1
SPATIAL_FILTER
  2
AcDbSpatialFilter
  3
ObjectDBX Classes
 90
        0
 91
        0
280
     0
281
     0
  0
CLASS
  1
SORTENTSTABLE
  2
AcDbSortentsTable
  3
ObjectDBX Classes
 90
        0
 91
        0
280
     0
281
     0
  0
CLASS
  1
LAYER_INDEX
  2
AcDbLayerIndex
  3
ObjectDBX Classes
 90
        0
 91
        0
280
     0
281
     0
  0
CLASS
  1
SPATIAL_INDEX
  2
AcDbSpatialIndex
  3
ObjectDBX Classes
 90
        0
 91
        0
280
     0
281
     0
  0
CLASS
  1
OBJECT_PTR
  2
CAseDLPNTableRecord
  3
"ASE-LPNTableRecord"
 90
        1
 91
        0
280
     0
281
     0
  0
CLASS
  1
PLOTSETTINGS
  2
AcDbPlotSettings
  3
ObjectDBX Classes
 90
        0
 91
        0
280
     0
281
     0
  0
CLASS
  1
ACDBDICTIONARYWDFLT
  2
AcDbDictionaryWithDefault
  3
ObjectDBX Classes
 90
        0
 91
        1
280
     0
281
     0
  0
CLASS
  1
WIPEOUT
  2
AcDbWipeout
  3
"WipeOut|Product Desc: Object Enabler for WipeOut entity                        |Company: Autodesk, Inc.                        |WEB Address: www.autodesk.com"
 90
     2175
 91
        0
280
     0
281
     1
  0
CLASS
  1
WIPEOUTVARIABLES
  2
AcDbWipeoutVariables
  3
"WipeOut|Product Desc:     WipeOut Dbx Application|Company:          Autodesk, Inc.|WEB Address:      www.autodesk.com"
 90
        0
 91
        1
280
     0
281
     0
  0
CLASS
  1
RTEXT
  2
RText
  3
RText|AutoCAD Express Tool|expresstools@autodesk.com
 90
        0
 91
        0
280
     0
281
     1
  0
CLASS
  1
ARCALIGNEDTEXT
  2
AcDbArcAlignedText
  3
ATEXT|AutoCAD Express Tool|expresstools@autodesk.com
 90
        0
 91
        0
280
     0
281
     1
  0
CLASS
  1
MATERIAL
  2
AcDbMaterial
  3
ObjectDBX Classes
 90
     1153
 91
        3
280
     0
281
     0
  0
CLASS
  1
VISUALSTYLE
  2
AcDbVisualStyle
  3
ObjectDBX Classes
 90
     4095
 91
       16
280
     0
281
     0
  0
CLASS
  1
TABLESTYLE
  2
AcDbTableStyle
  3
ObjectDBX Classes
 90
     4095
 91
        1
280
     0
281
     0
  0
CLASS
  1
SCALE
  2
AcDbScale
  3
ObjectDBX Classes
 90
     1153
 91
       17
280
     0
281
     0
  0
CLASS
  1
MLEADERSTYLE
  2
AcDbMLeaderStyle
  3
ACDB_MLEADERSTYLE_CLASS
 90
     4095
 91
        1
280
     0
281
     0
  0
CLASS
  1
AEC_REFEDIT_STATUS_TRACKER
  2
AecDbRefEditStatusTracker
  3
AecArchBase50|Product Desc: Autodesk Architectural Desktop 2007 |Company: Autodesk,Inc. |WEB Address: www.autodesk.com
 90
      129
 91
        1
280
     0
281
     0
  0
CLASS
  1
NPOCOLLECTION
  2
AcDbImpNonPersistentObjectsCollection
  3
ObjectDBX Classes
 90
     1153
 91
        1
280
     0
281
     0
  0
CLASS
  1
CELLSTYLEMAP
  2
AcDbCellStyleMap
  3
ObjectDBX Classes
 90
     1152
 91
        1
280
     0
281
     0
  0
ENDSEC
  0
SECTION
  2
TABLES
  0
TABLE
  2
VPORT
  5
7
330
0
100
AcDbSymbolTable
 70
     1
  0
VPORT
  5
15
330
7
100
AcDbSymbolTableRecord
100
AcDbViewportTableRecord
  2
*ACTIVE
 70
     0
 10
0.0
 20
0.0
 11
1.0
 21
1.0
 12
186.9638089250263
 22
158.1901938346007
 13
0.0
 23
0.0
 14
1.0
 24
1.0
 15
0.0
 25
0.0
 16
0.0
 26
0.0
 36
1.0
 17
0.0
 27
0.0
 37
0.0
 40
57.78702103530295
 41
1.31063829787234
 42
50.0
 43
0.0
 44
0.0
 50
0.0
 51
0.0
 71
     0
 72
   100
 73
     1
 74
     1
 75
     0
 76
     0
 77
     0
 78
     0
281
     0
 65
     0
110
0.0
120
0.0
130
0.0
111
1.0
121
0.0
131
0.0
112
0.0
122
1.0
132
0.0
 79
     0
146
0.0
348
182
 60
     3
 61
     5
292
     1
282
     1
141
0.0
142
0.0
 63
   250
421
  3355443
  0
ENDTAB
  0
TABLE
  2
LTYPE
  5
4
330
0
100
AcDbSymbolTable
 70
     1
  0
LTYPE
  5
11
330
4
100
AcDbSymbolTableRecord
100
AcDbLinetypeTableRecord
  2
ByBlock
 70
     0
  3

 72
    65
 73
     0
 40
0.0
  0
LTYPE
  5
12
330
4
100
AcDbSymbolTableRecord
100
AcDbLinetypeTableRecord
  2
ByLayer
 70
     0
  3

 72
    65
 73
     0
 40
0.0
  0
LTYPE
  5
13
330
4
100
AcDbSymbolTableRecord
100
AcDbLinetypeTableRecord
  2
Continuous
 70
     0
  3
Solid line
 72
    65
 73
     0
 40
0.0
  0
ENDTAB
  0
TABLE
  2
LAYER
  5
2
330
0
100
AcDbSymbolTable
 70
     3
  0
LAYER
  5
14
102
{ACAD_XDICTIONARY
360
202
102
}
330
2
100
AcDbSymbolTableRecord
100
AcDbLayerTableRecord
  2
0
 70
     0
 62
     7
  6
Continuous
370
    -3
390
1D
347
174
  0
LAYER
  5
1AB
330
2
100
AcDbSymbolTableRecord
100
AcDbLayerTableRecord
  2
Defpoints
 70
     0
 62
     7
  6
Continuous
290
     0
370
    -3
390
1D
347
174
  0
LAYER
  5
1AC
102
{ACAD_XDICTIONARY
360
1AD
102
}
330
2
100
AcDbSymbolTableRecord
100
AcDbLayerTableRecord
  2
Cotation-JacobDelafon
 70
     0
 62
     8
  6
Continuous
370
    -3
390
1D
347
174
  0
ENDTAB
  0
TABLE
  2
STYLE
  5
3
330
0
100
AcDbSymbolTable
 70
     7
  0
STYLE
  5
17
330
3
100
AcDbSymbolTableRecord
100
AcDbTextStyleTableRecord
  2
Standard
 70
     0
 40
0.0
 41
1.0
 50
0.0
 71
     0
 42
0.0
  3
txt
  4

  0
STYLE
  5
24
330
3
100
AcDbSymbolTableRecord
100
AcDbTextStyleTableRecord
  2
STD
 70
     0
 40
0.0
 41
1.0
 50
0.0
 71
     0
 42
0.0
  3
txt
  4

  0
STYLE
  5
25
330
3
100
AcDbSymbolTableRecord
100
AcDbTextStyleTableRecord
  2
TATESTD
 70
     4
 40
0.0
 41
1.0
 50
0.0
 71
     0
 42
0.0
  3
txt
  4

  0
STYLE
  5
26
330
3
100
AcDbSymbolTableRecord
100
AcDbTextStyleTableRecord
  2
KANJISTD
 70
     0
 40
0.0
 41
1.0
 50
0.0
 71
     0
 42
0.0
  3
txt
  4
extfont
  0
STYLE
  5
27
330
3
100
AcDbSymbolTableRecord
100
AcDbTextStyleTableRecord
  2
KANJITATE
 70
     4
 40
0.0
 41
1.0
 50
0.0
 71
     0
 42
0.0
  3
txt
  4
extfont
  0
STYLE
  5
1AE
330
3
100
AcDbSymbolTableRecord
100
AcDbTextStyleTableRecord
  2
Annotative
 70
     0
 40
0.0
 41
1.0
 50
0.0
 71
     0
 42
0.2
  3
txt
  4

1001
AcadAnnotative
1000
AnnotativeData
1002
{
1070
     1
1070
     1
1002
}
  0
STYLE
  5
1BC
330
3
100
AcDbSymbolTableRecord
100
AcDbTextStyleTableRecord
  2
Jacob-Delafon
 70
     0
 40
0.0
 41
1.0
 50
0.0
 71
     0
 42
2.5
  3
ARIAL.TTF
  4

1001
ACAD
1000
Arial
1071
       34
  0
ENDTAB
  0
TABLE
  2
VIEW
  5
5
330
0
100
AcDbSymbolTable
 70
     1
  0
ENDTAB
  0
TABLE
  2
UCS
  5
6
330
0
100
AcDbSymbolTable
 70
     0
  0
ENDTAB
  0
TABLE
  2
APPID
  5
8
330
0
100
AcDbSymbolTable
 70
     3
  0
APPID
  5
16
330
8
100
AcDbSymbolTableRecord
100
AcDbRegAppTableRecord
  2
ACAD
 70
     0
  0
APPID
  5
1A4
330
8
100
AcDbSymbolTableRecord
100
AcDbRegAppTableRecord
  2
ACAD_MLEADERVER
 70
     0
  0
APPID
  5
1B0
330
8
100
AcDbSymbolTableRecord
100
AcDbRegAppTableRecord
  2
AcadAnnotative
 70
     0
  0
ENDTAB
  0
TABLE
  2
DIMSTYLE
  5
9
330
0
100
AcDbSymbolTable
 70
     3
100
AcDbDimStyleTable
 71
     1
340
1BD
  0
DIMSTYLE
105
18
330
9
100
AcDbSymbolTableRecord
100
AcDbDimStyleTableRecord
  2
Standard
 70
     0
340
17
  0
DIMSTYLE
105
1AF
330
9
100
AcDbSymbolTableRecord
100
AcDbDimStyleTableRecord
  2
Annotative
 70
     0
340
17
1001
AcadAnnotative
1000
AnnotativeData
1002
{
1070
     1
1070
     1
1002
}
  0
DIMSTYLE
105
1BD
102
{ACAD_REACTORS
330
1C4
330
1D1
102
}
330
9
100
AcDbSymbolTableRecord
100
AcDbDimStyleTableRecord
  2
Cotation-Jacob-Delafon
 70
     0
 41
1.8
 42
0.625
 43
3.799999999999998
 44
1.8
 73
     0
 74
     0
 77
     1
 78
    12
 79
     3
140
3.0
141
0.9
147
0.9
271
     2
272
     2
279
     2
340
1BC
341
1B8
342
1B8
  0
ENDTAB
  0
TABLE
  2
BLOCK_RECORD
  5
1
330
0
100
AcDbSymbolTable
 70
     5
  0
BLOCK_RECORD
  5
A
330
1
100
AcDbSymbolTableRecord
100
AcDbBlockTableRecord
  2
*MODEL_SPACE
340
20
 70
     0
280
     1
281
     0
  0
BLOCK_RECORD
  5
B
330
1
100
AcDbSymbolTableRecord
100
AcDbBlockTableRecord
  2
*PAPER_SPACE
340
21
 70
     0
280
     1
281
     0
  0
BLOCK_RECORD
  5
1B8
330
1
100
AcDbSymbolTableRecord
100
AcDbBlockTableRecord
  2
_Oblique
340
0
102
{BLKREFS
331
1F3
331
1F4
331
1FC
331
1FD
102
}
 70
     0
280
     1
281
     0
  0
BLOCK_RECORD
  5
1C5
330
1
100
AcDbSymbolTableRecord
100
AcDbBlockTableRecord
  2
*D3
340
0
 70
     0
280
     1
281
     0
  0
BLOCK_RECORD
  5
1D2
330
1
100
AcDbSymbolTableRecord
100
AcDbBlockTableRecord
  2
*D4
340
0
 70
     0
280
     1
281
     0
  0
ENDTAB
  0
ENDSEC
  0
SECTION
  2
BLOCKS
  0
BLOCK
  5
D
330
A
100
AcDbEntity
  8
0
100
AcDbBlockBegin
  2
*MODEL_SPACE
 70
     0
 10
0.0
 20
0.0
 30
0.0
  3
*MODEL_SPACE
  1

  0
ENDBLK
  5
E
330
A
100
AcDbEntity
  8
0
100
AcDbBlockEnd
  0
BLOCK
  5
F
330
B
100
AcDbEntity
 67
     1
  8
0
100
AcDbBlockBegin
  2
*PAPER_SPACE
 70
     0
 10
0.0
 20
0.0
 30
0.0
  3
*PAPER_SPACE
  1

  0
ENDBLK
  5
10
330
B
100
AcDbEntity
 67
     1
  8
0
100
AcDbBlockEnd
  0
BLOCK
  5
1B9
330
1B8
100
AcDbEntity
  8
0
100
AcDbBlockBegin
  2
_Oblique
 70
     0
 10
0.0
 20
0.0
 30
0.0
  3
_Oblique
  1

  0
LINE
  5
1BA
330
1B8
100
AcDbEntity
  8
0
  6
ByBlock
 62
     0
370
    -2
380
     1
100
AcDbLine
 10
-0.5
 20
-0.5
 30
0.0
 11
0.5
 21
0.5
 31
0.0
  0
ENDBLK
  5
1BB
330
1B8
100
AcDbEntity
  8
0
100
AcDbBlockEnd
  0
BLOCK
  5
1C6
330
1C5
100
AcDbEntity
  8
0
370
     0
100
AcDbBlockBegin
  2
*D3
 70
     1
 10
0.0
 20
0.0
 30
0.0
  3
*D3
  1

  0
LINE
  5
1F9
330
1C5
100
AcDbEntity
  8
Cotation-JacobDelafon
  6
Continuous
 62
     0
370
    -2
100
AcDbLine
 10
186.635292
 20
159.117824
 30
0.0
 11
186.635292
 21
170.4860742485101
 31
0.0
  0
LINE
  5
1FA
330
1C5
100
AcDbEntity
  8
Cotation-JacobDelafon
  6
Continuous
 62
     0
370
    -2
100
AcDbLine
 10
213.364754
 20
155.7804735
 30
0.0
 11
213.364754
 21
170.4860742485101
 31
0.0
  0
LINE
  5
1FB
330
1C5
100
AcDbEntity
  8
Cotation-JacobDelafon
  6
Continuous
 62
     0
370
    -2
100
AcDbLine
 10
186.635292
 20
168.6860742485101
 30
0.0
 11
213.364754
 21
168.6860742485101
 31
0.0
  0
INSERT
  5
1FC
330
1C5
100
AcDbEntity
  8
Cotation-JacobDelafon
  6
Continuous
 62
     0
370
    -2
100
AcDbBlockReference
  2
_Oblique
 10
186.635292
 20
168.6860742485101
 30
0.0
 41
1.8
 42
1.8
 43
1.8
 50
180.0
  0
INSERT
  5
1FD
330
1C5
100
AcDbEntity
  8
Cotation-JacobDelafon
  6
Continuous
 62
     0
370
    -2
100
AcDbBlockReference
  2
_Oblique
 10
213.364754
 20
168.6860742485101
 30
0.0
 41
1.8
 42
1.8
 43
1.8
  0
MTEXT
  5
1FE
330
1C5
100
AcDbEntity
  8
Cotation-JacobDelafon
  6
Continuous
 62
     0
370
     0
100
AcDbMText
 10
200.000023
 20
171.1177932116752
 30
0.0
 40
3.0
 41
0.0
 46
0.0
 71
     5
 72
     1
  1
\A1;26.7
  7
Jacob-Delafon
 73
     1
 44
1.0
  0
POINT
  5
1FF
330
1C5
100
AcDbEntity
  8
Defpoints
  6
Continuous
 62
     0
370
     0
100
AcDbPoint
 10
186.635292
 20
158.492824
 30
0.0
  0
POINT
  5
200
330
1C5
100
AcDbEntity
  8
Defpoints
  6
Continuous
 62
     0
370
     0
100
AcDbPoint
 10
213.364754
 20
155.1554735
 30
0.0
  0
POINT
  5
201
330
1C5
100
AcDbEntity
  8
Defpoints
  6
Continuous
 62
     0
370
     0
100
AcDbPoint
 10
213.364754
 20
168.6860742485101
 30
0.0
  0
ENDBLK
  5
1C7
330
1C5
100
AcDbEntity
  8
0
370
     0
100
AcDbBlockEnd
  0
BLOCK
  5
1D3
330
1D2
100
AcDbEntity
  8
0
370
     0
100
AcDbBlockBegin
  2
*D4
 70
     1
 10
0.0
 20
0.0
 30
0.0
  3
*D4
  1

  0
LINE
  5
1F0
330
1D2
100
AcDbEntity
  8
Cotation-JacobDelafon
  6
Continuous
 62
     0
370
    -2
100
AcDbLine
 10
186.010292
 20
158.492824
 30
0.0
 11
174.7652020390038
 21
158.492824
 31
0.0
  0
LINE
  5
1F1
330
1D2
100
AcDbEntity
  8
Cotation-JacobDelafon
  6
Continuous
 62
     0
370
    -2
100
AcDbLine
 10
199.37709
 20
141.506953
 30
0.0
 11
174.7652020390038
 21
141.506953
 31
0.0
  0
LINE
  5
1F2
330
1D2
100
AcDbEntity
  8
Cotation-JacobDelafon
  6
Continuous
 62
     0
370
    -2
100
AcDbLine
 10
176.5652020390038
 20
158.492824
 30
0.0
 11
176.5652020390038
 21
141.506953
 31
0.0
  0
INSERT
  5
1F3
330
1D2
100
AcDbEntity
  8
Cotation-JacobDelafon
  6
Continuous
 62
     0
370
    -2
100
AcDbBlockReference
  2
_Oblique
 10
176.5652020390038
 20
158.492824
 30
0.0
 41
1.8
 42
1.8
 43
1.8
 50
90.0
  0
INSERT
  5
1F4
330
1D2
100
AcDbEntity
  8
Cotation-JacobDelafon
  6
Continuous
 62
     0
370
    -2
100
AcDbBlockReference
  2
_Oblique
 10
176.5652020390038
 20
141.506953
 30
0.0
 41
1.8
 42
1.8
 43
1.8
 50
270.0
  0
MTEXT
  5
1F5
330
1D2
100
AcDbEntity
  8
Cotation-JacobDelafon
  6
Continuous
 62
     0
370
     0
100
AcDbMText
 10
174.1590628848428
 20
149.9998885
 30
0.0
 40
3.0
 41
0.0
 46
0.0
 71
     5
 72
     1
  1
\A1;17
  7
Jacob-Delafon
 11
0.0000000000000001
 21
1.0
 31
0.0
 73
     1
 44
1.0
  0
POINT
  5
1F6
330
1D2
100
AcDbEntity
  8
Defpoints
  6
Continuous
 62
     0
370
     0
100
AcDbPoint
 10
186.635292
 20
158.492824
 30
0.0
  0
POINT
  5
1F7
330
1D2
100
AcDbEntity
  8
Defpoints
  6
Continuous
 62
     0
370
     0
100
AcDbPoint
 10
200.00209
 20
141.506953
 30
0.0
  0
POINT
  5
1F8
330
1D2
100
AcDbEntity
  8
Defpoints
  6
Continuous
 62
     0
370
     0
100
AcDbPoint
 10
176.5652020390038
 20
141.506953
 30
0.0
  0
ENDBLK
  5
1D4
330
1D2
100
AcDbEntity
  8
0
370
     0
100
AcDbBlockEnd
  0
ENDSEC
  0
SECTION
  2
ENTITIES
  0
LINE
  5
160
330
A
100
AcDbEntity
  8
0
 62
     7
100
AcDbLine
 10
200.00209
 20
141.506953
 30
0.0
 11
200.464594
 21
141.630976
 31
0.0
  0
LINE
  5
15F
330
A
100
AcDbEntity
  8
0
 62
     7
100
AcDbLine
 10
199.077082
 20
142.431961
 30
0.0
 11
199.201105
 21
141.969629
 31
0.0
  0
LINE
  5
15E
330
A
100
AcDbEntity
  8
0
 62
     7
100
AcDbLine
 10
199.077082
 20
142.530146
 30
0.0
 11
199.077082
 21
142.431961
 31
0.0
  0
LINE
  5
15D
330
A
100
AcDbEntity
  8
0
 62
     7
100
AcDbLine
 10
199.201105
 20
141.969629
 30
0.0
 11
199.539586
 21
141.630976
 31
0.0
  0
LINE
  5
15C
330
A
100
AcDbEntity
  8
0
 62
     7
100
AcDbLine
 10
199.539586
 20
141.630976
 30
0.0
 11
200.00209
 21
141.506953
 31
0.0
  0
LINE
  5
15B
330
A
100
AcDbEntity
  8
0
 62
     7
100
AcDbLine
 10
200.00209
 20
141.506953
 30
0.0
 11
200.464594
 21
141.630976
 31
0.0
  0
LINE
  5
15A
330
A
100
AcDbEntity
  8
0
 62
     7
100
AcDbLine
 10
200.464594
 20
141.630976
 30
0.0
 11
200.803247
 21
141.969629
 31
0.0
  0
LINE
  5
159
330
A
100
AcDbEntity
  8
0
 62
     7
100
AcDbLine
 10
200.803247
 20
141.969629
 30
0.0
 11
200.927271
 21
142.431961
 31
0.0
  0
LINE
  5
158
330
A
100
AcDbEntity
  8
0
 62
     7
100
AcDbLine
 10
200.927271
 20
142.530146
 30
0.0
 11
200.927271
 21
142.431961
 31
0.0
  0
LINE
  5
157
330
A
100
AcDbEntity
  8
0
 62
     7
100
AcDbLine
 10
199.077082
 20
142.807476
 30
0.0
 11
199.077082
 21
142.530146
 31
0.0
  0
LINE
  5
156
330
A
100
AcDbEntity
  8
0
 62
     7
100
AcDbLine
 10
200.927271
 20
142.807476
 30
0.0
 11
200.927271
 21
142.530146
 31
0.0
  0
LINE
  5
155
330
A
100
AcDbEntity
  8
0
 62
     7
100
AcDbLine
 10
199.077082
 20
143.237424
 30
0.0
 11
199.077082
 21
142.807476
 31
0.0
  0
LINE
  5
154
330
A
100
AcDbEntity
  8
0
 62
     7
100
AcDbLine
 10
200.927271
 20
143.237424
 30
0.0
 11
200.927271
 21
142.807476
 31
0.0
  0
LINE
  5
153
330
A
100
AcDbEntity
  8
0
 62
     7
100
AcDbLine
 10
199.077082
 20
143.794151
 30
0.0
 11
199.077082
 21
143.237424
 31
0.0
  0
LINE
  5
152
330
A
100
AcDbEntity
  8
0
 62
     7
100
AcDbLine
 10
200.927271
 20
143.794151
 30
0.0
 11
200.927271
 21
143.237424
 31
0.0
  0
LINE
  5
151
330
A
100
AcDbEntity
  8
0
 62
     7
100
AcDbLine
 10
199.077082
 20
144.451131
 30
0.0
 11
199.077082
 21
143.794151
 31
0.0
  0
LINE
  5
150
330
A
100
AcDbEntity
  8
0
 62
     7
100
AcDbLine
 10
200.927271
 20
144.451131
 30
0.0
 11
200.927271
 21
143.794151
 31
0.0
  0
LINE
  5
14F
330
A
100
AcDbEntity
  8
0
 62
     7
100
AcDbLine
 10
199.077082
 20
145.18218
 30
0.0
 11
199.077082
 21
144.451131
 31
0.0
  0
LINE
  5
14E
330
A
100
AcDbEntity
  8
0
 62
     7
100
AcDbLine
 10
200.927271
 20
145.18218
 30
0.0
 11
200.927271
 21
144.451131
 31
0.0
  0
LINE
  5
14D
330
A
100
AcDbEntity
  8
0
 62
     7
100
AcDbLine
 10
199.077082
 20
152.376918
 30
0.0
 11
199.077082
 21
145.18218
 31
0.0
  0
LINE
  5
14C
330
A
100
AcDbEntity
  8
0
 62
     7
100
AcDbLine
 10
200.927271
 20
152.376918
 30
0.0
 11
200.927271
 21
145.18218
 31
0.0
  0
LINE
  5
14B
330
A
100
AcDbEntity
  8
0
 62
     7
100
AcDbLine
 10
199.077082
 20
153.107967
 30
0.0
 11
199.077082
 21
152.376918
 31
0.0
  0
LINE
  5
14A
330
A
100
AcDbEntity
  8
0
 62
     7
100
AcDbLine
 10
200.927271
 20
153.107967
 30
0.0
 11
200.927271
 21
152.376918
 31
0.0
  0
LINE
  5
149
330
A
100
AcDbEntity
  8
0
 62
     7
100
AcDbLine
 10
199.077082
 20
153.764947
 30
0.0
 11
199.077082
 21
153.107967
 31
0.0
  0
LINE
  5
148
330
A
100
AcDbEntity
  8
0
 62
     7
100
AcDbLine
 10
200.927271
 20
153.764947
 30
0.0
 11
200.927271
 21
153.107967
 31
0.0
  0
LINE
  5
147
330
A
100
AcDbEntity
  8
0
 62
     7
100
AcDbLine
 10
199.077082
 20
154.321502
 30
0.0
 11
199.077082
 21
153.764947
 31
0.0
  0
LINE
  5
146
330
A
100
AcDbEntity
  8
0
 62
     7
100
AcDbLine
 10
200.927271
 20
154.321502
 30
0.0
 11
200.927271
 21
153.764947
 31
0.0
  0
LINE
  5
145
330
A
100
AcDbEntity
  8
0
 62
     7
100
AcDbLine
 10
199.077082
 20
154.75145
 30
0.0
 11
199.077082
 21
154.321502
 31
0.0
  0
LINE
  5
144
330
A
100
AcDbEntity
  8
0
 62
     7
100
AcDbLine
 10
200.927271
 20
154.75145
 30
0.0
 11
200.927271
 21
154.321502
 31
0.0
  0
LINE
  5
143
330
A
100
AcDbEntity
  8
0
 62
     7
100
AcDbLine
 10
199.077082
 20
155.02878
 30
0.0
 11
199.077082
 21
154.75145
 31
0.0
  0
LINE
  5
142
330
A
100
AcDbEntity
  8
0
 62
     7
100
AcDbLine
 10
200.927271
 20
155.02878
 30
0.0
 11
200.927271
 21
154.75145
 31
0.0
  0
LINE
  5
141
330
A
100
AcDbEntity
  8
0
 62
     7
100
AcDbLine
 10
199.077082
 20
155.126965
 30
0.0
 11
199.077082
 21
155.02878
 31
0.0
  0
LINE
  5
140
330
A
100
AcDbEntity
  8
0
 62
     7
100
AcDbLine
 10
200.927271
 20
155.126965
 30
0.0
 11
200.927271
 21
155.02878
 31
0.0
  0
LINE
  5
13F
330
A
100
AcDbEntity
  8
0
 62
     7
100
AcDbLine
 10
199.077082
 20
155.126965
 30
0.0
 11
199.201105
 21
155.589469
 31
0.0
  0
LINE
  5
13E
330
A
100
AcDbEntity
  8
0
 62
     7
100
AcDbLine
 10
199.201105
 20
155.589469
 30
0.0
 11
199.539586
 21
155.92795
 31
0.0
  0
LINE
  5
13D
330
A
100
AcDbEntity
  8
0
 62
     7
100
AcDbLine
 10
199.539586
 20
155.92795
 30
0.0
 11
200.00209
 21
156.051973
 31
0.0
  0
LINE
  5
13C
330
A
100
AcDbEntity
  8
0
 62
     7
100
AcDbLine
 10
200.00209
 20
156.051973
 30
0.0
 11
200.464594
 21
155.92795
 31
0.0
  0
LINE
  5
13B
330
A
100
AcDbEntity
  8
0
 62
     7
100
AcDbLine
 10
200.464594
 20
155.92795
 30
0.0
 11
200.803247
 21
155.589469
 31
0.0
  0
LINE
  5
13A
330
A
100
AcDbEntity
  8
0
 62
     7
100
AcDbLine
 10
200.803247
 20
155.589469
 30
0.0
 11
200.927271
 21
155.126965
 31
0.0
  0
LINE
  5
139
330
A
100
AcDbEntity
  8
0
 62
     7
100
AcDbLine
 10
200.927271
 20
155.126965
 30
0.0
 11
200.803247
 21
155.589469
 31
0.0
  0
LINE
  5
138
330
A
100
AcDbEntity
  8
0
 62
     7
100
AcDbLine
 10
198.06853
 20
154.499269
 30
0.0
 11
197.969139
 21
155.127999
 31
0.0
  0
LINE
  5
137
330
A
100
AcDbEntity
  8
0
 62
     7
100
AcDbLine
 10
198.357057
 20
153.931862
 30
0.0
 11
198.06853
 21
154.499269
 31
0.0
  0
LINE
  5
136
330
A
100
AcDbEntity
  8
0
 62
     7
100
AcDbLine
 10
198.80647
 20
153.48176
 30
0.0
 11
198.357057
 21
153.931862
 31
0.0
  0
LINE
  5
135
330
A
100
AcDbEntity
  8
0
 62
     7
100
AcDbLine
 10
199.077082
 20
153.343612
 30
0.0
 11
198.80647
 21
153.48176
 31
0.0
  0
LINE
  5
134
330
A
100
AcDbEntity
  8
0
 62
     7
100
AcDbLine
 10
201.194265
 20
153.48176
 30
0.0
 11
200.927271
 21
153.345334
 31
0.0
  0
LINE
  5
133
330
A
100
AcDbEntity
  8
0
 62
     7
100
AcDbLine
 10
201.64385
 20
153.931862
 30
0.0
 11
201.194265
 21
153.48176
 31
0.0
  0
LINE
  5
132
330
A
100
AcDbEntity
  8
0
 62
     7
100
AcDbLine
 10
201.932205
 20
154.499269
 30
0.0
 11
201.64385
 21
153.931862
 31
0.0
  0
LINE
  5
131
330
A
100
AcDbEntity
  8
0
 62
     7
100
AcDbLine
 10
202.031768
 20
155.127999
 30
0.0
 11
201.932205
 21
154.499269
 31
0.0
  0
LINE
  5
130
330
A
100
AcDbEntity
  8
0
 62
     7
100
AcDbLine
 10
201.932205
 20
155.756901
 30
0.0
 11
202.031768
 21
155.127999
 31
0.0
  0
LINE
  5
12F
330
A
100
AcDbEntity
  8
0
 62
     7
100
AcDbLine
 10
201.64385
 20
156.324136
 30
0.0
 11
201.932205
 21
155.756901
 31
0.0
  0
LINE
  5
12E
330
A
100
AcDbEntity
  8
0
 62
     7
100
AcDbLine
 10
201.194265
 20
156.77441
 30
0.0
 11
201.64385
 21
156.324136
 31
0.0
  0
LINE
  5
12D
330
A
100
AcDbEntity
  8
0
 62
     7
100
AcDbLine
 10
200.628236
 20
157.063454
 30
0.0
 11
201.194265
 21
156.77441
 31
0.0
  0
LINE
  5
12C
330
A
100
AcDbEntity
  8
0
 62
     7
100
AcDbLine
 10
200.000368
 20
157.163017
 30
0.0
 11
200.628236
 21
157.063454
 31
0.0
  0
LINE
  5
12B
330
A
100
AcDbEntity
  8
0
 62
     7
100
AcDbLine
 10
199.372671
 20
157.063454
 30
0.0
 11
200.000368
 21
157.163017
 31
0.0
  0
LINE
  5
12A
330
A
100
AcDbEntity
  8
0
 62
     7
100
AcDbLine
 10
198.80647
 20
156.77441
 30
0.0
 11
199.372671
 21
157.063454
 31
0.0
  0
LINE
  5
129
330
A
100
AcDbEntity
  8
0
 62
     7
100
AcDbLine
 10
198.357057
 20
156.324136
 30
0.0
 11
198.80647
 21
156.77441
 31
0.0
  0
LINE
  5
128
330
A
100
AcDbEntity
  8
0
 62
     7
100
AcDbLine
 10
198.06853
 20
155.756901
 30
0.0
 11
198.357057
 21
156.324136
 31
0.0
  0
LINE
  5
127
330
A
100
AcDbEntity
  8
0
 62
     7
100
AcDbLine
 10
197.969139
 20
155.127999
 30
0.0
 11
198.06853
 21
155.756901
 31
0.0
  0
LINE
  5
126
330
A
100
AcDbEntity
  8
0
 62
     7
100
AcDbLine
 10
198.531551
 20
155.127999
 30
0.0
 11
198.603554
 21
155.582751
 31
0.0
  0
LINE
  5
125
330
A
100
AcDbEntity
  8
0
 62
     7
100
AcDbLine
 10
198.603554
 20
154.673419
 30
0.0
 11
198.531551
 21
155.127999
 31
0.0
  0
LINE
  5
124
330
A
100
AcDbEntity
  8
0
 62
     7
100
AcDbLine
 10
198.812154
 20
154.263108
 30
0.0
 11
198.603554
 21
154.673419
 31
0.0
  0
LINE
  5
123
330
A
100
AcDbEntity
  8
0
 62
     7
100
AcDbLine
 10
199.077082
 20
153.997663
 30
0.0
 11
198.812154
 21
154.263108
 31
0.0
  0
LINE
  5
122
330
A
100
AcDbEntity
  8
0
 62
     7
100
AcDbLine
 10
201.188753
 20
154.263108
 30
0.0
 11
200.927271
 21
154.001108
 31
0.0
  0
LINE
  5
121
330
A
100
AcDbEntity
  8
0
 62
     7
100
AcDbLine
 10
201.397182
 20
154.673419
 30
0.0
 11
201.188753
 21
154.263108
 31
0.0
  0
LINE
  5
120
330
A
100
AcDbEntity
  8
0
 62
     7
100
AcDbLine
 10
201.469184
 20
155.127999
 30
0.0
 11
201.397182
 21
154.673419
 31
0.0
  0
LINE
  5
11F
330
A
100
AcDbEntity
  8
0
 62
     7
100
AcDbLine
 10
201.397182
 20
155.582751
 30
0.0
 11
201.469184
 21
155.127999
 31
0.0
  0
LINE
  5
11E
330
A
100
AcDbEntity
  8
0
 62
     7
100
AcDbLine
 10
201.188753
 20
155.99289
 30
0.0
 11
201.397182
 21
155.582751
 31
0.0
  0
LINE
  5
11D
330
A
100
AcDbEntity
  8
0
 62
     7
100
AcDbLine
 10
200.863536
 20
156.318452
 30
0.0
 11
201.188753
 21
155.99289
 31
0.0
  0
LINE
  5
11C
330
A
100
AcDbEntity
  8
0
 62
     7
100
AcDbLine
 10
200.454259
 20
156.527569
 30
0.0
 11
200.863536
 21
156.318452
 31
0.0
  0
LINE
  5
11B
330
A
100
AcDbEntity
  8
0
 62
     7
100
AcDbLine
 10
200.000368
 20
156.599571
 30
0.0
 11
200.454259
 21
156.527569
 31
0.0
  0
LINE
  5
11A
330
A
100
AcDbEntity
  8
0
 62
     7
100
AcDbLine
 10
199.546476
 20
156.527569
 30
0.0
 11
200.000368
 21
156.599571
 31
0.0
  0
LINE
  5
119
330
A
100
AcDbEntity
  8
0
 62
     7
100
AcDbLine
 10
199.137027
 20
156.318452
 30
0.0
 11
199.546476
 21
156.527569
 31
0.0
  0
LINE
  5
118
330
A
100
AcDbEntity
  8
0
 62
     7
100
AcDbLine
 10
198.812154
 20
155.99289
 30
0.0
 11
199.137027
 21
156.318452
 31
0.0
  0
LINE
  5
117
330
A
100
AcDbEntity
  8
0
 62
     7
100
AcDbLine
 10
198.603554
 20
155.582751
 30
0.0
 11
198.812154
 21
155.99289
 31
0.0
  0
LINE
  5
116
330
A
100
AcDbEntity
  8
0
 62
     7
100
AcDbLine
 10
200.955176
 20
155.438919
 30
0.0
 11
200.812549
 21
155.71935
 31
0.0
  0
LINE
  5
115
330
A
100
AcDbEntity
  8
0
 62
     7
100
AcDbLine
 10
200.812549
 20
155.71935
 30
0.0
 11
200.590685
 21
155.94173
 31
0.0
  0
LINE
  5
114
330
A
100
AcDbEntity
  8
0
 62
     7
100
AcDbLine
 10
200.590685
 20
155.94173
 30
0.0
 11
200.310598
 21
156.084702
 31
0.0
  0
LINE
  5
113
330
A
100
AcDbEntity
  8
0
 62
     7
100
AcDbLine
 10
200.310598
 20
156.084702
 30
0.0
 11
200.000368
 21
156.133967
 31
0.0
  0
LINE
  5
112
330
A
100
AcDbEntity
  8
0
 62
     7
100
AcDbLine
 10
200.000368
 20
156.133967
 30
0.0
 11
199.690137
 21
156.084702
 31
0.0
  0
LINE
  5
111
330
A
100
AcDbEntity
  8
0
 62
     7
100
AcDbLine
 10
199.690137
 20
156.084702
 30
0.0
 11
199.410223
 21
155.94173
 31
0.0
  0
LINE
  5
110
330
A
100
AcDbEntity
  8
0
 62
     7
100
AcDbLine
 10
199.410223
 20
155.94173
 30
0.0
 11
199.188186
 21
155.71935
 31
0.0
  0
LINE
  5
10F
330
A
100
AcDbEntity
  8
0
 62
     7
100
AcDbLine
 10
199.188186
 20
155.71935
 30
0.0
 11
199.045559
 21
155.438919
 31
0.0
  0
LINE
  5
10E
330
A
100
AcDbEntity
  8
0
 62
     7
100
AcDbLine
 10
199.045559
 20
155.438919
 30
0.0
 11
198.996294
 21
155.127999
 31
0.0
  0
LINE
  5
10D
330
A
100
AcDbEntity
  8
0
 62
     7
100
AcDbLine
 10
198.996294
 20
155.127999
 30
0.0
 11
199.045559
 21
154.817251
 31
0.0
  0
LINE
  5
10C
330
A
100
AcDbEntity
  8
0
 62
     7
100
AcDbLine
 10
199.045559
 20
154.817251
 30
0.0
 11
199.077082
 21
154.755067
 31
0.0
  0
LINE
  5
10B
330
A
100
AcDbEntity
  8
0
 62
     7
100
AcDbLine
 10
200.927271
 20
154.761957
 30
0.0
 11
200.955176
 21
154.817251
 31
0.0
  0
LINE
  5
10A
330
A
100
AcDbEntity
  8
0
 62
     7
100
AcDbLine
 10
200.955176
 20
154.817251
 30
0.0
 11
201.004441
 21
155.127999
 31
0.0
  0
LINE
  5
109
330
A
100
AcDbEntity
  8
0
 62
     7
100
AcDbLine
 10
201.004441
 20
155.127999
 30
0.0
 11
200.955176
 21
155.438919
 31
0.0
  0
LINE
  5
108
330
A
100
AcDbEntity
  8
0
 62
     7
100
AcDbLine
 10
188.068624
 20
154.499269
 30
0.0
 11
188.025216
 21
154.772982
 31
0.0
  0
LINE
  5
107
330
A
100
AcDbEntity
  8
0
 62
     7
100
AcDbLine
 10
188.356978
 20
153.931862
 30
0.0
 11
188.068624
 21
154.499269
 31
0.0
  0
LINE
  5
106
330
A
100
AcDbEntity
  8
0
 62
     7
100
AcDbLine
 10
188.8063909999999
 20
153.48176
 30
0.0
 11
188.356978
 21
153.931862
 31
0.0
  0
LINE
  5
105
330
A
100
AcDbEntity
  8
0
 62
     7
100
AcDbLine
 10
189.372765
 20
153.192716
 30
0.0
 11
188.8063909999999
 21
153.48176
 31
0.0
  0
LINE
  5
104
330
A
100
AcDbEntity
  8
0
 62
     7
100
AcDbLine
 10
189.6451
 20
153.149481
 30
0.0
 11
189.372765
 21
153.192716
 31
0.0
  0
LINE
  5
103
330
A
100
AcDbEntity
  8
0
 62
     7
100
AcDbLine
 10
190.628158
 20
153.192716
 30
0.0
 11
190.355134
 21
153.149308
 31
0.0
  0
LINE
  5
102
330
A
100
AcDbEntity
  8
0
 62
     7
100
AcDbLine
 10
191.194359
 20
153.48176
 30
0.0
 11
190.628158
 21
153.192716
 31
0.0
  0
LINE
  5
101
330
A
100
AcDbEntity
  8
0
 62
     7
100
AcDbLine
 10
191.643772
 20
153.931862
 30
0.0
 11
191.194359
 21
153.48176
 31
0.0
  0
LINE
  5
100
330
A
100
AcDbEntity
  8
0
 62
     7
100
AcDbLine
 10
191.932298
 20
154.499269
 30
0.0
 11
191.643772
 21
153.931862
 31
0.0
  0
LINE
  5
FF
330
A
100
AcDbEntity
  8
0
 62
     7
100
AcDbLine
 10
191.975534
 20
154.772982
 30
0.0
 11
191.932298
 21
154.499269
 31
0.0
  0
LINE
  5
FE
330
A
100
AcDbEntity
  8
0
 62
     7
100
AcDbLine
 10
191.932298
 20
155.756901
 30
0.0
 11
191.975534
 21
155.483016
 31
0.0
  0
LINE
  5
FD
330
A
100
AcDbEntity
  8
0
 62
     7
100
AcDbLine
 10
191.643772
 20
156.324136
 30
0.0
 11
191.932298
 21
155.756901
 31
0.0
  0
LINE
  5
FC
330
A
100
AcDbEntity
  8
0
 62
     7
100
AcDbLine
 10
191.194359
 20
156.77441
 30
0.0
 11
191.643772
 21
156.324136
 31
0.0
  0
LINE
  5
FB
330
A
100
AcDbEntity
  8
0
 62
     7
100
AcDbLine
 10
190.628158
 20
157.063454
 30
0.0
 11
191.194359
 21
156.77441
 31
0.0
  0
LINE
  5
FA
330
A
100
AcDbEntity
  8
0
 62
     7
100
AcDbLine
 10
190.355134
 20
157.106689
 30
0.0
 11
190.628158
 21
157.063454
 31
0.0
  0
LINE
  5
F9
330
A
100
AcDbEntity
  8
0
 62
     7
100
AcDbLine
 10
189.372765
 20
157.063454
 30
0.0
 11
189.6451
 21
157.106689
 31
0.0
  0
LINE
  5
F8
330
A
100
AcDbEntity
  8
0
 62
     7
100
AcDbLine
 10
188.8063909999999
 20
156.77441
 30
0.0
 11
189.372765
 21
157.063454
 31
0.0
  0
LINE
  5
F7
330
A
100
AcDbEntity
  8
0
 62
     7
100
AcDbLine
 10
188.356978
 20
156.324136
 30
0.0
 11
188.8063909999999
 21
156.77441
 31
0.0
  0
LINE
  5
F6
330
A
100
AcDbEntity
  8
0
 62
     7
100
AcDbLine
 10
188.068624
 20
155.756901
 30
0.0
 11
188.356978
 21
156.324136
 31
0.0
  0
LINE
  5
F5
330
A
100
AcDbEntity
  8
0
 62
     7
100
AcDbLine
 10
188.025216
 20
155.483016
 30
0.0
 11
188.068624
 21
155.756901
 31
0.0
  0
LINE
  5
F4
330
A
100
AcDbEntity
  8
0
 62
     7
100
AcDbLine
 10
188.5878
 20
155.483016
 30
0.0
 11
188.603475
 21
155.582751
 31
0.0
  0
LINE
  5
F3
330
A
100
AcDbEntity
  8
0
 62
     7
100
AcDbLine
 10
188.603475
 20
154.673419
 30
0.0
 11
188.5878
 21
154.772982
 31
0.0
  0
LINE
  5
F2
330
A
100
AcDbEntity
  8
0
 62
     7
100
AcDbLine
 10
188.812075
 20
154.263108
 30
0.0
 11
188.603475
 21
154.673419
 31
0.0
  0
LINE
  5
F1
330
A
100
AcDbEntity
  8
0
 62
     7
100
AcDbLine
 10
189.13712
 20
153.937546
 30
0.0
 11
188.812075
 21
154.263108
 31
0.0
  0
LINE
  5
F0
330
A
100
AcDbEntity
  8
0
 62
     7
100
AcDbLine
 10
189.54657
 20
153.728601
 30
0.0
 11
189.13712
 21
153.937546
 31
0.0
  0
LINE
  5
EF
330
A
100
AcDbEntity
  8
0
 62
     7
100
AcDbLine
 10
189.6451
 20
153.712926
 30
0.0
 11
189.54657
 21
153.728601
 31
0.0
  0
LINE
  5
EE
330
A
100
AcDbEntity
  8
0
 62
     7
100
AcDbLine
 10
190.45418
 20
153.728601
 30
0.0
 11
190.355134
 21
153.712926
 31
0.0
  0
LINE
  5
ED
330
A
100
AcDbEntity
  8
0
 62
     7
100
AcDbLine
 10
190.86363
 20
153.937546
 30
0.0
 11
190.45418
 21
153.728601
 31
0.0
  0
LINE
  5
EC
330
A
100
AcDbEntity
  8
0
 62
     7
100
AcDbLine
 10
191.188675
 20
154.263108
 30
0.0
 11
190.86363
 21
153.937546
 31
0.0
  0
LINE
  5
EB
330
A
100
AcDbEntity
  8
0
 62
     7
100
AcDbLine
 10
191.397275
 20
154.673419
 30
0.0
 11
191.188675
 21
154.263108
 31
0.0
  0
LINE
  5
EA
330
A
100
AcDbEntity
  8
0
 62
     7
100
AcDbLine
 10
191.41295
 20
154.772982
 30
0.0
 11
191.397275
 21
154.673419
 31
0.0
  0
LINE
  5
E9
330
A
100
AcDbEntity
  8
0
 62
     7
100
AcDbLine
 10
191.397275
 20
155.582751
 30
0.0
 11
191.41295
 21
155.483016
 31
0.0
  0
LINE
  5
E8
330
A
100
AcDbEntity
  8
0
 62
     7
100
AcDbLine
 10
191.188675
 20
155.99289
 30
0.0
 11
191.397275
 21
155.582751
 31
0.0
  0
LINE
  5
E7
330
A
100
AcDbEntity
  8
0
 62
     7
100
AcDbLine
 10
190.86363
 20
156.318452
 30
0.0
 11
191.188675
 21
155.99289
 31
0.0
  0
LINE
  5
E6
330
A
100
AcDbEntity
  8
0
 62
     7
100
AcDbLine
 10
190.45418
 20
156.527569
 30
0.0
 11
190.86363
 21
156.318452
 31
0.0
  0
LINE
  5
E5
330
A
100
AcDbEntity
  8
0
 62
     7
100
AcDbLine
 10
190.355134
 20
156.543244
 30
0.0
 11
190.45418
 21
156.527569
 31
0.0
  0
LINE
  5
E4
330
A
100
AcDbEntity
  8
0
 62
     7
100
AcDbLine
 10
189.54657
 20
156.527569
 30
0.0
 11
189.6451
 21
156.543072
 31
0.0
  0
LINE
  5
E3
330
A
100
AcDbEntity
  8
0
 62
     7
100
AcDbLine
 10
189.13712
 20
156.318452
 30
0.0
 11
189.54657
 21
156.527569
 31
0.0
  0
LINE
  5
E2
330
A
100
AcDbEntity
  8
0
 62
     7
100
AcDbLine
 10
188.812075
 20
155.99289
 30
0.0
 11
189.13712
 21
156.318452
 31
0.0
  0
LINE
  5
E1
330
A
100
AcDbEntity
  8
0
 62
     7
100
AcDbLine
 10
188.603475
 20
155.582751
 30
0.0
 11
188.812075
 21
155.99289
 31
0.0
  0
LINE
  5
E0
330
A
100
AcDbEntity
  8
0
 62
     7
100
AcDbLine
 10
193.290183
 20
155.459073
 30
0.0
 11
193.250392
 21
155.483016
 31
0.0
  0
LINE
  5
DF
330
A
100
AcDbEntity
  8
0
 62
     7
100
AcDbLine
 10
193.290183
 20
154.797097
 30
0.0
 11
193.250392
 21
154.772982
 31
0.0
  0
LINE
  5
DE
330
A
100
AcDbEntity
  8
0
 62
     7
100
AcDbLine
 10
193.335486
 20
155.400678
 30
0.0
 11
193.290183
 21
155.459073
 31
0.0
  0
LINE
  5
DD
330
A
100
AcDbEntity
  8
0
 62
     7
100
AcDbLine
 10
193.335486
 20
154.85532
 30
0.0
 11
193.290183
 21
154.797097
 31
0.0
  0
LINE
  5
DC
330
A
100
AcDbEntity
  8
0
 62
     7
100
AcDbLine
 10
193.364769
 20
155.305421
 30
0.0
 11
193.335486
 21
155.400678
 31
0.0
  0
LINE
  5
DB
330
A
100
AcDbEntity
  8
0
 62
     7
100
AcDbLine
 10
193.364769
 20
154.950576
 30
0.0
 11
193.335486
 21
154.85532
 31
0.0
  0
LINE
  5
DA
330
A
100
AcDbEntity
  8
0
 62
     7
100
AcDbLine
 10
193.364769
 20
154.959361
 30
0.0
 11
193.364769
 21
154.950576
 31
0.0
  0
LINE
  5
D9
330
A
100
AcDbEntity
  8
0
 62
     7
100
AcDbLine
 10
193.364769
 20
154.984511
 30
0.0
 11
193.364769
 21
154.959361
 31
0.0
  0
LINE
  5
D8
330
A
100
AcDbEntity
  8
0
 62
     7
100
AcDbLine
 10
193.364769
 20
155.023785
 30
0.0
 11
193.364769
 21
154.984511
 31
0.0
  0
LINE
  5
D7
330
A
100
AcDbEntity
  8
0
 62
     7
100
AcDbLine
 10
193.364769
 20
155.073222
 30
0.0
 11
193.364769
 21
155.023785
 31
0.0
  0
LINE
  5
D6
330
A
100
AcDbEntity
  8
0
 62
     7
100
AcDbLine
 10
193.364769
 20
155.127999
 30
0.0
 11
193.364769
 21
155.073222
 31
0.0
  0
LINE
  5
D5
330
A
100
AcDbEntity
  8
0
 62
     7
100
AcDbLine
 10
193.364769
 20
155.182948
 30
0.0
 11
193.364769
 21
155.127999
 31
0.0
  0
LINE
  5
D4
330
A
100
AcDbEntity
  8
0
 62
     7
100
AcDbLine
 10
193.364769
 20
155.232385
 30
0.0
 11
193.364769
 21
155.182948
 31
0.0
  0
LINE
  5
D3
330
A
100
AcDbEntity
  8
0
 62
     7
100
AcDbLine
 10
193.364769
 20
155.271487
 30
0.0
 11
193.364769
 21
155.232385
 31
0.0
  0
LINE
  5
D2
330
A
100
AcDbEntity
  8
0
 62
     7
100
AcDbLine
 10
193.364769
 20
155.296809
 30
0.0
 11
193.364769
 21
155.271487
 31
0.0
  0
LINE
  5
D1
330
A
100
AcDbEntity
  8
0
 62
     7
100
AcDbLine
 10
193.364769
 20
155.305421
 30
0.0
 11
193.364769
 21
155.296809
 31
0.0
  0
LINE
  5
D0
330
A
100
AcDbEntity
  8
0
 62
     7
100
AcDbLine
 10
193.250392
 20
155.483016
 30
0.0
 11
190.355134
 21
155.483016
 31
0.0
  0
LINE
  5
CF
330
A
100
AcDbEntity
  8
0
 62
     7
100
AcDbLine
 10
189.6451
 20
155.483016
 30
0.0
 11
186.750358
 21
155.483016
 31
0.0
  0
LINE
  5
CE
330
A
100
AcDbEntity
  8
0
 62
     7
100
AcDbLine
 10
193.250392
 20
154.772982
 30
0.0
 11
190.355134
 21
154.772982
 31
0.0
  0
LINE
  5
CD
330
A
100
AcDbEntity
  8
0
 62
     7
100
AcDbLine
 10
189.6451
 20
154.772982
 30
0.0
 11
186.750358
 21
154.772982
 31
0.0
  0
LINE
  5
CC
330
A
100
AcDbEntity
  8
0
 62
     7
100
AcDbLine
 10
186.750358
 20
155.483016
 30
0.0
 11
186.710395
 21
155.459073
 31
0.0
  0
LINE
  5
CB
330
A
100
AcDbEntity
  8
0
 62
     7
100
AcDbLine
 10
186.750358
 20
154.772982
 30
0.0
 11
186.710395
 21
154.797097
 31
0.0
  0
LINE
  5
CA
330
A
100
AcDbEntity
  8
0
 62
     7
100
AcDbLine
 10
186.710395
 20
155.459073
 30
0.0
 11
186.66492
 21
155.400678
 31
0.0
  0
LINE
  5
C9
330
A
100
AcDbEntity
  8
0
 62
     7
100
AcDbLine
 10
186.710395
 20
154.797097
 30
0.0
 11
186.66492
 21
154.85532
 31
0.0
  0
LINE
  5
C8
330
A
100
AcDbEntity
  8
0
 62
     7
100
AcDbLine
 10
186.66492
 20
155.400678
 30
0.0
 11
186.635292
 21
155.305421
 31
0.0
  0
LINE
  5
C7
330
A
100
AcDbEntity
  8
0
 62
     7
100
AcDbLine
 10
186.66492
 20
154.85532
 30
0.0
 11
186.635292
 21
154.950576
 31
0.0
  0
LINE
  5
C6
330
A
100
AcDbEntity
  8
0
 62
     7
100
AcDbLine
 10
186.635292
 20
155.296809
 30
0.0
 11
186.635292
 21
155.305421
 31
0.0
  0
LINE
  5
C5
330
A
100
AcDbEntity
  8
0
 62
     7
100
AcDbLine
 10
186.635292
 20
155.271487
 30
0.0
 11
186.635292
 21
155.296809
 31
0.0
  0
LINE
  5
C4
330
A
100
AcDbEntity
  8
0
 62
     7
100
AcDbLine
 10
186.635292
 20
155.232385
 30
0.0
 11
186.635292
 21
155.271487
 31
0.0
  0
LINE
  5
C3
330
A
100
AcDbEntity
  8
0
 62
     7
100
AcDbLine
 10
186.635292
 20
155.182948
 30
0.0
 11
186.635292
 21
155.232385
 31
0.0
  0
LINE
  5
C2
330
A
100
AcDbEntity
  8
0
 62
     7
100
AcDbLine
 10
186.635292
 20
155.127999
 30
0.0
 11
186.635292
 21
155.182948
 31
0.0
  0
LINE
  5
C1
330
A
100
AcDbEntity
  8
0
 62
     7
100
AcDbLine
 10
186.635292
 20
155.073222
 30
0.0
 11
186.635292
 21
155.127999
 31
0.0
  0
LINE
  5
C0
330
A
100
AcDbEntity
  8
0
 62
     7
100
AcDbLine
 10
186.635292
 20
155.023785
 30
0.0
 11
186.635292
 21
155.073222
 31
0.0
  0
LINE
  5
BF
330
A
100
AcDbEntity
  8
0
 62
     7
100
AcDbLine
 10
186.635292
 20
154.984511
 30
0.0
 11
186.635292
 21
155.023785
 31
0.0
  0
LINE
  5
BE
330
A
100
AcDbEntity
  8
0
 62
     7
100
AcDbLine
 10
186.635292
 20
154.959361
 30
0.0
 11
186.635292
 21
154.984511
 31
0.0
  0
LINE
  5
BD
330
A
100
AcDbEntity
  8
0
 62
     7
100
AcDbLine
 10
186.635292
 20
154.950576
 30
0.0
 11
186.635292
 21
154.959361
 31
0.0
  0
LINE
  5
BC
330
A
100
AcDbEntity
  8
0
 62
     7
100
AcDbLine
 10
189.6692149999999
 20
158.418237
 30
0.0
 11
189.6451
 21
158.378274
 31
0.0
  0
LINE
  5
BB
330
A
100
AcDbEntity
  8
0
 62
     7
100
AcDbLine
 10
190.331018
 20
158.418237
 30
0.0
 11
190.355134
 21
158.378274
 31
0.0
  0
LINE
  5
BA
330
A
100
AcDbEntity
  8
0
 62
     7
100
AcDbLine
 10
189.727437
 20
158.463368
 30
0.0
 11
189.6692149999999
 21
158.418237
 31
0.0
  0
LINE
  5
B9
330
A
100
AcDbEntity
  8
0
 62
     7
100
AcDbLine
 10
190.272796
 20
158.463368
 30
0.0
 11
190.331018
 21
158.418237
 31
0.0
  0
LINE
  5
B8
330
A
100
AcDbEntity
  8
0
 62
     7
100
AcDbLine
 10
189.8226939999999
 20
158.492824
 30
0.0
 11
189.727437
 21
158.463368
 31
0.0
  0
LINE
  5
B7
330
A
100
AcDbEntity
  8
0
 62
     7
100
AcDbLine
 10
190.177539
 20
158.492824
 30
0.0
 11
190.272796
 21
158.463368
 31
0.0
  0
LINE
  5
B6
330
A
100
AcDbEntity
  8
0
 62
     7
100
AcDbLine
 10
189.94534
 20
158.492824
 30
0.0
 11
190.000117
 21
158.492824
 31
0.0
  0
LINE
  5
B5
330
A
100
AcDbEntity
  8
0
 62
     7
100
AcDbLine
 10
189.89573
 20
158.492824
 30
0.0
 11
189.94534
 21
158.492824
 31
0.0
  0
LINE
  5
B4
330
A
100
AcDbEntity
  8
0
 62
     7
100
AcDbLine
 10
189.856628
 20
158.492824
 30
0.0
 11
189.89573
 21
158.492824
 31
0.0
  0
LINE
  5
B3
330
A
100
AcDbEntity
  8
0
 62
     7
100
AcDbLine
 10
189.831307
 20
158.492824
 30
0.0
 11
189.856628
 21
158.492824
 31
0.0
  0
LINE
  5
B2
330
A
100
AcDbEntity
  8
0
 62
     7
100
AcDbLine
 10
189.8226939999999
 20
158.492824
 30
0.0
 11
189.831307
 21
158.492824
 31
0.0
  0
LINE
  5
B1
330
A
100
AcDbEntity
  8
0
 62
     7
100
AcDbLine
 10
190.168754
 20
158.492824
 30
0.0
 11
190.177539
 21
158.492824
 31
0.0
  0
LINE
  5
B0
330
A
100
AcDbEntity
  8
0
 62
     7
100
AcDbLine
 10
190.143605
 20
158.492824
 30
0.0
 11
190.168754
 21
158.492824
 31
0.0
  0
LINE
  5
AF
330
A
100
AcDbEntity
  8
0
 62
     7
100
AcDbLine
 10
190.104331
 20
158.492824
 30
0.0
 11
190.143605
 21
158.492824
 31
0.0
  0
LINE
  5
AE
330
A
100
AcDbEntity
  8
0
 62
     7
100
AcDbLine
 10
190.054894
 20
158.492824
 30
0.0
 11
190.104331
 21
158.492824
 31
0.0
  0
LINE
  5
AD
330
A
100
AcDbEntity
  8
0
 62
     7
100
AcDbLine
 10
190.000117
 20
158.492824
 30
0.0
 11
190.054894
 21
158.492824
 31
0.0
  0
LINE
  5
AC
330
A
100
AcDbEntity
  8
0
 62
     7
100
AcDbLine
 10
189.6451
 20
158.378274
 30
0.0
 11
189.6451
 21
155.483016
 31
0.0
  0
LINE
  5
AB
330
A
100
AcDbEntity
  8
0
 62
     7
100
AcDbLine
 10
189.6451
 20
154.772982
 30
0.0
 11
189.6451
 21
151.878413
 31
0.0
  0
LINE
  5
AA
330
A
100
AcDbEntity
  8
0
 62
     7
100
AcDbLine
 10
190.355134
 20
158.378274
 30
0.0
 11
190.355134
 21
155.483016
 31
0.0
  0
LINE
  5
A9
330
A
100
AcDbEntity
  8
0
 62
     7
100
AcDbLine
 10
190.355134
 20
154.772982
 30
0.0
 11
190.355134
 21
151.878413
 31
0.0
  0
LINE
  5
A8
330
A
100
AcDbEntity
  8
0
 62
     7
100
AcDbLine
 10
189.6451
 20
151.878413
 30
0.0
 11
189.6692149999999
 21
151.838277
 31
0.0
  0
LINE
  5
A7
330
A
100
AcDbEntity
  8
0
 62
     7
100
AcDbLine
 10
190.355134
 20
151.878413
 30
0.0
 11
190.331018
 21
151.838277
 31
0.0
  0
LINE
  5
A6
330
A
100
AcDbEntity
  8
0
 62
     7
100
AcDbLine
 10
189.6692149999999
 20
151.838277
 30
0.0
 11
189.727437
 21
151.792802
 31
0.0
  0
LINE
  5
A5
330
A
100
AcDbEntity
  8
0
 62
     7
100
AcDbLine
 10
190.331018
 20
151.838277
 30
0.0
 11
190.272796
 21
151.792802
 31
0.0
  0
LINE
  5
A4
330
A
100
AcDbEntity
  8
0
 62
     7
100
AcDbLine
 10
189.727437
 20
151.792802
 30
0.0
 11
189.8226939999999
 21
151.763346
 31
0.0
  0
LINE
  5
A3
330
A
100
AcDbEntity
  8
0
 62
     7
100
AcDbLine
 10
190.272796
 20
151.792802
 30
0.0
 11
190.177539
 21
151.763346
 31
0.0
  0
LINE
  5
A2
330
A
100
AcDbEntity
  8
0
 62
     7
100
AcDbLine
 10
189.831307
 20
151.763346
 30
0.0
 11
189.8226939999999
 21
151.763346
 31
0.0
  0
LINE
  5
A1
330
A
100
AcDbEntity
  8
0
 62
     7
100
AcDbLine
 10
189.856628
 20
151.763346
 30
0.0
 11
189.831307
 21
151.763346
 31
0.0
  0
LINE
  5
A0
330
A
100
AcDbEntity
  8
0
 62
     7
100
AcDbLine
 10
189.89573
 20
151.763346
 30
0.0
 11
189.856628
 21
151.763346
 31
0.0
  0
LINE
  5
9F
330
A
100
AcDbEntity
  8
0
 62
     7
100
AcDbLine
 10
189.94534
 20
151.763346
 30
0.0
 11
189.89573
 21
151.763346
 31
0.0
  0
LINE
  5
9E
330
A
100
AcDbEntity
  8
0
 62
     7
100
AcDbLine
 10
190.000117
 20
151.763346
 30
0.0
 11
189.94534
 21
151.763346
 31
0.0
  0
LINE
  5
9D
330
A
100
AcDbEntity
  8
0
 62
     7
100
AcDbLine
 10
190.054894
 20
151.763346
 30
0.0
 11
190.000117
 21
151.763346
 31
0.0
  0
LINE
  5
9C
330
A
100
AcDbEntity
  8
0
 62
     7
100
AcDbLine
 10
190.104331
 20
151.763346
 30
0.0
 11
190.054894
 21
151.763346
 31
0.0
  0
LINE
  5
9B
330
A
100
AcDbEntity
  8
0
 62
     7
100
AcDbLine
 10
190.143605
 20
151.763346
 30
0.0
 11
190.104331
 21
151.763346
 31
0.0
  0
LINE
  5
9A
330
A
100
AcDbEntity
  8
0
 62
     7
100
AcDbLine
 10
190.168754
 20
151.763346
 30
0.0
 11
190.143605
 21
151.763346
 31
0.0
  0
LINE
  5
99
330
A
100
AcDbEntity
  8
0
 62
     7
100
AcDbLine
 10
190.177539
 20
151.763346
 30
0.0
 11
190.168754
 21
151.763346
 31
0.0
  0
LINE
  5
98
330
A
100
AcDbEntity
  8
0
 62
     7
100
AcDbLine
 10
208.068609
 20
154.499269
 30
0.0
 11
208.025201
 21
154.772982
 31
0.0
  0
LINE
  5
97
330
A
100
AcDbEntity
  8
0
 62
     7
100
AcDbLine
 10
208.356963
 20
153.931862
 30
0.0
 11
208.068609
 21
154.499269
 31
0.0
  0
LINE
  5
96
330
A
100
AcDbEntity
  8
0
 62
     7
100
AcDbLine
 10
208.806548
 20
153.48176
 30
0.0
 11
208.356963
 21
153.931862
 31
0.0
  0
LINE
  5
95
330
A
100
AcDbEntity
  8
0
 62
     7
100
AcDbLine
 10
209.372578
 20
153.192716
 30
0.0
 11
208.806548
 21
153.48176
 31
0.0
  0
LINE
  5
94
330
A
100
AcDbEntity
  8
0
 62
     7
100
AcDbLine
 10
209.645085
 20
153.149481
 30
0.0
 11
209.372578
 21
153.192716
 31
0.0
  0
LINE
  5
93
330
A
100
AcDbEntity
  8
0
 62
     7
100
AcDbLine
 10
210.62797
 20
153.192716
 30
0.0
 11
210.355119
 21
153.149308
 31
0.0
  0
LINE
  5
92
330
A
100
AcDbEntity
  8
0
 62
     7
100
AcDbLine
 10
211.194344
 20
153.48176
 30
0.0
 11
210.62797
 21
153.192716
 31
0.0
  0
LINE
  5
91
330
A
100
AcDbEntity
  8
0
 62
     7
100
AcDbLine
 10
211.643585
 20
153.931862
 30
0.0
 11
211.194344
 21
153.48176
 31
0.0
  0
LINE
  5
90
330
A
100
AcDbEntity
  8
0
 62
     7
100
AcDbLine
 10
211.932284
 20
154.499269
 30
0.0
 11
211.643585
 21
153.931862
 31
0.0
  0
LINE
  5
8F
330
A
100
AcDbEntity
  8
0
 62
     7
100
AcDbLine
 10
211.975347
 20
154.772982
 30
0.0
 11
211.932284
 21
154.499269
 31
0.0
  0
LINE
  5
8E
330
A
100
AcDbEntity
  8
0
 62
     7
100
AcDbLine
 10
211.932284
 20
155.756901
 30
0.0
 11
211.975347
 21
155.483016
 31
0.0
  0
LINE
  5
8D
330
A
100
AcDbEntity
  8
0
 62
     7
100
AcDbLine
 10
211.643585
 20
156.324136
 30
0.0
 11
211.932284
 21
155.756901
 31
0.0
  0
LINE
  5
8C
330
A
100
AcDbEntity
  8
0
 62
     7
100
AcDbLine
 10
211.194344
 20
156.77441
 30
0.0
 11
211.643585
 21
156.324136
 31
0.0
  0
LINE
  5
8B
330
A
100
AcDbEntity
  8
0
 62
     7
100
AcDbLine
 10
210.62797
 20
157.063454
 30
0.0
 11
211.194344
 21
156.77441
 31
0.0
  0
LINE
  5
8A
330
A
100
AcDbEntity
  8
0
 62
     7
100
AcDbLine
 10
210.355119
 20
157.106689
 30
0.0
 11
210.62797
 21
157.063454
 31
0.0
  0
LINE
  5
89
330
A
100
AcDbEntity
  8
0
 62
     7
100
AcDbLine
 10
209.372578
 20
157.063454
 30
0.0
 11
209.645085
 21
157.106689
 31
0.0
  0
LINE
  5
88
330
A
100
AcDbEntity
  8
0
 62
     7
100
AcDbLine
 10
208.806548
 20
156.77441
 30
0.0
 11
209.372578
 21
157.063454
 31
0.0
  0
LINE
  5
87
330
A
100
AcDbEntity
  8
0
 62
     7
100
AcDbLine
 10
208.356963
 20
156.324136
 30
0.0
 11
208.806548
 21
156.77441
 31
0.0
  0
LINE
  5
86
330
A
100
AcDbEntity
  8
0
 62
     7
100
AcDbLine
 10
208.068609
 20
155.756901
 30
0.0
 11
208.356963
 21
156.324136
 31
0.0
  0
LINE
  5
85
330
A
100
AcDbEntity
  8
0
 62
     7
100
AcDbLine
 10
208.025201
 20
155.483016
 30
0.0
 11
208.068609
 21
155.756901
 31
0.0
  0
LINE
  5
84
330
A
100
AcDbEntity
  8
0
 62
     7
100
AcDbLine
 10
208.587785
 20
155.483016
 30
0.0
 11
208.603632
 21
155.582751
 31
0.0
  0
LINE
  5
83
330
A
100
AcDbEntity
  8
0
 62
     7
100
AcDbLine
 10
208.603632
 20
154.673419
 30
0.0
 11
208.587785
 21
154.772982
 31
0.0
  0
LINE
  5
82
330
A
100
AcDbEntity
  8
0
 62
     7
100
AcDbLine
 10
208.812061
 20
154.263108
 30
0.0
 11
208.603632
 21
154.673419
 31
0.0
  0
LINE
  5
81
330
A
100
AcDbEntity
  8
0
 62
     7
100
AcDbLine
 10
209.136933
 20
153.937546
 30
0.0
 11
208.812061
 21
154.263108
 31
0.0
  0
LINE
  5
80
330
A
100
AcDbEntity
  8
0
 62
     7
100
AcDbLine
 10
209.546555
 20
153.728601
 30
0.0
 11
209.136933
 21
153.937546
 31
0.0
  0
LINE
  5
7F
330
A
100
AcDbEntity
  8
0
 62
     7
100
AcDbLine
 10
209.645085
 20
153.712926
 30
0.0
 11
209.546555
 21
153.728601
 31
0.0
  0
LINE
  5
7E
330
A
100
AcDbEntity
  8
0
 62
     7
100
AcDbLine
 10
210.454338
 20
153.728601
 30
0.0
 11
210.355119
 21
153.712926
 31
0.0
  0
LINE
  5
7D
330
A
100
AcDbEntity
  8
0
 62
     7
100
AcDbLine
 10
210.863615
 20
153.937546
 30
0.0
 11
210.454338
 21
153.728601
 31
0.0
  0
LINE
  5
7C
330
A
100
AcDbEntity
  8
0
 62
     7
100
AcDbLine
 10
211.188487
 20
154.263108
 30
0.0
 11
210.863615
 21
153.937546
 31
0.0
  0
LINE
  5
7B
330
A
100
AcDbEntity
  8
0
 62
     7
100
AcDbLine
 10
211.39726
 20
154.673419
 30
0.0
 11
211.188487
 21
154.263108
 31
0.0
  0
LINE
  5
7A
330
A
100
AcDbEntity
  8
0
 62
     7
100
AcDbLine
 10
211.413108
 20
154.772982
 30
0.0
 11
211.39726
 21
154.673419
 31
0.0
  0
LINE
  5
79
330
A
100
AcDbEntity
  8
0
 62
     7
100
AcDbLine
 10
211.39726
 20
155.582751
 30
0.0
 11
211.413108
 21
155.483016
 31
0.0
  0
LINE
  5
78
330
A
100
AcDbEntity
  8
0
 62
     7
100
AcDbLine
 10
211.188487
 20
155.99289
 30
0.0
 11
211.39726
 21
155.582751
 31
0.0
  0
LINE
  5
77
330
A
100
AcDbEntity
  8
0
 62
     7
100
AcDbLine
 10
210.863615
 20
156.318452
 30
0.0
 11
211.188487
 21
155.99289
 31
0.0
  0
LINE
  5
76
330
A
100
AcDbEntity
  8
0
 62
     7
100
AcDbLine
 10
210.454338
 20
156.527569
 30
0.0
 11
210.863615
 21
156.318452
 31
0.0
  0
LINE
  5
75
330
A
100
AcDbEntity
  8
0
 62
     7
100
AcDbLine
 10
210.355119
 20
156.543244
 30
0.0
 11
210.454338
 21
156.527569
 31
0.0
  0
LINE
  5
74
330
A
100
AcDbEntity
  8
0
 62
     7
100
AcDbLine
 10
209.546555
 20
156.527569
 30
0.0
 11
209.645085
 21
156.543072
 31
0.0
  0
LINE
  5
73
330
A
100
AcDbEntity
  8
0
 62
     7
100
AcDbLine
 10
209.136933
 20
156.318452
 30
0.0
 11
209.546555
 21
156.527569
 31
0.0
  0
LINE
  5
72
330
A
100
AcDbEntity
  8
0
 62
     7
100
AcDbLine
 10
208.812061
 20
155.99289
 30
0.0
 11
209.136933
 21
156.318452
 31
0.0
  0
LINE
  5
71
330
A
100
AcDbEntity
  8
0
 62
     7
100
AcDbLine
 10
208.603632
 20
155.582751
 30
0.0
 11
208.812061
 21
155.99289
 31
0.0
  0
LINE
  5
70
330
A
100
AcDbEntity
  8
0
 62
     7
100
AcDbLine
 10
213.29034
 20
155.459073
 30
0.0
 11
213.250377
 21
155.483016
 31
0.0
  0
LINE
  5
6F
330
A
100
AcDbEntity
  8
0
 62
     7
100
AcDbLine
 10
213.29034
 20
154.797097
 30
0.0
 11
213.250377
 21
154.772982
 31
0.0
  0
LINE
  5
6E
330
A
100
AcDbEntity
  8
0
 62
     7
100
AcDbLine
 10
213.335471
 20
155.400678
 30
0.0
 11
213.29034
 21
155.459073
 31
0.0
  0
LINE
  5
6D
330
A
100
AcDbEntity
  8
0
 62
     7
100
AcDbLine
 10
213.335471
 20
154.85532
 30
0.0
 11
213.29034
 21
154.797097
 31
0.0
  0
LINE
  5
6C
330
A
100
AcDbEntity
  8
0
 62
     7
100
AcDbLine
 10
213.364754
 20
155.305421
 30
0.0
 11
213.335471
 21
155.400678
 31
0.0
  0
LINE
  5
6B
330
A
100
AcDbEntity
  8
0
 62
     7
100
AcDbLine
 10
213.364754
 20
154.950576
 30
0.0
 11
213.335471
 21
154.85532
 31
0.0
  0
LINE
  5
6A
330
A
100
AcDbEntity
  8
0
 62
     7
100
AcDbLine
 10
213.364754
 20
154.959361
 30
0.0
 11
213.364754
 21
154.950576
 31
0.0
  0
LINE
  5
69
330
A
100
AcDbEntity
  8
0
 62
     7
100
AcDbLine
 10
213.364754
 20
154.984511
 30
0.0
 11
213.364754
 21
154.959361
 31
0.0
  0
LINE
  5
68
330
A
100
AcDbEntity
  8
0
 62
     7
100
AcDbLine
 10
213.364754
 20
155.023785
 30
0.0
 11
213.364754
 21
154.984511
 31
0.0
  0
LINE
  5
67
330
A
100
AcDbEntity
  8
0
 62
     7
100
AcDbLine
 10
213.364754
 20
155.073222
 30
0.0
 11
213.364754
 21
155.023785
 31
0.0
  0
LINE
  5
66
330
A
100
AcDbEntity
  8
0
 62
     7
100
AcDbLine
 10
213.364754
 20
155.127999
 30
0.0
 11
213.364754
 21
155.073222
 31
0.0
  0
LINE
  5
65
330
A
100
AcDbEntity
  8
0
 62
     7
100
AcDbLine
 10
213.364754
 20
155.182948
 30
0.0
 11
213.364754
 21
155.127999
 31
0.0
  0
LINE
  5
64
330
A
100
AcDbEntity
  8
0
 62
     7
100
AcDbLine
 10
213.364754
 20
155.232385
 30
0.0
 11
213.364754
 21
155.182948
 31
0.0
  0
LINE
  5
63
330
A
100
AcDbEntity
  8
0
 62
     7
100
AcDbLine
 10
213.364754
 20
155.271487
 30
0.0
 11
213.364754
 21
155.232385
 31
0.0
  0
LINE
  5
62
330
A
100
AcDbEntity
  8
0
 62
     7
100
AcDbLine
 10
213.364754
 20
155.296809
 30
0.0
 11
213.364754
 21
155.271487
 31
0.0
  0
LINE
  5
61
330
A
100
AcDbEntity
  8
0
 62
     7
100
AcDbLine
 10
213.364754
 20
155.305421
 30
0.0
 11
213.364754
 21
155.296809
 31
0.0
  0
LINE
  5
60
330
A
100
AcDbEntity
  8
0
 62
     7
100
AcDbLine
 10
213.250377
 20
155.483016
 30
0.0
 11
210.355119
 21
155.483016
 31
0.0
  0
LINE
  5
5F
330
A
100
AcDbEntity
  8
0
 62
     7
100
AcDbLine
 10
209.645085
 20
155.483016
 30
0.0
 11
206.750515
 21
155.483016
 31
0.0
  0
LINE
  5
5E
330
A
100
AcDbEntity
  8
0
 62
     7
100
AcDbLine
 10
213.250377
 20
154.772982
 30
0.0
 11
210.355119
 21
154.772982
 31
0.0
  0
LINE
  5
5D
330
A
100
AcDbEntity
  8
0
 62
     7
100
AcDbLine
 10
209.645085
 20
154.772982
 30
0.0
 11
206.750515
 21
154.772982
 31
0.0
  0
LINE
  5
5C
330
A
100
AcDbEntity
  8
0
 62
     7
100
AcDbLine
 10
206.750515
 20
155.483016
 30
0.0
 11
206.710208
 21
155.459073
 31
0.0
  0
LINE
  5
5B
330
A
100
AcDbEntity
  8
0
 62
     7
100
AcDbLine
 10
206.750515
 20
154.772982
 30
0.0
 11
206.710208
 21
154.797097
 31
0.0
  0
LINE
  5
5A
330
A
100
AcDbEntity
  8
0
 62
     7
100
AcDbLine
 10
206.710208
 20
155.459073
 30
0.0
 11
206.664733
 21
155.400678
 31
0.0
  0
LINE
  5
59
330
A
100
AcDbEntity
  8
0
 62
     7
100
AcDbLine
 10
206.710208
 20
154.797097
 30
0.0
 11
206.664733
 21
154.85532
 31
0.0
  0
LINE
  5
58
330
A
100
AcDbEntity
  8
0
 62
     7
100
AcDbLine
 10
206.664733
 20
155.400678
 30
0.0
 11
206.635449
 21
155.305421
 31
0.0
  0
LINE
  5
57
330
A
100
AcDbEntity
  8
0
 62
     7
100
AcDbLine
 10
206.664733
 20
154.85532
 30
0.0
 11
206.635449
 21
154.950576
 31
0.0
  0
LINE
  5
56
330
A
100
AcDbEntity
  8
0
 62
     7
100
AcDbLine
 10
206.635449
 20
155.296809
 30
0.0
 11
206.635449
 21
155.305421
 31
0.0
  0
LINE
  5
55
330
A
100
AcDbEntity
  8
0
 62
     7
100
AcDbLine
 10
206.635449
 20
155.271487
 30
0.0
 11
206.635449
 21
155.296809
 31
0.0
  0
LINE
  5
54
330
A
100
AcDbEntity
  8
0
 62
     7
100
AcDbLine
 10
206.635449
 20
155.232385
 30
0.0
 11
206.635449
 21
155.271487
 31
0.0
  0
LINE
  5
53
330
A
100
AcDbEntity
  8
0
 62
     7
100
AcDbLine
 10
206.635449
 20
155.182948
 30
0.0
 11
206.635449
 21
155.232385
 31
0.0
  0
LINE
  5
52
330
A
100
AcDbEntity
  8
0
 62
     7
100
AcDbLine
 10
206.635449
 20
155.127999
 30
0.0
 11
206.635449
 21
155.182948
 31
0.0
  0
LINE
  5
51
330
A
100
AcDbEntity
  8
0
 62
     7
100
AcDbLine
 10
206.635449
 20
155.073222
 30
0.0
 11
206.635449
 21
155.127999
 31
0.0
  0
LINE
  5
50
330
A
100
AcDbEntity
  8
0
 62
     7
100
AcDbLine
 10
206.635449
 20
155.023785
 30
0.0
 11
206.635449
 21
155.073222
 31
0.0
  0
LINE
  5
4F
330
A
100
AcDbEntity
  8
0
 62
     7
100
AcDbLine
 10
206.635449
 20
154.984511
 30
0.0
 11
206.635449
 21
155.023785
 31
0.0
  0
LINE
  5
4E
330
A
100
AcDbEntity
  8
0
 62
     7
100
AcDbLine
 10
206.635449
 20
154.959361
 30
0.0
 11
206.635449
 21
154.984511
 31
0.0
  0
LINE
  5
4D
330
A
100
AcDbEntity
  8
0
 62
     7
100
AcDbLine
 10
206.635449
 20
154.950576
 30
0.0
 11
206.635449
 21
154.959361
 31
0.0
  0
LINE
  5
4C
330
A
100
AcDbEntity
  8
0
 62
     7
100
AcDbLine
 10
209.6692
 20
158.418237
 30
0.0
 11
209.645085
 21
158.378274
 31
0.0
  0
LINE
  5
4B
330
A
100
AcDbEntity
  8
0
 62
     7
100
AcDbLine
 10
210.331003
 20
158.418237
 30
0.0
 11
210.355119
 21
158.378274
 31
0.0
  0
LINE
  5
4A
330
A
100
AcDbEntity
  8
0
 62
     7
100
AcDbLine
 10
209.727422
 20
158.463368
 30
0.0
 11
209.6692
 21
158.418237
 31
0.0
  0
LINE
  5
49
330
A
100
AcDbEntity
  8
0
 62
     7
100
AcDbLine
 10
210.272781
 20
158.463368
 30
0.0
 11
210.331003
 21
158.418237
 31
0.0
  0
LINE
  5
48
330
A
100
AcDbEntity
  8
0
 62
     7
100
AcDbLine
 10
209.822852
 20
158.492824
 30
0.0
 11
209.727422
 21
158.463368
 31
0.0
  0
LINE
  5
47
330
A
100
AcDbEntity
  8
0
 62
     7
100
AcDbLine
 10
210.177352
 20
158.492824
 30
0.0
 11
210.272781
 21
158.463368
 31
0.0
  0
LINE
  5
46
330
A
100
AcDbEntity
  8
0
 62
     7
100
AcDbLine
 10
209.945152
 20
158.492824
 30
0.0
 11
209.999929
 21
158.492824
 31
0.0
  0
LINE
  5
45
330
A
100
AcDbEntity
  8
0
 62
     7
100
AcDbLine
 10
209.895888
 20
158.492824
 30
0.0
 11
209.945152
 21
158.492824
 31
0.0
  0
LINE
  5
44
330
A
100
AcDbEntity
  8
0
 62
     7
100
AcDbLine
 10
209.856613
 20
158.492824
 30
0.0
 11
209.895888
 21
158.492824
 31
0.0
  0
LINE
  5
43
330
A
100
AcDbEntity
  8
0
 62
     7
100
AcDbLine
 10
209.831464
 20
158.492824
 30
0.0
 11
209.856613
 21
158.492824
 31
0.0
  0
LINE
  5
42
330
A
100
AcDbEntity
  8
0
 62
     7
100
AcDbLine
 10
209.822852
 20
158.492824
 30
0.0
 11
209.831464
 21
158.492824
 31
0.0
  0
LINE
  5
41
330
A
100
AcDbEntity
  8
0
 62
     7
100
AcDbLine
 10
210.168739
 20
158.492824
 30
0.0
 11
210.177352
 21
158.492824
 31
0.0
  0
LINE
  5
40
330
A
100
AcDbEntity
  8
0
 62
     7
100
AcDbLine
 10
210.14359
 20
158.492824
 30
0.0
 11
210.168739
 21
158.492824
 31
0.0
  0
LINE
  5
3F
330
A
100
AcDbEntity
  8
0
 62
     7
100
AcDbLine
 10
210.104316
 20
158.492824
 30
0.0
 11
210.14359
 21
158.492824
 31
0.0
  0
LINE
  5
3E
330
A
100
AcDbEntity
  8
0
 62
     7
100
AcDbLine
 10
210.055051
 20
158.492824
 30
0.0
 11
210.104316
 21
158.492824
 31
0.0
  0
LINE
  5
3D
330
A
100
AcDbEntity
  8
0
 62
     7
100
AcDbLine
 10
209.999929
 20
158.492824
 30
0.0
 11
210.055051
 21
158.492824
 31
0.0
  0
LINE
  5
3C
330
A
100
AcDbEntity
  8
0
 62
     7
100
AcDbLine
 10
209.645085
 20
158.378274
 30
0.0
 11
209.645085
 21
155.483016
 31
0.0
  0
LINE
  5
3B
330
A
100
AcDbEntity
  8
0
 62
     7
100
AcDbLine
 10
209.645085
 20
154.772982
 30
0.0
 11
209.645085
 21
151.878413
 31
0.0
  0
LINE
  5
3A
330
A
100
AcDbEntity
  8
0
 62
     7
100
AcDbLine
 10
210.355119
 20
158.378274
 30
0.0
 11
210.355119
 21
155.483016
 31
0.0
  0
LINE
  5
39
330
A
100
AcDbEntity
  8
0
 62
     7
100
AcDbLine
 10
210.355119
 20
154.772982
 30
0.0
 11
210.355119
 21
151.878413
 31
0.0
  0
LINE
  5
38
330
A
100
AcDbEntity
  8
0
 62
     7
100
AcDbLine
 10
209.645085
 20
151.878413
 30
0.0
 11
209.6692
 21
151.838277
 31
0.0
  0
LINE
  5
37
330
A
100
AcDbEntity
  8
0
 62
     7
100
AcDbLine
 10
210.355119
 20
151.878413
 30
0.0
 11
210.331003
 21
151.838277
 31
0.0
  0
LINE
  5
36
330
A
100
AcDbEntity
  8
0
 62
     7
100
AcDbLine
 10
209.6692
 20
151.838277
 30
0.0
 11
209.727422
 21
151.792802
 31
0.0
  0
LINE
  5
35
330
A
100
AcDbEntity
  8
0
 62
     7
100
AcDbLine
 10
210.331003
 20
151.838277
 30
0.0
 11
210.272781
 21
151.792802
 31
0.0
  0
LINE
  5
34
330
A
100
AcDbEntity
  8
0
 62
     7
100
AcDbLine
 10
209.727422
 20
151.792802
 30
0.0
 11
209.822852
 21
151.763346
 31
0.0
  0
LINE
  5
33
330
A
100
AcDbEntity
  8
0
 62
     7
100
AcDbLine
 10
210.272781
 20
151.792802
 30
0.0
 11
210.177352
 21
151.763346
 31
0.0
  0
LINE
  5
32
330
A
100
AcDbEntity
  8
0
 62
     7
100
AcDbLine
 10
209.831464
 20
151.763346
 30
0.0
 11
209.822852
 21
151.763346
 31
0.0
  0
LINE
  5
31
330
A
100
AcDbEntity
  8
0
 62
     7
100
AcDbLine
 10
209.856613
 20
151.763346
 30
0.0
 11
209.831464
 21
151.763346
 31
0.0
  0
LINE
  5
30
330
A
100
AcDbEntity
  8
0
 62
     7
100
AcDbLine
 10
209.895888
 20
151.763346
 30
0.0
 11
209.856613
 21
151.763346
 31
0.0
  0
LINE
  5
2F
330
A
100
AcDbEntity
  8
0
 62
     7
100
AcDbLine
 10
209.945152
 20
151.763346
 30
0.0
 11
209.895888
 21
151.763346
 31
0.0
  0
LINE
  5
2E
330
A
100
AcDbEntity
  8
0
 62
     7
100
AcDbLine
 10
209.999929
 20
151.763346
 30
0.0
 11
209.945152
 21
151.763346
 31
0.0
  0
LINE
  5
2D
330
A
100
AcDbEntity
  8
0
 62
     7
100
AcDbLine
 10
210.055051
 20
151.763346
 30
0.0
 11
209.999929
 21
151.763346
 31
0.0
  0
LINE
  5
2C
330
A
100
AcDbEntity
  8
0
 62
     7
100
AcDbLine
 10
210.104316
 20
151.763346
 30
0.0
 11
210.055051
 21
151.763346
 31
0.0
  0
LINE
  5
2B
330
A
100
AcDbEntity
  8
0
 62
     7
100
AcDbLine
 10
210.14359
 20
151.763346
 30
0.0
 11
210.104316
 21
151.763346
 31
0.0
  0
LINE
  5
2A
330
A
100
AcDbEntity
  8
0
 62
     7
100
AcDbLine
 10
210.168739
 20
151.763346
 30
0.0
 11
210.14359
 21
151.763346
 31
0.0
  0
LINE
  5
29
330
A
100
AcDbEntity
  8
0
 62
     7
100
AcDbLine
 10
210.177352
 20
151.763346
 30
0.0
 11
210.168739
 21
151.763346
 31
0.0
  0
DIMENSION
  5
1C4
330
A
100
AcDbEntity
  8
Cotation-JacobDelafon
  6
Continuous
370
     0
100
AcDbDimension
  2
*D3
 10
213.364754
 20
168.6860742485101
 30
0.0
 11
200.000023
 21
171.1177932116752
 31
0.0
 70
    32
  1
26.7
 71
     5
 42
26.72946200000001
 73
     0
 74
     0
 75
     0
  3
Cotation-Jacob-Delafon
100
AcDbAlignedDimension
 13
186.635292
 23
158.492824
 33
0.0
 14
213.364754
 24
155.1554735
 34
0.0
100
AcDbRotatedDimension
  0
DIMENSION
  5
1D1
330
A
100
AcDbEntity
  8
Cotation-JacobDelafon
  6
Continuous
370
     0
100
AcDbDimension
  2
*D4
 10
176.5652020390038
 20
141.506953
 30
0.0
 11
174.1590628848428
 21
149.9998885
 31
0.0
 70
    32
  1
17
 71
     5
 42
16.98587099999997
 73
     0
 74
     0
 75
     0
  3
Cotation-Jacob-Delafon
100
AcDbAlignedDimension
 13
186.635292
 23
158.492824
 33
0.0
 14
200.00209
 24
141.506953
 34
0.0
 50
90.0
100
AcDbRotatedDimension
  0
ENDSEC
  0
SECTION
  2
OBJECTS
  0
DICTIONARY
  5
19
330
0
100
AcDbDictionary
281
     1
  3
ACAD_COLOR
350
18D
  3
ACAD_GROUP
350
1A
  3
ACAD_LAYOUT
350
1E
  3
ACAD_MATERIAL
350
163
  3
ACAD_MLEADERSTYLE
350
1A2
  3
ACAD_MLINESTYLE
350
1B
  3
ACAD_PLOTSETTINGS
350
22
  3
ACAD_PLOTSTYLENAME
350
1F
  3
ACAD_SCALELIST
350
190
  3
ACAD_TABLESTYLE
350
18E
  3
ACAD_VISUALSTYLE
350
17C
  3
ACAD_WIPEOUT_VARS
350
23
  3
ACDB_RECOMPOSE_DATA
350
20F
  3
AcDbVariableDictionary
350
205
  3
AEC_PROPERTY_SET_DEFS
350
1B4
  0
DICTIONARY
  5
202
330
14
100
AcDbDictionary
280
     1
281
     1
  3
ADSK_XREC_LAYER_RECONCILED
360
203
  0
DICTIONARY
  5
1AD
330
1AC
100
AcDbDictionary
280
     1
281
     1
  3
ADSK_XREC_LAYER_RECONCILED
360
204
  0
DICTIONARY
  5
18D
102
{ACAD_REACTORS
330
19
102
}
330
19
100
AcDbDictionary
281
     1
  0
DICTIONARY
  5
1A
102
{ACAD_REACTORS
330
19
102
}
330
19
100
AcDbDictionary
281
     1
  0
DICTIONARY
  5
1E
102
{ACAD_REACTORS
330
19
102
}
330
19
100
AcDbDictionary
281
     1
  3
Layout1
350
21
  3
Model
350
20
  0
DICTIONARY
  5
163
102
{ACAD_REACTORS
330
19
102
}
330
19
100
AcDbDictionary
281
     1
  3
ByBlock
350
16C
  3
ByLayer
350
164
  3
Global
350
174
  0
DICTIONARY
  5
1A2
102
{ACAD_REACTORS
330
19
102
}
330
19
100
AcDbDictionary
281
     1
  3
Standard
350
1A3
  0
DICTIONARY
  5
1B
102
{ACAD_REACTORS
330
19
102
}
330
19
100
AcDbDictionary
281
     1
  3
Standard
350
1C
  0
DICTIONARY
  5
22
102
{ACAD_REACTORS
330
19
102
}
330
19
100
AcDbDictionary
281
     1
  0
ACDBDICTIONARYWDFLT
  5
1F
102
{ACAD_REACTORS
330
19
102
}
330
19
100
AcDbDictionary
281
     1
  3
Normal
350
1D
100
AcDbDictionaryWithDefault
340
1D
  0
DICTIONARY
  5
190
102
{ACAD_REACTORS
330
19
102
}
330
19
100
AcDbDictionary
281
     1
  3
A0
350
191
  3
A1
350
192
  3
A2
350
193
  3
A3
350
194
  3
A4
350
195
  3
A5
350
196
  3
A6
350
197
  3
A7
350
198
  3
A8
350
199
  3
A9
350
19A
  3
B0
350
19B
  3
B1
350
19C
  3
B2
350
19D
  3
B3
350
19E
  3
B4
350
19F
  3
B5
350
1A0
  3
B6
350
1A1
  0
DICTIONARY
  5
18E
102
{ACAD_REACTORS
330
19
102
}
330
19
100
AcDbDictionary
281
     1
  3
Standard
350
18F
  0
DICTIONARY
  5
17C
102
{ACAD_REACTORS
330
19
102
}
330
19
100
AcDbDictionary
281
     1
  3
2dWireframe
350
182
  3
3D Hidden
350
184
  3
3dWireframe
350
183
  3
Basic
350
181
  3
Brighten
350
188
  3
ColorChange
350
18C
  3
Conceptual
350
185
  3
Dim
350
187
  3
Facepattern
350
18B
  3
Flat
350
17D
  3
FlatWithEdges
350
17E
  3
Gouraud
350
17F
  3
GouraudWithEdges
350
180
  3
Linepattern
350
18A
  3
Realistic
350
186
  3
Thicken
350
189
  0
WIPEOUTVARIABLES
  5
23
330
19
100
AcDbWipeoutVariables
 70
     1
  0
XRECORD
  5
20F
102
{ACAD_REACTORS
330
19
102
}
330
19
100
AcDbXrecord
280
     1
 90
        1
330
18F
  0
DICTIONARY
  5
205
102
{ACAD_REACTORS
330
19
102
}
330
19
100
AcDbDictionary
281
     1
  3
CANNOSCALE
350
209
  3
CMLEADERSTYLE
350
207
  3
CTABLESTYLE
350
206
  3
LAYEREVAL
350
20B
  3
LAYERNOTIFY
350
20C
  3
LIGHTINGUNITS
350
20A
  3
MSLTSCALE
350
208
  0
DICTIONARY
  5
1B4
102
{ACAD_REACTORS
330
19
102
}
330
19
100
AcDbDictionary
281
     1
  0
XRECORD
  5
203
102
{ACAD_REACTORS
330
202
102
}
330
202
100
AcDbXrecord
280
     1
290
     1
  0
XRECORD
  5
204
102
{ACAD_REACTORS
330
1AD
102
}
330
1AD
100
AcDbXrecord
280
     1
290
     1
  0
LAYOUT
  5
21
102
{ACAD_REACTORS
330
1E
102
}
330
1E
100
AcDbPlotSettings
  1

  2

  4

  6

 40
0.0
 41
0.0
 42
0.0
 43
0.0
 44
0.0
 45
0.0
 46
0.0
 47
0.0
 48
0.0
 49
0.0
140
0.0
141
0.0
142
1.0
143
1.0
 70
     0
 72
     0
 73
     0
 74
     0
  7

 75
     0
147
1.0
 76
     0
 77
     2
 78
   300
148
0.0
149
0.0
100
AcDbLayout
  1
Layout1
 70
     0
 71
     1
 10
0.0
 20
0.0
 11
12.0
 21
9.0
 12
0.0
 22
0.0
 32
0.0
 14
1.000000000000000E+20
 24
1.000000000000000E+20
 34
1.000000000000000E+20
 15
-1.000000000000000E+20
 25
-1.000000000000000E+20
 35
-1.000000000000000E+20
146
0.0
 13
0.0
 23
0.0
 33
0.0
 16
1.0
 26
0.0
 36
0.0
 17
0.0
 27
1.0
 37
0.0
 76
     0
330
B
  0
LAYOUT
  5
20
102
{ACAD_REACTORS
330
1E
102
}
330
1E
100
AcDbPlotSettings
  1

  2

  4

  6

 40
0.0
 41
0.0
 42
0.0
 43
0.0
 44
0.0
 45
0.0
 46
0.0
 47
0.0
 48
0.0
 49
0.0
140
0.0
141
0.0
142
1.0
143
1.0
 70
  1024
 72
     0
 73
     0
 74
     0
  7

 75
     0
147
1.0
 76
     0
 77
     2
 78
   300
148
0.0
149
0.0
100
AcDbLayout
  1
Model
 70
     0
 71
     0
 10
0.0
 20
0.0
 11
0.0
 21
0.0
 12
0.0
 22
0.0
 32
0.0
 14
0.0
 24
0.0
 34
0.0
 15
0.0
 25
0.0
 35
0.0
146
0.0
 13
0.0
 23
0.0
 33
0.0
 16
0.0
 26
0.0
 36
0.0
 17
0.0
 27
0.0
 37
0.0
 76
     0
330
A
331
15
  0
MATERIAL
  5
16C
102
{ACAD_XDICTIONARY
360
16D
102
}
102
{ACAD_REACTORS
330
163
102
}
330
163
100
AcDbMaterial
  1
ByBlock
 72
     0
 43
0.0208333333333333
 43
0.0
 43
0.0
 43
0.0
 43
0.0
 43
0.0208333333333333
 43
0.0
 43
0.0
 43
0.0
 43
0.0
 43
1.0
 43
0.0
 43
0.0
 43
0.0
 43
0.0
 43
1.0
 77
     0
 47
0.0208333333333333
 47
0.0
 47
0.0
 47
0.0
 47
0.0
 47
0.0208333333333333
 47
0.0
 47
0.0
 47
0.0
 47
0.0
 47
1.0
 47
0.0
 47
0.0
 47
0.0
 47
0.0
 47
1.0
171
     0
 49
0.0208333333333333
 49
0.0
 49
0.0
 49
0.0
 49
0.0
 49
0.0208333333333333
 49
0.0
 49
0.0
 49
0.0
 49
0.0
 49
1.0
 49
0.0
 49
0.0
 49
0.0
 49
0.0
 49
1.0
175
     0
142
0.0208333333333333
142
0.0
142
0.0
142
0.0
142
0.0
142
0.0208333333333333
142
0.0
142
0.0
142
0.0
142
0.0
142
1.0
142
0.0
142
0.0
142
0.0
142
0.0
142
1.0
179
     0
144
0.0208333333333333
144
0.0
144
0.0
144
0.0
144
0.0
144
0.0208333333333333
144
0.0
144
0.0
144
0.0
144
0.0
144
1.0
144
0.0
144
0.0
144
0.0
144
0.0
144
1.0
147
0.0208333333333333
147
0.0
147
0.0
147
0.0
147
0.0
147
0.0208333333333333
147
0.0
147
0.0
147
0.0
147
0.0
147
1.0
147
0.0
147
0.0
147
0.0
147
0.0
147
1.0
  0
MATERIAL
  5
164
102
{ACAD_XDICTIONARY
360
165
102
}
102
{ACAD_REACTORS
330
163
102
}
330
163
100
AcDbMaterial
  1
ByLayer
 72
     0
 43
0.0208333333333333
 43
0.0
 43
0.0
 43
0.0
 43
0.0
 43
0.0208333333333333
 43
0.0
 43
0.0
 43
0.0
 43
0.0
 43
1.0
 43
0.0
 43
0.0
 43
0.0
 43
0.0
 43
1.0
 77
     0
 47
0.0208333333333333
 47
0.0
 47
0.0
 47
0.0
 47
0.0
 47
0.0208333333333333
 47
0.0
 47
0.0
 47
0.0
 47
0.0
 47
1.0
 47
0.0
 47
0.0
 47
0.0
 47
0.0
 47
1.0
171
     0
 49
0.0208333333333333
 49
0.0
 49
0.0
 49
0.0
 49
0.0
 49
0.0208333333333333
 49
0.0
 49
0.0
 49
0.0
 49
0.0
 49
1.0
 49
0.0
 49
0.0
 49
0.0
 49
0.0
 49
1.0
175
     0
142
0.0208333333333333
142
0.0
142
0.0
142
0.0
142
0.0
142
0.0208333333333333
142
0.0
142
0.0
142
0.0
142
0.0
142
1.0
142
0.0
142
0.0
142
0.0
142
0.0
142
1.0
179
     0
144
0.0208333333333333
144
0.0
144
0.0
144
0.0
144
0.0
144
0.0208333333333333
144
0.0
144
0.0
144
0.0
144
0.0
144
1.0
144
0.0
144
0.0
144
0.0
144
0.0
144
1.0
147
0.0208333333333333
147
0.0
147
0.0
147
0.0
147
0.0
147
0.0208333333333333
147
0.0
147
0.0
147
0.0
147
0.0
147
1.0
147
0.0
147
0.0
147
0.0
147
0.0
147
1.0
  0
MATERIAL
  5
174
102
{ACAD_XDICTIONARY
360
175
102
}
102
{ACAD_REACTORS
330
163
102
}
330
163
100
AcDbMaterial
  1
Global
 72
     0
 43
0.0208333333333333
 43
0.0
 43
0.0
 43
0.0
 43
0.0
 43
0.0208333333333333
 43
0.0
 43
0.0
 43
0.0
 43
0.0
 43
1.0
 43
0.0
 43
0.0
 43
0.0
 43
0.0
 43
1.0
 77
     0
 47
0.0208333333333333
 47
0.0
 47
0.0
 47
0.0
 47
0.0
 47
0.0208333333333333
 47
0.0
 47
0.0
 47
0.0
 47
0.0
 47
1.0
 47
0.0
 47
0.0
 47
0.0
 47
0.0
 47
1.0
171
     0
 49
0.0208333333333333
 49
0.0
 49
0.0
 49
0.0
 49
0.0
 49
0.0208333333333333
 49
0.0
 49
0.0
 49
0.0
 49
0.0
 49
1.0
 49
0.0
 49
0.0
 49
0.0
 49
0.0
 49
1.0
175
     0
142
0.0208333333333333
142
0.0
142
0.0
142
0.0
142
0.0
142
0.0208333333333333
142
0.0
142
0.0
142
0.0
142
0.0
142
1.0
142
0.0
142
0.0
142
0.0
142
0.0
142
1.0
179
     0
144
0.0208333333333333
144
0.0
144
0.0
144
0.0
144
0.0
144
0.0208333333333333
144
0.0
144
0.0
144
0.0
144
0.0
144
1.0
144
0.0
144
0.0
144
0.0
144
0.0
144
1.0
147
0.0208333333333333
147
0.0
147
0.0
147
0.0
147
0.0
147
0.0208333333333333
147
0.0
147
0.0
147
0.0
147
0.0
147
1.0
147
0.0
147
0.0
147
0.0
147
0.0
147
1.0
  0
MLEADERSTYLE
  5
1A3
102
{ACAD_REACTORS
330
1A2
102
}
330
1A2
100
AcDbMLeaderStyle
170
     2
171
     1
172
     0
 90
        2
 40
0.0
 41
0.0
173
     1
 91
-1056964608
340
11
 92
       -2
290
     1
 42
2.0
291
     1
 43
0.36
  3
Standard
 44
4.0
300

342
17
174
     1
178
     6
175
     1
176
     0
 93
-1056964608
 45
4.0
292
     0
297
     0
 46
4.0
 94
-1056964608
 47
1.0
 49
1.0
140
1.0
293
     1
141
0.0
294
     1
177
     0
142
1.0
295
     0
296
     0
143
0.125
1001
ACAD_MLEADERVER
1070
     2
  0
MLINESTYLE
  5
1C
102
{ACAD_REACTORS
330
1B
102
}
330
1B
100
AcDbMlineStyle
  2
STANDARD
 70
     0
  3

 62
     0
 51
90.0
 52
90.0
 71
     2
 49
0.5
 62
   256
  6
BYLAYER
 49
-0.5
 62
   256
  6
BYLAYER
  0
ACDBPLACEHOLDER
  5
1D
102
{ACAD_REACTORS
330
1F
102
}
330
1F
  0
SCALE
  5
191
102
{ACAD_REACTORS
330
190
102
}
330
190
100
AcDbScale
 70
     0
300
1:1
140
1.0
141
1.0
290
     1
  0
SCALE
  5
192
102
{ACAD_REACTORS
330
190
102
}
330
190
100
AcDbScale
 70
     0
300
1:2
140
1.0
141
2.0
290
     0
  0
SCALE
  5
193
102
{ACAD_REACTORS
330
190
102
}
330
190
100
AcDbScale
 70
     0
300
1:4
140
1.0
141
4.0
290
     0
  0
SCALE
  5
194
102
{ACAD_REACTORS
330
190
102
}
330
190
100
AcDbScale
 70
     0
300
1:5
140
1.0
141
5.0
290
     0
  0
SCALE
  5
195
102
{ACAD_REACTORS
330
190
102
}
330
190
100
AcDbScale
 70
     0
300
1:8
140
1.0
141
8.0
290
     0
  0
SCALE
  5
196
102
{ACAD_REACTORS
330
190
102
}
330
190
100
AcDbScale
 70
     0
300
1:10
140
1.0
141
10.0
290
     0
  0
SCALE
  5
197
102
{ACAD_REACTORS
330
190
102
}
330
190
100
AcDbScale
 70
     0
300
1:16
140
1.0
141
16.0
290
     0
  0
SCALE
  5
198
102
{ACAD_REACTORS
330
190
102
}
330
190
100
AcDbScale
 70
     0
300
1:20
140
1.0
141
20.0
290
     0
  0
SCALE
  5
199
102
{ACAD_REACTORS
330
190
102
}
330
190
100
AcDbScale
 70
     0
300
1:30
140
1.0
141
30.0
290
     0
  0
SCALE
  5
19A
102
{ACAD_REACTORS
330
190
102
}
330
190
100
AcDbScale
 70
     0
300
1:40
140
1.0
141
40.0
290
     0
  0
SCALE
  5
19B
102
{ACAD_REACTORS
330
190
102
}
330
190
100
AcDbScale
 70
     0
300
1:50
140
1.0
141
50.0
290
     0
  0
SCALE
  5
19C
102
{ACAD_REACTORS
330
190
102
}
330
190
100
AcDbScale
 70
     0
300
1:100
140
1.0
141
100.0
290
     0
  0
SCALE
  5
19D
102
{ACAD_REACTORS
330
190
102
}
330
190
100
AcDbScale
 70
     0
300
2:1
140
2.0
141
1.0
290
     0
  0
SCALE
  5
19E
102
{ACAD_REACTORS
330
190
102
}
330
190
100
AcDbScale
 70
     0
300
4:1
140
4.0
141
1.0
290
     0
  0
SCALE
  5
19F
102
{ACAD_REACTORS
330
190
102
}
330
190
100
AcDbScale
 70
     0
300
8:1
140
8.0
141
1.0
290
     0
  0
SCALE
  5
1A0
102
{ACAD_REACTORS
330
190
102
}
330
190
100
AcDbScale
 70
     0
300
10:1
140
10.0
141
1.0
290
     0
  0
SCALE
  5
1A1
102
{ACAD_REACTORS
330
190
102
}
330
190
100
AcDbScale
 70
     0
300
100:1
140
100.0
141
1.0
290
     0
  0
TABLESTYLE
  5
18F
102
{ACAD_XDICTIONARY
360
20D
102
}
102
{ACAD_REACTORS
330
18E
102
}
330
18E
100
AcDbTableStyle
  3
Standard
 70
     0
 71
     0
 40
1.5
 41
1.5
280
     0
281
     0
  7
Standard
140
4.5
170
     2
 62
     0
 63
     7
283
     0
 90
      512
 91
        0
  1

274
    -2
284
     1
 64
     0
275
    -2
285
     1
 65
     0
276
    -2
286
     1
 66
     0
277
    -2
287
     1
 67
     0
278
    -2
288
     1
 68
     0
279
    -2
289
     1
 69
     0
  7
Standard
140
6.0
170
     5
 62
     0
 63
     7
283
     0
 90
      512
 91
        0
  1

274
    -2
284
     1
 64
     0
275
    -2
285
     1
 65
     0
276
    -2
286
     1
 66
     0
277
    -2
287
     1
 67
     0
278
    -2
288
     1
 68
     0
279
    -2
289
     1
 69
     0
  7
Standard
140
4.5
170
     5
 62
     0
 63
     7
283
     0
 90
      512
 91
        0
  1

274
    -2
284
     1
 64
     0
275
    -2
285
     1
 65
     0
276
    -2
286
     1
 66
     0
277
    -2
287
     1
 67
     0
278
    -2
288
     1
 68
     0
279
    -2
289
     1
 69
     0
  0
VISUALSTYLE
  5
182
102
{ACAD_REACTORS
330
17C
102
}
330
17C
100
AcDbVisualStyle
  2
2dWireframe
 70
     4
 71
     0
 72
     2
 73
     0
 90
        0
 40
-0.6
 41
-30.0
 62
     5
 63
     7
421
 16777215
 74
     1
 91
        4
 64
     7
 65
   257
 75
     1
175
     1
 42
1.0
 92
        0
 66
   257
 43
1.0
 76
     1
 77
     6
 78
     2
 67
     7
 79
     5
170
     0
171
     0
290
     0
174
     0
 93
        1
 44
0.0
173
     0
291
     0
 45
0.0
  0
VISUALSTYLE
  5
184
102
{ACAD_REACTORS
330
17C
102
}
330
17C
100
AcDbVisualStyle
  2
3D Hidden
 70
     6
 71
     1
 72
     2
 73
     2
 90
        0
 40
-0.6
 41
-30.0
 62
     5
 63
     7
421
 16777215
 74
     2
 91
        2
 64
     7
 65
   257
 75
     2
175
     1
 42
40.0
 92
        0
 66
   257
 43
1.0
 76
     1
 77
     6
 78
     2
 67
     7
 79
     3
170
     0
171
     0
290
     0
174
     0
 93
        1
 44
0.0
173
     0
291
     0
 45
0.0
  0
VISUALSTYLE
  5
183
102
{ACAD_REACTORS
330
17C
102
}
330
17C
100
AcDbVisualStyle
  2
3dWireframe
 70
     5
 71
     0
 72
     2
 73
     0
 90
        0
 40
-0.6
 41
-30.0
 62
     5
 63
     7
421
 16777215
 74
     1
 91
        4
 64
     7
 65
   257
 75
     1
175
     1
 42
1.0
 92
        0
 66
   257
 43
1.0
 76
     1
 77
     6
 78
     2
 67
     7
 79
     5
170
     0
171
     0
290
     0
174
     0
 93
        1
 44
0.0
173
     0
291
     0
 45
0.0
  0
VISUALSTYLE
  5
181
102
{ACAD_REACTORS
330
17C
102
}
330
17C
100
AcDbVisualStyle
  2
Basic
 70
     7
 71
     1
 72
     0
 73
     1
 90
        0
 40
-0.6
 41
-30.0
 62
     5
 63
     7
421
 16777215
 74
     0
 91
        4
 64
     7
 65
   257
 75
     1
175
     1
 42
1.0
 92
        8
 66
     7
 43
1.0
 76
     1
 77
     6
 78
     2
 67
     7
 79
     5
170
     0
171
     0
290
     0
174
     0
 93
        1
 44
0.0
173
     0
291
     1
 45
0.0
  0
VISUALSTYLE
  5
188
102
{ACAD_REACTORS
330
17C
102
}
330
17C
100
AcDbVisualStyle
  2
Brighten
 70
    12
 71
     2
 72
     2
 73
     0
 90
        0
 40
-0.6
 41
-30.0
 62
     5
 63
     7
421
 16777215
 74
     1
 91
        4
 64
     7
 65
   257
 75
     1
175
     1
 42
1.0
 92
        8
 66
     7
 43
1.0
 76
     1
 77
     6
 78
     2
 67
     7
 79
     5
170
     0
171
     0
290
     0
174
     0
 93
        1
 44
50.0
173
     0
291
     1
 45
0.0
  0
VISUALSTYLE
  5
18C
102
{ACAD_REACTORS
330
17C
102
}
330
17C
100
AcDbVisualStyle
  2
ColorChange
 70
    16
 71
     2
 72
     2
 73
     3
 90
        0
 40
-0.6
 41
-30.0
 62
     5
 63
     8
421
  8421504
 74
     1
 91
        4
 64
     7
 65
   257
 75
     1
175
     1
 42
1.0
 92
        8
 66
     8
424
  8421504
 43
1.0
 76
     1
 77
     6
 78
     2
 67
     7
 79
     5
170
     0
171
     0
290
     0
174
     0
 93
        1
 44
0.0
173
     0
291
     1
 45
0.0
  0
VISUALSTYLE
  5
185
102
{ACAD_REACTORS
330
17C
102
}
330
17C
100
AcDbVisualStyle
  2
Conceptual
 70
     9
 71
     3
 72
     2
 73
     0
 90
        0
 40
-0.6
 41
-30.0
 62
     5
 63
     7
421
 16777215
 74
     2
 91
        2
 64
     7
 65
   257
 75
     1
175
     1
 42
40.0
 92
        8
 66
     7
 43
1.0
 76
     1
 77
     6
 78
     2
 67
     7
 79
     3
170
     0
171
     0
290
     0
174
     0
 93
        1
 44
0.0
173
     0
291
     0
 45
0.0
  0
VISUALSTYLE
  5
187
102
{ACAD_REACTORS
330
17C
102
}
330
17C
100
AcDbVisualStyle
  2
Dim
 70
    11
 71
     2
 72
     2
 73
     0
 90
        0
 40
-0.6
 41
-30.0
 62
     5
 63
     7
421
 16777215
 74
     1
 91
        4
 64
     7
 65
   257
 75
     1
175
     1
 42
1.0
 92
        8
 66
     7
 43
1.0
 76
     1
 77
     6
 78
     2
 67
     7
 79
     5
170
     0
171
     0
290
     0
174
     0
 93
        1
 44
-50.0
173
     0
291
     1
 45
0.0
  0
VISUALSTYLE
  5
18B
102
{ACAD_REACTORS
330
17C
102
}
330
17C
100
AcDbVisualStyle
  2
Facepattern
 70
    15
 71
     2
 72
     2
 73
     0
 90
        0
 40
-0.6
 41
-30.0
 62
     5
 63
     7
421
 16777215
 74
     1
 91
        4
 64
     7
 65
   257
 75
     1
175
     1
 42
1.0
 92
        8
 66
     7
 43
1.0
 76
     1
 77
     6
 78
     2
 67
     7
 79
     5
170
     0
171
     0
290
     0
174
     0
 93
        1
 44
0.0
173
     0
291
     1
 45
0.0
  0
VISUALSTYLE
  5
17D
102
{ACAD_REACTORS
330
17C
102
}
330
17C
100
AcDbVisualStyle
  2
Flat
 70
     0
 71
     2
 72
     1
 73
     1
 90
        2
 40
-0.6
 41
30.0
 62
     5
 63
     7
421
 16777215
 74
     0
 91
        4
 64
     7
 65
   257
 75
     1
175
     1
 42
1.0
 92
        8
 66
     7
 43
1.0
 76
     1
 77
     6
 78
     2
 67
     7
 79
     5
170
     0
171
     0
290
     0
174
     0
 93
       13
 44
0.0
173
     0
291
     1
 45
0.0
  0
VISUALSTYLE
  5
17E
102
{ACAD_REACTORS
330
17C
102
}
330
17C
100
AcDbVisualStyle
  2
FlatWithEdges
 70
     1
 71
     2
 72
     1
 73
     1
 90
        2
 40
-0.6
 41
30.0
 62
     5
 63
     7
421
 16777215
 74
     1
 91
        4
 64
     7
 65
   257
 75
     1
175
     1
 42
1.0
 92
        0
 66
   257
 43
1.0
 76
     1
 77
     6
 78
     2
 67
     7
 79
     5
170
     0
171
     0
290
     0
174
     0
 93
       13
 44
0.0
173
     0
291
     1
 45
0.0
  0
VISUALSTYLE
  5
17F
102
{ACAD_REACTORS
330
17C
102
}
330
17C
100
AcDbVisualStyle
  2
Gouraud
 70
     2
 71
     2
 72
     2
 73
     1
 90
        2
 40
-0.6
 41
30.0
 62
     5
 63
     7
421
 16777215
 74
     0
 91
        4
 64
     7
 65
   257
 75
     1
175
     1
 42
1.0
 92
        0
 66
     7
 43
1.0
 76
     1
 77
     6
 78
     2
 67
     7
 79
     5
170
     0
171
     0
290
     0
174
     0
 93
       13
 44
0.0
173
     0
291
     1
 45
0.0
  0
VISUALSTYLE
  5
180
102
{ACAD_REACTORS
330
17C
102
}
330
17C
100
AcDbVisualStyle
  2
GouraudWithEdges
 70
     3
 71
     2
 72
     2
 73
     1
 90
        2
 40
-0.6
 41
30.0
 62
     5
 63
     7
421
 16777215
 74
     1
 91
        4
 64
     7
 65
   257
 75
     1
175
     1
 42
1.0
 92
        0
 66
   257
 43
1.0
 76
     1
 77
     6
 78
     2
 67
     7
 79
     5
170
     0
171
     0
290
     0
174
     0
 93
       13
 44
0.0
173
     0
291
     1
 45
0.0
  0
VISUALSTYLE
  5
18A
102
{ACAD_REACTORS
330
17C
102
}
330
17C
100
AcDbVisualStyle
  2
Linepattern
 70
    14
 71
     2
 72
     2
 73
     0
 90
        0
 40
-0.6
 41
-30.0
 62
     5
 63
     7
421
 16777215
 74
     1
 91
        4
 64
     7
 65
   257
 75
     7
175
     7
 42
1.0
 92
        8
 66
     7
 43
1.0
 76
     1
 77
     6
 78
     2
 67
     7
 79
     5
170
     0
171
     0
290
     0
174
     0
 93
        1
 44
0.0
173
     0
291
     1
 45
0.0
  0
VISUALSTYLE
  5
186
102
{ACAD_REACTORS
330
17C
102
}
330
17C
100
AcDbVisualStyle
  2
Realistic
 70
     8
 71
     2
 72
     2
 73
     0
 90
        0
 40
-0.6
 41
-30.0
 62
     5
 63
     7
421
 16777215
 74
     1
 91
        0
 64
     7
 65
   257
 75
     1
175
     1
 42
1.0
 92
        8
 66
     8
424
  7895160
 43
1.0
 76
     1
 77
     6
 78
     2
 67
     7
 79
     5
170
     0
171
     0
290
     0
174
     0
 93
       13
 44
0.0
173
     0
291
     0
 45
0.0
  0
VISUALSTYLE
  5
189
102
{ACAD_REACTORS
330
17C
102
}
330
17C
100
AcDbVisualStyle
  2
Thicken
 70
    13
 71
     2
 72
     2
 73
     0
 90
        0
 40
-0.6
 41
-30.0
 62
     5
 63
     7
421
 16777215
 74
     1
 91
        4
 64
     7
 65
   257
 75
     1
175
     1
 42
1.0
 92
       12
 66
     7
 43
1.0
 76
     1
 77
     6
 78
     2
 67
     7
 79
     5
170
     0
171
     0
290
     0
174
     0
 93
        1
 44
0.0
173
     0
291
     1
 45
0.0
  0
DICTIONARYVAR
  5
209
102
{ACAD_REACTORS
330
205
102
}
330
205
100
DictionaryVariables
280
     0
  1
1:1
  0
DICTIONARYVAR
  5
207
102
{ACAD_REACTORS
330
205
102
}
330
205
100
DictionaryVariables
280
     0
  1
STANDARD
  0
DICTIONARYVAR
  5
206
102
{ACAD_REACTORS
330
205
102
}
330
205
100
DictionaryVariables
280
     0
  1
STANDARD
  0
DICTIONARYVAR
  5
20B
102
{ACAD_REACTORS
330
205
102
}
330
205
100
DictionaryVariables
280
     0
  1
1
  0
DICTIONARYVAR
  5
20C
102
{ACAD_REACTORS
330
205
102
}
330
205
100
DictionaryVariables
280
     0
  1
15
  0
DICTIONARYVAR
  5
20A
102
{ACAD_REACTORS
330
205
102
}
330
205
100
DictionaryVariables
280
     0
  1
0
  0
DICTIONARYVAR
  5
208
102
{ACAD_REACTORS
330
205
102
}
330
205
100
DictionaryVariables
280
     0
  1
0
  0
DICTIONARY
  5
16D
330
16C
100
AcDbDictionary
280
     1
281
     1
  3
BUMPTILE
360
16F
  3
DIFFUSETILE
360
16E
  3
OPACITYTILE
360
172
  3
REFLECTIONTILE
360
171
  3
REFRACTIONTILE
360
173
  3
SPECULARTILE
360
170
  0
DICTIONARY
  5
165
330
164
100
AcDbDictionary
280
     1
281
     1
  3
BUMPTILE
360
167
  3
DIFFUSETILE
360
166
  3
OPACITYTILE
360
16A
  3
REFLECTIONTILE
360
169
  3
REFRACTIONTILE
360
16B
  3
SPECULARTILE
360
168
  0
DICTIONARY
  5
175
330
174
100
AcDbDictionary
280
     1
281
     1
  3
BUMPTILE
360
177
  3
DIFFUSETILE
360
176
  3
OPACITYTILE
360
17A
  3
REFLECTIONTILE
360
179
  3
REFRACTIONTILE
360
17B
  3
SPECULARTILE
360
178
  0
DICTIONARY
  5
20D
330
18F
100
AcDbDictionary
280
     1
281
     1
  3
ACAD_ROUNDTRIP_2008_TABLESTYLE_CELLSTYLEMAP
360
20E
  0
XRECORD
  5
16F
102
{ACAD_REACTORS
330
16D
102
}
330
16D
100
AcDbXrecord
280
     1
270
     1
271
     1
  0
XRECORD
  5
16E
102
{ACAD_REACTORS
330
16D
102
}
330
16D
100
AcDbXrecord
280
     1
270
     1
271
     1
  0
XRECORD
  5
172
102
{ACAD_REACTORS
330
16D
102
}
330
16D
100
AcDbXrecord
280
     1
270
     1
271
     1
  0
XRECORD
  5
171
102
{ACAD_REACTORS
330
16D
102
}
330
16D
100
AcDbXrecord
280
     1
270
     1
271
     1
  0
XRECORD
  5
173
102
{ACAD_REACTORS
330
16D
102
}
330
16D
100
AcDbXrecord
280
     1
270
     1
271
     1
  0
XRECORD
  5
170
102
{ACAD_REACTORS
330
16D
102
}
330
16D
100
AcDbXrecord
280
     1
270
     1
271
     1
  0
XRECORD
  5
167
102
{ACAD_REACTORS
330
165
102
}
330
165
100
AcDbXrecord
280
     1
270
     1
271
     1
  0
XRECORD
  5
166
102
{ACAD_REACTORS
330
165
102
}
330
165
100
AcDbXrecord
280
     1
270
     1
271
     1
  0
XRECORD
  5
16A
102
{ACAD_REACTORS
330
165
102
}
330
165
100
AcDbXrecord
280
     1
270
     1
271
     1
  0
XRECORD
  5
169
102
{ACAD_REACTORS
330
165
102
}
330
165
100
AcDbXrecord
280
     1
270
     1
271
     1
  0
XRECORD
  5
16B
102
{ACAD_REACTORS
330
165
102
}
330
165
100
AcDbXrecord
280
     1
270
     1
271
     1
  0
XRECORD
  5
168
102
{ACAD_REACTORS
330
165
102
}
330
165
100
AcDbXrecord
280
     1
270
     1
271
     1
  0
XRECORD
  5
177
102
{ACAD_REACTORS
330
175
102
}
330
175
100
AcDbXrecord
280
     1
270
     1
271
     1
  0
XRECORD
  5
176
102
{ACAD_REACTORS
330
175
102
}
330
175
100
AcDbXrecord
280
     1
270
     1
271
     1
  0
XRECORD
  5
17A
102
{ACAD_REACTORS
330
175
102
}
330
175
100
AcDbXrecord
280
     1
270
     1
271
     1
  0
XRECORD
  5
179
102
{ACAD_REACTORS
330
175
102
}
330
175
100
AcDbXrecord
280
     1
270
     1
271
     1
  0
XRECORD
  5
17B
102
{ACAD_REACTORS
330
175
102
}
330
175
100
AcDbXrecord
280
     1
270
     1
271
     1
  0
XRECORD
  5
178
102
{ACAD_REACTORS
330
175
102
}
330
175
100
AcDbXrecord
280
     1
270
     1
271
     1
  0
CELLSTYLEMAP
  5
20E
102
{ACAD_REACTORS
330
20D
102
}
330
20D
100
AcDbCellStyleMap
 90
        3
300
CELLSTYLE
  1
TABLEFORMAT_BEGIN
 90
        5
170
     1
 91
        0
 92
    32768
 62
   257
 93
        1
300
CONTENTFORMAT
  1
CONTENTFORMAT_BEGIN
 90
        0
 91
        0
 92
      512
 93
        0
300

 40
0.0
140
1.0
 94
        5
 62
     0
340
17
144
6.0
309
CONTENTFORMAT_END
171
     1
301
MARGIN
  1
CELLMARGIN_BEGIN
 40
1.5
 40
1.5
 40
1.5
 40
1.5
 40
4.5
 40
4.5
309
CELLMARGIN_END
 94
        6
 95
        1
302
GRIDFORMAT
  1
GRIDFORMAT_BEGIN
 90
        0
 91
        1
 62
     0
 92
       -2
340
0
 93
        0
 40
1.125
309
GRIDFORMAT_END
 95
        2
302
GRIDFORMAT
  1
GRIDFORMAT_BEGIN
 90
        0
 91
        1
 62
     0
 92
       -2
340
0
 93
        0
 40
1.125
309
GRIDFORMAT_END
 95
        4
302
GRIDFORMAT
  1
GRIDFORMAT_BEGIN
 90
        0
 91
        1
 62
     0
 92
       -2
340
0
 93
        0
 40
1.125
309
GRIDFORMAT_END
 95
        8
302
GRIDFORMAT
  1
GRIDFORMAT_BEGIN
 90
        0
 91
        1
 62
     0
 92
       -2
340
0
 93
        0
 40
1.125
309
GRIDFORMAT_END
 95
       16
302
GRIDFORMAT
  1
GRIDFORMAT_BEGIN
 90
        0
 91
        1
 62
     0
 92
       -2
340
0
 93
        0
 40
1.125
309
GRIDFORMAT_END
 95
       32
302
GRIDFORMAT
  1
GRIDFORMAT_BEGIN
 90
        0
 91
        1
 62
     0
 92
       -2
340
0
 93
        0
 40
1.125
309
GRIDFORMAT_END
309
TABLEFORMAT_END
  1
CELLSTYLE_BEGIN
 90
        1
 91
        1
300
_TITLE
309
CELLSTYLE_END
300
CELLSTYLE
  1
TABLEFORMAT_BEGIN
 90
        5
170
     1
 91
        0
 92
        0
 62
   257
 93
        1
300
CONTENTFORMAT
  1
CONTENTFORMAT_BEGIN
 90
        0
 91
        0
 92
      512
 93
        0
300

 40
0.0
140
1.0
 94
        5
 62
     0
340
17
144
4.5
309
CONTENTFORMAT_END
171
     1
301
MARGIN
  1
CELLMARGIN_BEGIN
 40
1.5
 40
1.5
 40
1.5
 40
1.5
 40
4.5
 40
4.5
309
CELLMARGIN_END
 94
        6
 95
        1
302
GRIDFORMAT
  1
GRIDFORMAT_BEGIN
 90
        0
 91
        1
 62
     0
 92
       -2
340
0
 93
        0
 40
1.125
309
GRIDFORMAT_END
 95
        2
302
GRIDFORMAT
  1
GRIDFORMAT_BEGIN
 90
        0
 91
        1
 62
     0
 92
       -2
340
0
 93
        0
 40
1.125
309
GRIDFORMAT_END
 95
        4
302
GRIDFORMAT
  1
GRIDFORMAT_BEGIN
 90
        0
 91
        1
 62
     0
 92
       -2
340
0
 93
        0
 40
1.125
309
GRIDFORMAT_END
 95
        8
302
GRIDFORMAT
  1
GRIDFORMAT_BEGIN
 90
        0
 91
        1
 62
     0
 92
       -2
340
0
 93
        0
 40
1.125
309
GRIDFORMAT_END
 95
       16
302
GRIDFORMAT
  1
GRIDFORMAT_BEGIN
 90
        0
 91
        1
 62
     0
 92
       -2
340
0
 93
        0
 40
1.125
309
GRIDFORMAT_END
 95
       32
302
GRIDFORMAT
  1
GRIDFORMAT_BEGIN
 90
        0
 91
        1
 62
     0
 92
       -2
340
0
 93
        0
 40
1.125
309
GRIDFORMAT_END
309
TABLEFORMAT_END
  1
CELLSTYLE_BEGIN
 90
        2
 91
        1
300
_HEADER
309
CELLSTYLE_END
300
CELLSTYLE
  1
TABLEFORMAT_BEGIN
 90
        5
170
     1
 91
        0
 92
        0
 62
   257
 93
        1
300
CONTENTFORMAT
  1
CONTENTFORMAT_BEGIN
 90
        0
 91
        0
 92
      512
 93
        0
300

 40
0.0
140
1.0
 94
        2
 62
     0
340
17
144
4.5
309
CONTENTFORMAT_END
171
     1
301
MARGIN
  1
CELLMARGIN_BEGIN
 40
1.5
 40
1.5
 40
1.5
 40
1.5
 40
4.5
 40
4.5
309
CELLMARGIN_END
 94
        6
 95
        1
302
GRIDFORMAT
  1
GRIDFORMAT_BEGIN
 90
        0
 91
        1
 62
     0
 92
       -2
340
0
 93
        0
 40
1.125
309
GRIDFORMAT_END
 95
        2
302
GRIDFORMAT
  1
GRIDFORMAT_BEGIN
 90
        0
 91
        1
 62
     0
 92
       -2
340
0
 93
        0
 40
1.125
309
GRIDFORMAT_END
 95
        4
302
GRIDFORMAT
  1
GRIDFORMAT_BEGIN
 90
        0
 91
        1
 62
     0
 92
       -2
340
0
 93
        0
 40
1.125
309
GRIDFORMAT_END
 95
        8
302
GRIDFORMAT
  1
GRIDFORMAT_BEGIN
 90
        0
 91
        1
 62
     0
 92
       -2
340
0
 93
        0
 40
1.125
309
GRIDFORMAT_END
 95
       16
302
GRIDFORMAT
  1
GRIDFORMAT_BEGIN
 90
        0
 91
        1
 62
     0
 92
       -2
340
0
 93
        0
 40
1.125
309
GRIDFORMAT_END
 95
       32
302
GRIDFORMAT
  1
GRIDFORMAT_BEGIN
 90
        0
 91
        1
 62
     0
 92
       -2
340
0
 93
        0
 40
1.125
309
GRIDFORMAT_END
309
TABLEFORMAT_END
  1
CELLSTYLE_BEGIN
 90
        3
 91
        2
300
_DATA
309
CELLSTYLE_END
  0
ENDSEC
  0
EOF
