  0
SECTION
  2
HEADER
  9
$ACADVER
  1
AC1009
  9
$INSBASE
 10
0.0
 20
0.0
 30
0.0
  9
$EXTMIN
 10
-19.160837491224669
 20
-16.886380747067388
 30
0.0
  9
$EXTMAX
 10
8.2986698279318496
 20
16.747432667937058
 30
0.0
  9
$LIMMIN
 10
0.0
 20
0.0
  9
$LIMMAX
 10
12.0
 20
9.0
  9
$ORTHOMODE
 70
     1
  9
$REGENMODE
 70
     1
  9
$FILLMODE
 70
     1
  9
$QTEXTMODE
 70
     0
  9
$MIRRTEXT
 70
     1
  9
$DRAGMODE
 70
     2
  9
$LTSCALE
 40
1.0
  9
$OSMODE
 70
     1
  9
$ATTMODE
 70
     1
  9
$TEXTSIZE
 40
0.2
  9
$TRACEWID
 40
0.05
  9
$TEXTSTYLE
  7
STANDARD
  9
$CLAYER
  8
0
  9
$CELTYPE
  6
CONTINUOUS
  9
$CECOLOR
 62
   256
  9
$DIMSCALE
 40
1.0
  9
$DIMASZ
 40
0.18
  9
$DIMEXO
 40
0.0625
  9
$DIMDLI
 40
0.38
  9
$DIMRND
 40
0.0
  9
$DIMDLE
 40
0.0
  9
$DIMEXE
 40
0.18
  9
$DIMTP
 40
0.0
  9
$DIMTM
 40
0.0
  9
$DIMTXT
 40
0.18
  9
$DIMCEN
 40
0.09
  9
$DIMTSZ
 40
0.0
  9
$DIMTOL
 70
     0
  9
$DIMLIM
 70
     0
  9
$DIMTIH
 70
     1
  9
$DIMTOH
 70
     1
  9
$DIMSE1
 70
     0
  9
$DIMSE2
 70
     0
  9
$DIMTAD
 70
     0
  9
$DIMZIN
 70
     0
  9
$DIMBLK
  1

  9
$DIMASO
 70
     1
  9
$DIMSHO
 70
     1
  9
$DIMPOST
  1

  9
$DIMAPOST
  1

  9
$DIMALT
 70
     0
  9
$DIMALTD
 70
     2
  9
$DIMALTF
 40
25.399999999999999
  9
$DIMLFAC
 40
1.0
  9
$DIMTOFL
 70
     0
  9
$DIMTVP
 40
0.0
  9
$DIMTIX
 70
     0
  9
$DIMSOXD
 70
     0
  9
$DIMSAH
 70
     0
  9
$DIMBLK1
  1

  9
$DIMBLK2
  1

  9
$DIMSTYLE
  2
STANDARD
  9
$DIMCLRD
 70
     0
  9
$DIMCLRE
 70
     0
  9
$DIMCLRT
 70
     0
  9
$DIMTFAC
 40
1.0
  9
$DIMGAP
 40
0.09
  9
$LUNITS
 70
     2
  9
$LUPREC
 70
     4
  9
$SKETCHINC
 40
0.1
  9
$FILLETRAD
 40
0.0
  9
$AUNITS
 70
     0
  9
$AUPREC
 70
     2
  9
$MENU
  1
.
  9
$ELEVATION
 40
0.0
  9
$PELEVATION
 40
0.0
  9
$THICKNESS
 40
0.0
  9
$LIMCHECK
 70
     0
  9
$BLIPMODE
 70
     0
  9
$CHAMFERA
 40
0.0
  9
$CHAMFERB
 40
0.0
  9
$SKPOLY
 70
     0
  9
$TDCREATE
 40
2453045.601786851
  9
$TDUPDATE
 40
2453077.658060208
  9
$TDINDWG
 40
0.1514862847
  9
$TDUSRTIMER
 40
0.1514862847
  9
$USRTIMER
 70
     1
  9
$ANGBASE
 50
0.0
  9
$ANGDIR
 70
     0
  9
$PDMODE
 70
     0
  9
$PDSIZE
 40
0.0
  9
$PLINEWID
 40
0.0
  9
$COORDS
 70
     1
  9
$SPLFRAME
 70
     0
  9
$SPLINETYPE
 70
     6
  9
$SPLINESEGS
 70
     8
  9
$ATTDIA
 70
     1
  9
$ATTREQ
 70
     1
  9
$HANDLING
 70
 22529
  9
$HANDSEED
  5
3CC
  9
$SURFTAB1
 70
     6
  9
$SURFTAB2
 70
     6
  9
$SURFTYPE
 70
     6
  9
$SURFU
 70
     6
  9
$SURFV
 70
     6
  9
$UCSNAME
  2

  9
$UCSORG
 10
0.0
 20
0.0
 30
0.0
  9
$UCSXDIR
 10
1.0
 20
0.0
 30
0.0
  9
$UCSYDIR
 10
0.0
 20
1.0
 30
0.0
  9
$PUCSNAME
  2

  9
$PUCSORG
 10
0.0
 20
0.0
 30
0.0
  9
$PUCSXDIR
 10
1.0
 20
0.0
 30
0.0
  9
$PUCSYDIR
 10
0.0
 20
1.0
 30
0.0
  9
$USERI1
 70
     0
  9
$USERI2
 70
     0
  9
$USERI3
 70
     0
  9
$USERI4
 70
     0
  9
$USERI5
 70
     0
  9
$USERR1
 40
0.0
  9
$USERR2
 40
0.0
  9
$USERR3
 40
0.0
  9
$USERR4
 40
0.0
  9
$USERR5
 40
0.0
  9
$WORLDVIEW
 70
     1
  9
$SHADEDGE
 70
     3
  9
$SHADEDIF
 70
    70
  9
$TILEMODE
 70
     1
  9
$MAXACTVP
 70
    64
  9
$PLIMCHECK
 70
     0
  9
$PEXTMIN
 10
-708.01784835287424
 20
-221.02247567658731
 30
0.0
  9
$PEXTMAX
 10
605.98165318579765
 20
209.58722915671501
 30
0.0
  9
$PLIMMIN
 10
-0.1979161059762549
 20
-0.2679166643638311
  9
$PLIMMAX
 10
11.493750144177531
 20
7.9987497780266699
  9
$UNITMODE
 70
     0
  9
$VISRETAIN
 70
     1
  9
$PLINEGEN
 70
     0
  9
$PSLTSCALE
 70
     1
  0
ENDSEC
  0
SECTION
  2
TABLES
  0
TABLE
  2
VPORT
 70
     2
  0
VPORT
  2
*ACTIVE
 70
     0
 10
0.0
 20
0.0
 11
1.0
 21
1.0
 12
-3.1336289372686892
 22
-1.4674987840986551
 13
0.0
 23
0.0
 14
1.0
 24
1.0
 15
0.0
 25
0.0
 16
0.0
 26
0.0
 36
1.0
 17
0.1687951338768018
 27
1.398024822843315
 37
0.1747608202959771
 40
34.035865512421701
 41
1.928853754940711
 42
50.0
 43
0.0
 44
0.0
 50
0.0
 51
0.0
 71
     0
 72
   100
 73
     1
 74
     1
 75
     0
 76
     0
 77
     0
 78
     0
  0
ENDTAB
  0
TABLE
  2
LTYPE
 70
     1
  0
LTYPE
  2
CONTINUOUS
 70
     0
  3
Solid line
 72
    65
 73
     0
 40
0.0
  0
ENDTAB
  0
TABLE
  2
LAYER
 70
     3
  0
LAYER
  2
0
 70
     0
 62
     7
  6
CONTINUOUS
  0
LAYER
  2
DEFPOINTS
 70
     0
 62
     7
  6
CONTINUOUS
  0
LAYER
  2
COTATION-JACOBDELAFON
 70
     0
 62
     8
  6
CONTINUOUS
  0
ENDTAB
  0
TABLE
  2
STYLE
 70
     2
  0
STYLE
  2
STANDARD
 70
     0
 40
0.0
 41
1.0
 50
0.0
 71
     0
 42
0.2
  3
txt
  4

  0
STYLE
  2
JACOB-DELAFON
 70
     0
 40
0.0
 41
1.0
 50
0.0
 71
     0
 42
2.5
  3
txt
  4

  0
ENDTAB
  0
TABLE
  2
VIEW
 70
     0
  0
ENDTAB
  0
TABLE
  2
UCS
 70
     0
  0
ENDTAB
  0
TABLE
  2
APPID
 70
     9
  0
APPID
  2
ACAD
 70
     0
  0
APPID
  2
ADCADD_ZZ
 70
     0
  0
APPID
  2
SDSK_PMN
 70
     0
  0
APPID
  2
ACAECLAYERSTANDARD
 70
     0
  0
APPID
  2
AECBASE
 70
     0
  0
APPID
  2
AEC_DWGVARSSETUP_DATA
 70
     0
  0
APPID
  2
AEC_DISPREPCONFIG_DATA
 70
     0
  0
APPID
  2
AEC_DISPREPSET_DATA
 70
     0
  0
APPID
  2
DCO15
 70
     0
  0
ENDTAB
  0
TABLE
  2
DIMSTYLE
 70
     2
  0
DIMSTYLE
  2
STANDARD
 70
     0
  3

  4

  5

  6

  7

 40
1.0
 41
0.18
 42
0.0625
 43
0.38
 44
0.18
 45
0.0
 46
0.0
 47
0.0
 48
0.0
140
0.18
141
0.09
142
0.0
143
25.399999999999999
144
1.0
145
0.0
146
1.0
147
0.09
 71
     0
 72
     0
 73
     1
 74
     1
 75
     0
 76
     0
 77
     0
 78
     0
170
     0
171
     2
172
     0
173
     0
174
     0
175
     0
176
     0
177
     0
178
     0
  0
DIMSTYLE
  2
COTATION-JACOB-DELAFON
 70
     0
  3

  4

  5
OBLIQUE
  6

  7

 40
1.0
 41
1.8
 42
0.625
 43
3.7999999999999989
 44
1.8
 45
0.0
 46
0.0
 47
0.0
 48
0.0
140
3.0
141
0.9
142
0.0
143
25.399999999999999
144
1.0
145
0.0
146
1.0
147
0.9
 71
     0
 72
     0
 73
     0
 74
     0
 75
     0
 76
     0
 77
     1
 78
    12
170
     0
171
     2
172
     0
173
     0
174
     0
175
     0
176
     0
177
     0
178
     0
  0
ENDTAB
  0
ENDSEC
  0
SECTION
  2
BLOCKS
  0
BLOCK
  8
0
  2
$MODEL_SPACE
 70
     0
 10
0.0
 20
0.0
 30
0.0
  3
$MODEL_SPACE
  1

  0
ENDBLK
  5
9
  8
0
  0
BLOCK
 67
     1
  8
0
  2
$PAPER_SPACE
 70
     0
 10
0.0
 20
0.0
 30
0.0
  3
$PAPER_SPACE
  1

  0
ENDBLK
  5
E
 67
     1
  8
0
  0
BLOCK
  8
0
  2
A$C119E43F4
 70
     0
 10
0.0
 20
0.0
 30
0.0
  3
A$C119E43F4
  1

  0
POLYLINE
  5
26
  8
0
  6
CONTINUOUS
 66
     1
 10
0.0
 20
0.0
 30
0.0
 70
     1
  0
VERTEX
  5
2C0
  8
0
  6
CONTINUOUS
 10
2.808944252820083
 20
7.3921289230555081
 30
0.0
  0
VERTEX
  5
2C1
  8
0
  6
CONTINUOUS
 10
2.446499583847412
 20
3.771128474594434
 30
0.0
  0
VERTEX
  5
2C2
  8
0
  6
CONTINUOUS
 10
12.323107079635969
 20
2.9564034382373161
 30
0.0
  0
VERTEX
  5
2C3
  8
0
  6
CONTINUOUS
 10
12.685551295877699
 20
6.8489790552941372
 30
0.0
  0
SEQEND
  5
2C4
  8
0
  6
CONTINUOUS
  0
POLYLINE
  5
27
  8
0
  6
CONTINUOUS
 66
     1
 10
0.0
 20
0.0
 30
0.0
  0
VERTEX
  5
2C5
  8
0
  6
CONTINUOUS
 10
1.1502235708405231
 20
10.08490519726319
 30
0.0
  0
VERTEX
  5
2C6
  8
0
  6
CONTINUOUS
 10
2.899555193697779
 20
8.0258041599688568
 30
0.0
  0
VERTEX
  5
2C7
  8
0
  6
CONTINUOUS
 10
12.798785230963849
 20
7.5713641398928644
 30
0.0
  0
SEQEND
  5
2C8
  8
0
  6
CONTINUOUS
  0
POLYLINE
  5
28
  8
0
  6
CONTINUOUS
 66
     1
 10
0.0
 20
0.0
 30
0.0
  0
VERTEX
  5
2C9
  8
0
  6
CONTINUOUS
 10
0.0000005583024176
 20
6.0342537842219741
 30
0.0
  0
VERTEX
  5
2CA
  8
0
  6
CONTINUOUS
 10
0.2718338336663919
 20
9.7457793671199937
 30
0.0
  0
VERTEX
  5
2CB
  8
0
  6
CONTINUOUS
 10
0.9061113252720929
 20
10.10787943543759
 30
0.0
  0
VERTEX
  5
2CC
  8
0
  6
CONTINUOUS
 10
13.410439728360981
 20
8.931054330762862
 30
0.0
  0
VERTEX
  5
2CD
  8
0
  6
CONTINUOUS
 10
12.95738457124167
 20
3.4995535407137761
 30
0.0
  0
VERTEX
  5
2CE
  8
0
  6
CONTINUOUS
 10
12.323107079635969
 20
2.9564034382373161
 30
0.0
  0
SEQEND
  5
2CF
  8
0
  6
CONTINUOUS
  0
POLYLINE
  5
29
  8
0
  6
CONTINUOUS
 66
     1
 10
0.0
 20
0.0
 30
0.0
  0
VERTEX
  5
2D0
  8
0
  6
CONTINUOUS
 10
0.2718338336663919
 20
9.7457793671199937
 30
0.0
  0
VERTEX
  5
2D1
  8
0
  6
CONTINUOUS
 10
2.446499583847412
 20
7.4826540574924527
 30
0.0
  0
VERTEX
  5
2D2
  8
0
  6
CONTINUOUS
 10
2.1227749853026121
 20
3.9956186414846111
 30
0.0
  0
SEQEND
  5
2D3
  8
0
  6
CONTINUOUS
  0
LINE
  5
2A
  8
0
  6
CONTINUOUS
 10
2.899555193697779
 20
8.0258041599688568
 30
0.0
 11
2.446499583847412
 21
7.4826540574924527
 31
0.0
  0
LINE
  5
2B
  8
0
  6
CONTINUOUS
 10
2.899555193697779
 20
8.0258041599688568
 30
0.0
 11
2.808944252820083
 21
7.3921289230555081
 31
0.0
  0
POLYLINE
  5
2C
  8
0
  6
CONTINUOUS
 66
     1
 10
0.0
 20
0.0
 30
0.0
  0
VERTEX
  5
2D4
  8
0
  6
CONTINUOUS
 10
0.0000005583024176
 20
6.0342537842219741
 30
0.0
  0
VERTEX
  5
2D5
  8
0
  6
CONTINUOUS
 10
2.268009956461924
 20
3.8431896780149941
 30
0.0
  0
SEQEND
  5
2D6
  8
0
  6
CONTINUOUS
  0
LINE
  5
2D
  8
0
  6
CONTINUOUS
 10
12.7987852309638
 20
7.5713641398928502
 30
0.0
 11
13.410439728360981
 21
8.931054330762862
 31
0.0
  0
POLYLINE
  5
2E
  8
0
  6
CONTINUOUS
 66
     1
 10
0.0
 20
0.0
 30
0.0
 70
     1
  0
VERTEX
  5
2D7
  8
0
  6
CONTINUOUS
 10
14.678994711572329
 20
8.7500042966040592
 30
0.0
  0
VERTEX
  5
2D8
  8
0
  6
CONTINUOUS
 10
32.619987716479152
 20
7.0300290894529383
 30
0.0
  0
VERTEX
  5
2D9
  8
0
  6
CONTINUOUS
 10
32.533637879789801
 20
6.3442461730180488
 30
0.0
  0
VERTEX
  5
2DA
  8
0
  6
CONTINUOUS
 10
14.13532861357538
 20
7.4826540574924527
 30
0.0
  0
SEQEND
  5
2DB
  8
0
  6
CONTINUOUS
  0
POLYLINE
  5
2F
  8
0
  6
CONTINUOUS
 66
     1
 10
0.0
 20
0.0
 30
0.0
 70
     1
  0
VERTEX
  5
2DC
  8
0
  6
CONTINUOUS
 10
13.77288439733365
 20
6.9395039550160504
 30
0.0
  0
VERTEX
  5
2DD
  8
0
  6
CONTINUOUS
 10
32.438765834723881
 20
5.7626788503413158
 30
0.0
  0
VERTEX
  5
2DE
  8
0
  6
CONTINUOUS
 10
31.895099283995929
 20
1.3269533655231101
 30
0.0
  0
VERTEX
  5
2DF
  8
0
  6
CONTINUOUS
 10
13.501051121969679
 20
3.0469285726742461
 30
0.0
  0
SEQEND
  5
2E0
  8
0
  6
CONTINUOUS
  0
LINE
  5
30
  8
0
  6
CONTINUOUS
 10
12.7987852309638
 20
7.5713641398928502
 30
0.0
 11
12.685551295877699
 21
6.8489790552941221
 31
0.0
  0
LINE
  5
31
  8
0
  6
CONTINUOUS
 10
14.13532861357532
 20
7.4826540574924527
 30
0.0
 11
13.77288439733365
 21
6.9395039550160362
 31
0.0
  0
LINE
  5
32
  8
0
  6
CONTINUOUS
 10
32.438765834723881
 20
5.7626788503413158
 30
0.0
 11
32.533637879789801
 21
6.3442461730180488
 31
0.0
  0
POLYLINE
  5
33
  8
0
  6
CONTINUOUS
 66
     1
 10
0.0
 20
0.0
 30
0.0
 70
     1
  0
VERTEX
  5
2E1
  8
0
  6
CONTINUOUS
 10
33.260068314064988
 20
5.7492587827555184
 30
0.0
  0
VERTEX
  5
2E2
  8
0
  6
CONTINUOUS
 10
47.90847007535546
 20
5.0380160903464031
 30
0.0
  0
VERTEX
  5
2E3
  8
0
  6
CONTINUOUS
 10
47.266658687150141
 20
-0.0000004128837361
 30
0.0
  0
VERTEX
  5
2E4
  8
0
  6
CONTINUOUS
 10
32.893318625996919
 20
1.1692438651699031
 30
0.0
  0
SEQEND
  5
2E5
  8
0
  6
CONTINUOUS
  0
POLYLINE
  5
34
  8
0
  6
CONTINUOUS
 66
     1
 10
0.0
 20
0.0
 30
0.0
 70
     1
  0
VERTEX
  5
2E6
  8
0
  6
CONTINUOUS
 10
33.421863055805368
 20
7.053222691638509
 30
0.0
  0
VERTEX
  5
2E7
  8
0
  6
CONTINUOUS
 10
47.995677384562207
 20
5.536115925365265
 30
0.0
  0
VERTEX
  5
2E8
  8
0
  6
CONTINUOUS
 10
33.298890450193653
 20
6.2794681057741277
 30
0.0
  0
SEQEND
  5
2E9
  8
0
  6
CONTINUOUS
  0
LINE
  5
35
  8
0
  6
CONTINUOUS
 10
33.298890450193653
 20
6.2794681057741144
 30
0.0
 11
33.260068314064931
 21
5.7492587827555184
 31
0.0
  0
LINE
  5
36
  8
0
  6
CONTINUOUS
 10
47.995677384562207
 20
5.536115925365265
 30
0.0
 11
47.90847007535546
 21
5.0380160903464031
 31
0.0
  0
ENDBLK
  5
38
  8
0
  0
BLOCK
  8
0
  2
_OBLIQUE
 70
     0
 10
0.0
 20
0.0
 30
0.0
  3
_OBLIQUE
  1

  0
LINE
  5
6F
  8
0
  6
BYBLOCK
 62
     0
 10
-0.5
 20
-0.5
 30
0.0
 11
0.5
 21
0.5
 31
0.0
  0
ENDBLK
  5
71
  8
0
  0
BLOCK
  8
0
  2
*D2
 70
     1
 10
0.0
 20
0.0
 30
0.0
  3
*D2
  1

  0
LINE
  5
12D
  8
COTATION-JACOBDELAFON
 62
     0
 10
-3.9103356637448452
 20
-7.5694740395651356
 30
0.0
 11
-16.209541447568458
 21
-7.5694740395651321
 31
0.0
  0
LINE
  5
12E
  8
COTATION-JACOBDELAFON
 62
     0
 10
-3.9103356637448421
 20
7.4305259604348626
 30
0.0
 11
-16.209541447568458
 21
7.430525960434867
 31
0.0
  0
LINE
  5
12F
  8
COTATION-JACOBDELAFON
 62
     0
 10
-14.40954144756846
 20
-7.5694740395651321
 30
0.0
 11
-14.40954144756846
 21
7.430525960434867
 31
0.0
  0
INSERT
  5
130
  8
COTATION-JACOBDELAFON
 62
     0
  2
_OBLIQUE
 10
-14.40954144756846
 20
-7.5694740395651321
 30
0.0
 41
1.8
 42
1.8
 43
1.8
 50
270.0
  0
INSERT
  5
131
  8
COTATION-JACOBDELAFON
 62
     0
  2
_OBLIQUE
 10
-14.40954144756846
 20
7.430525960434867
 30
0.0
 41
1.8
 42
1.8
 43
1.8
 50
90.0
  0
TEXT
  5
132
  8
0
  6
CONTINUOUS
 62
     0
 10
-15.366840219737631
 20
-2.5445763588011512
 30
0.0
 40
3.0
  1
15
 50
90.0
  7
JACOB-DELAFON
  0
POINT
  5
133
  8
DEFPOINTS
 62
     0
 10
-3.2853356637448452
 20
-7.5694740395651356
 30
0.0
  0
POINT
  5
134
  8
DEFPOINTS
 62
     0
 10
-3.2853356637448421
 20
7.4305259604348626
 30
0.0
  0
POINT
  5
135
  8
DEFPOINTS
 62
     0
 10
-14.40954144756846
 20
7.430525960434867
 30
0.0
  0
ENDBLK
  5
BD
  8
0
  0
BLOCK
  8
0
  2
ADCADD_ZZ
 70
     0
 10
0.0
 20
0.0
 30
0.0
  3
ADCADD_ZZ
  1

  0
ENDBLK
  5
157
  8
0
  0
ENDSEC
  0
SECTION
  2
ENTITIES
  0
INSERT
  5
24
  8
0
  6
CONTINUOUS
  2
A$C119E43F4
 10
5.5807677404616101
 20
16.576801741262798
 30
0.0
 41
-0.1161364109229304
 42
0.1161364109229304
 43
0.1161364109229304
 50
90.0
  0
POLYLINE
  5
39
  8
0
  6
CONTINUOUS
 66
     1
 10
0.0
 20
0.0
 30
0.0
 70
     1
  0
VERTEX
  5
2EA
  8
0
  6
CONTINUOUS
 10
7.0354191777754229
 20
11.273247508665291
 30
0.0
  0
VERTEX
  5
2EB
  8
0
  6
CONTINUOUS
 10
6.762155458484572
 20
12.947086797915549
 30
0.0
  0
VERTEX
  5
2EC
  8
0
  6
CONTINUOUS
 10
6.3727546584951353
 20
15.227452733678779
 30
0.0
  0
VERTEX
  5
2ED
  8
0
  6
CONTINUOUS
 10
6.1242430876908056
 20
16.743472324179258
 30
0.0
  0
VERTEX
  5
2EE
  8
0
  6
CONTINUOUS
 10
2.0899399101749738
 20
16.214766432507819
 30
0.0
  0
VERTEX
  5
2EF
  8
0
  6
CONTINUOUS
 10
2.1336027001051341
 20
14.604094626195019
 30
0.0
  0
VERTEX
  5
2F0
  8
0
  6
CONTINUOUS
 10
1.985089809186221
 20
12.245214875432669
 30
0.0
  0
VERTEX
  5
2F1
  8
0
  6
CONTINUOUS
 10
2.0306337624013491
 20
10.617315573773331
 30
0.0
  0
VERTEX
  5
2F2
  8
0
  6
CONTINUOUS
 10
2.3012242496556392
 20
10.650978495714931
 30
0.0
  0
VERTEX
  5
2F3
  8
0
  6
CONTINUOUS
 10
2.6153785182461542
 20
10.697215509087661
 30
0.0
  0
VERTEX
  5
2F4
  8
0
  6
CONTINUOUS
 10
2.911711239926404
 20
10.729492310714051
 30
0.0
  0
VERTEX
  5
2F5
  8
0
  6
CONTINUOUS
 10
3.381804043981794
 20
10.798699317882249
 30
0.0
  0
VERTEX
  5
2F6
  8
0
  6
CONTINUOUS
 10
3.7690266549044291
 20
10.840876978903291
 30
0.0
  0
VERTEX
  5
2F7
  8
0
  6
CONTINUOUS
 10
4.3234747810017709
 20
10.92246006031475
 30
0.0
  0
VERTEX
  5
2F8
  8
0
  6
CONTINUOUS
 10
4.742578159175002
 20
10.96810302212387
 30
0.0
  0
VERTEX
  5
2F9
  8
0
  6
CONTINUOUS
 10
5.0257427378604227
 20
11.01443904409053
 30
0.0
  0
VERTEX
  5
2FA
  8
0
  6
CONTINUOUS
 10
5.6842488961949789
 20
11.09186376455626
 30
0.0
  0
VERTEX
  5
2FB
  8
0
  6
CONTINUOUS
 10
6.1543417002503693
 20
11.160971763130521
 30
0.0
  0
VERTEX
  5
2FC
  8
0
  6
CONTINUOUS
 10
6.4506744219306187
 20
11.19334757335084
 30
0.0
  0
VERTEX
  5
2FD
  8
0
  6
CONTINUOUS
 10
6.7647296819271698
 20
11.23948557812964
 30
0.0
  0
VERTEX
  5
2FE
  8
0
  6
CONTINUOUS
 10
6.9251236041196123
 20
11.2570100992581
 30
0.0
  0
SEQEND
  5
2FF
  8
0
  6
CONTINUOUS
  0
POLYLINE
  5
3A
  8
0
  6
CONTINUOUS
 66
     1
 10
0.0
 20
0.0
 30
0.0
 70
     1
  0
VERTEX
  5
300
  8
0
  6
CONTINUOUS
 10
2.0177626451883821
 20
-10.60676067604528
 30
0.0
  0
VERTEX
  5
301
  8
0
  6
CONTINUOUS
 10
2.032415917092381
 20
-10.672205356643479
 30
0.0
  0
VERTEX
  5
302
  8
0
  6
CONTINUOUS
 10
2.0867716351687049
 20
-10.705670261397209
 30
0.0
  0
VERTEX
  5
303
  8
0
  6
CONTINUOUS
 10
7.0051225480279591
 20
-11.35665176659184
 30
0.0
  0
VERTEX
  5
304
  8
0
  6
CONTINUOUS
 10
7.06650787627445
 20
-11.338434185305839
 30
0.0
  0
VERTEX
  5
305
  8
0
  6
CONTINUOUS
 10
7.0977945919613781
 20
-11.27912803753218
 30
0.0
  0
VERTEX
  5
306
  8
0
  6
CONTINUOUS
 10
7.6222431140930924
 20
-8.5036201234452449
 30
0.0
  0
VERTEX
  5
307
  8
0
  6
CONTINUOUS
 10
7.9975846937421986
 20
-5.7062313100962401
 30
0.0
  0
VERTEX
  5
308
  8
0
  6
CONTINUOUS
 10
8.2233242879389934
 20
-2.8929021131219641
 30
0.0
  0
VERTEX
  5
309
  8
0
  6
CONTINUOUS
 10
8.2986698279318496
 20
-0.0694740395651648
 30
0.0
  0
VERTEX
  5
30A
  8
0
  6
CONTINUOUS
 10
8.2233242879389934
 20
2.7539540339916351
 30
0.0
  0
VERTEX
  5
30B
  8
0
  6
CONTINUOUS
 10
7.9975846937421986
 20
5.5672832309659102
 30
0.0
  0
VERTEX
  5
30C
  8
0
  6
CONTINUOUS
 10
7.6222431140930942
 20
8.3646720443149132
 30
0.0
  0
VERTEX
  5
30D
  8
0
  6
CONTINUOUS
 10
7.097794591961379
 20
11.14017995840185
 30
0.0
  0
VERTEX
  5
30E
  8
0
  6
CONTINUOUS
 10
7.0665078762744518
 20
11.199387097581569
 30
0.0
  0
VERTEX
  5
30F
  8
0
  6
CONTINUOUS
 10
7.0051225480279609
 20
11.21770368746162
 30
0.0
  0
VERTEX
  5
310
  8
0
  6
CONTINUOUS
 10
6.820273503130859
 20
11.19909007179977
 30
0.0
  0
VERTEX
  5
311
  8
0
  6
CONTINUOUS
 10
6.2898844653623804
 20
11.13730870917739
 30
0.0
  0
VERTEX
  5
312
  8
0
  6
CONTINUOUS
 10
5.49771670520078
 20
11.03463679725547
 30
0.0
  0
VERTEX
  5
313
  8
0
  6
CONTINUOUS
 10
4.5316898540701054
 20
10.90206428996183
 30
0.0
  0
VERTEX
  5
314
  8
0
  6
CONTINUOUS
 10
3.6181375577307882
 20
10.77097691157744
 30
0.0
  0
VERTEX
  5
315
  8
0
  6
CONTINUOUS
 10
2.8080492420649872
 20
10.660582329327671
 30
0.0
  0
VERTEX
  5
316
  8
0
  6
CONTINUOUS
 10
2.2758780496055042
 20
10.59018721903213
 30
0.0
  0
VERTEX
  5
317
  8
0
  6
CONTINUOUS
 10
2.0867716351687058
 20
10.566722182266879
 30
0.0
  0
VERTEX
  5
318
  8
0
  6
CONTINUOUS
 10
2.032415917092381
 20
10.53315826891922
 30
0.0
  0
VERTEX
  5
319
  8
0
  6
CONTINUOUS
 10
2.017762645188383
 20
10.46781259691495
 30
0.0
  0
VERTEX
  5
31A
  8
0
  6
CONTINUOUS
 10
2.2572644339436438
 20
7.8394314534316063
 30
0.0
  0
VERTEX
  5
31B
  8
0
  6
CONTINUOUS
 10
2.4284502928761849
 20
5.2062978974390237
 30
0.0
  0
VERTEX
  5
31C
  8
0
  6
CONTINUOUS
 10
2.531221213392099
 20
2.569501023470274
 30
0.0
  0
VERTEX
  5
31D
  8
0
  6
CONTINUOUS
 10
2.5654781868973942
 20
-0.0694740395651645
 30
0.0
  0
VERTEX
  5
31E
  8
0
  6
CONTINUOUS
 10
2.428450292876184
 20
-5.3452459765692399
 30
0.0
  0
VERTEX
  5
31F
  8
0
  6
CONTINUOUS
 10
2.257264433943643
 20
-7.9784785411558703
 30
0.0
  0
VERTEX
  5
320
  8
0
  6
CONTINUOUS
 10
2.0177626451883821
 20
-10.60676067604528
 30
0.0
  0
VERTEX
  5
321
  8
0
  6
CONTINUOUS
 10
2.032415917092381
 20
-10.672205356643479
 30
0.0
  0
SEQEND
  5
322
  8
0
  6
CONTINUOUS
  0
POLYLINE
  5
3B
  8
0
  6
CONTINUOUS
 66
     1
 10
0.0
 20
0.0
 30
0.0
 70
     1
  0
VERTEX
  5
323
  8
0
  6
CONTINUOUS
 10
4.8626755836314457
 20
-12.91158173451311
 30
0.0
  0
VERTEX
  5
324
  8
0
  6
CONTINUOUS
 10
4.8096069772764212
 20
-12.95811577366765
 30
0.0
  0
VERTEX
  5
325
  8
0
  6
CONTINUOUS
 10
4.6278271987916222
 20
-15.04878124343049
 30
0.0
  0
VERTEX
  5
326
  8
0
  6
CONTINUOUS
 10
4.6696088254368426
 20
-15.10026571228236
 30
0.0
  0
VERTEX
  5
327
  8
0
  6
CONTINUOUS
 10
4.8169336132284188
 20
-15.131849453751091
 30
0.0
  0
VERTEX
  5
328
  8
0
  6
CONTINUOUS
 10
5.2490071172085511
 20
-15.166502461632151
 30
0.0
  0
VERTEX
  5
329
  8
0
  6
CONTINUOUS
 10
5.3012836548120097
 20
-15.121651568574739
 30
0.0
  0
VERTEX
  5
32A
  8
0
  6
CONTINUOUS
 10
5.5071225216256723
 20
-13.0250455831751
 30
0.0
  0
VERTEX
  5
32B
  8
0
  6
CONTINUOUS
 10
5.4658359379502111
 20
-12.971778959632291
 30
0.0
  0
SEQEND
  5
32C
  8
0
  6
CONTINUOUS
  0
POLYLINE
  5
3C
  8
0
  6
CONTINUOUS
 66
     1
 10
0.0
 20
0.0
 30
0.0
  0
VERTEX
  5
32D
  8
0
  6
CONTINUOUS
 10
2.4698358851456081
 20
-16.447772675886799
 30
0.0
  0
VERTEX
  5
32E
  8
0
  6
CONTINUOUS
 10
2.5418151329443268
 20
-16.458366595438999
 30
0.0
  0
VERTEX
  5
32F
  8
0
  6
CONTINUOUS
 10
2.646368208151245
 20
-16.4697525837428
 30
0.0
  0
VERTEX
  5
330
  8
0
  6
CONTINUOUS
 10
2.8510189718375432
 20
-16.499950204896319
 30
0.0
  0
VERTEX
  5
331
  8
0
  6
CONTINUOUS
 10
3.044283747220045
 20
-16.520940026812859
 30
0.0
  0
VERTEX
  5
332
  8
0
  6
CONTINUOUS
 10
3.3506163368888
 20
-16.56598893705825
 30
0.0
  0
VERTEX
  5
333
  8
0
  6
CONTINUOUS
 10
3.6030882514509912
 20
-16.593513326175191
 30
0.0
  0
VERTEX
  5
334
  8
0
  6
CONTINUOUS
 10
3.9724893154633598
 20
-16.64777003565758
 30
0.0
  0
VERTEX
  5
335
  8
0
  6
CONTINUOUS
 10
4.2377333386445821
 20
-16.67648252790196
 30
0.0
  0
VERTEX
  5
336
  8
0
  6
CONTINUOUS
 10
4.3914936850426267
 20
-16.70905635531016
 30
0.0
  0
VERTEX
  5
337
  8
0
  6
CONTINUOUS
 10
4.8015872811667899
 20
-16.75103599914334
 30
0.0
  0
VERTEX
  5
338
  8
0
  6
CONTINUOUS
 10
5.1527707638930691
 20
-16.801530382055731
 30
0.0
  0
VERTEX
  5
339
  8
0
  6
CONTINUOUS
 10
5.3511839861607973
 20
-16.823312272723751
 30
0.0
  0
VERTEX
  5
33A
  8
0
  6
CONTINUOUS
 10
5.555933758441002
 20
-16.853410885283338
 30
0.0
  0
VERTEX
  5
33B
  8
0
  6
CONTINUOUS
 10
5.6608828680237169
 20
-16.86152958998694
 30
0.0
  0
VERTEX
  5
33C
  8
0
  6
CONTINUOUS
 10
5.7323670728527043
 20
-16.875390793139339
 30
0.0
  0
SEQEND
  5
33D
  8
0
  6
CONTINUOUS
  0
POLYLINE
  5
3D
  8
0
  6
CONTINUOUS
 66
     1
 10
0.0
 20
0.0
 30
0.0
  0
VERTEX
  5
33E
  8
0
  6
CONTINUOUS
 10
5.8625633738916481
 20
-16.843213000106989
 30
0.0
  0
VERTEX
  5
33F
  8
0
  6
CONTINUOUS
 10
5.7323670728527043
 20
-16.875390793139339
 30
0.0
  0
VERTEX
  5
340
  8
0
  6
CONTINUOUS
 10
4.8980216516701418
 20
-16.886380747067388
 30
0.0
  0
VERTEX
  5
341
  8
0
  6
CONTINUOUS
 10
4.6092135831297902
 20
-16.849648558713461
 30
0.0
  0
VERTEX
  5
342
  8
0
  6
CONTINUOUS
 10
4.2297136425349509
 20
-16.803510553934672
 30
0.0
  0
VERTEX
  5
343
  8
0
  6
CONTINUOUS
 10
4.0209045179029488
 20
-16.77301590699922
 30
0.0
  0
VERTEX
  5
344
  8
0
  6
CONTINUOUS
 10
3.710908610258167
 20
-16.73222436629349
 30
0.0
  0
VERTEX
  5
345
  8
0
  6
CONTINUOUS
 10
3.2720035132957408
 20
-16.6733142528957
 30
0.0
  0
VERTEX
  5
346
  8
0
  6
CONTINUOUS
 10
2.4698358851456081
 20
-16.447772675886799
 30
0.0
  0
VERTEX
  5
347
  8
0
  6
CONTINUOUS
 10
2.3525107013196589
 20
-16.38321907263402
 30
0.0
  0
SEQEND
  5
348
  8
0
  6
CONTINUOUS
  0
INSERT
  5
3E
  8
0
  6
CONTINUOUS
  2
A$C119E43F4
 10
5.5807677404616101
 20
-16.715749820393128
 30
0.0
 41
0.1161364109229304
 42
0.1161364109229304
 43
0.1161364109229304
 50
90.0
  0
POLYLINE
  5
3F
  8
0
  6
CONTINUOUS
 66
     1
 10
0.0
 20
0.0
 30
0.0
 70
     1
  0
VERTEX
  5
349
  8
0
  6
CONTINUOUS
 10
7.035419177775422
 20
-11.4121955877955
 30
0.0
  0
VERTEX
  5
34A
  8
0
  6
CONTINUOUS
 10
6.7621554584845702
 20
-13.086034877045879
 30
0.0
  0
VERTEX
  5
34B
  8
0
  6
CONTINUOUS
 10
6.3727546584951327
 20
-15.366400812809109
 30
0.0
  0
VERTEX
  5
34C
  8
0
  6
CONTINUOUS
 10
6.1242430876908038
 20
-16.882420403309531
 30
0.0
  0
VERTEX
  5
34D
  8
0
  6
CONTINUOUS
 10
2.089939910174972
 20
-16.353714511638149
 30
0.0
  0
VERTEX
  5
34E
  8
0
  6
CONTINUOUS
 10
2.1336027001051319
 20
-14.743042705325349
 30
0.0
  0
VERTEX
  5
34F
  8
0
  6
CONTINUOUS
 10
1.9850898091862199
 20
-12.384162954562999
 30
0.0
  0
VERTEX
  5
350
  8
0
  6
CONTINUOUS
 10
2.0306337624013482
 20
-10.75626365290355
 30
0.0
  0
VERTEX
  5
351
  8
0
  6
CONTINUOUS
 10
2.3012242496556379
 20
-10.789926574845261
 30
0.0
  0
VERTEX
  5
352
  8
0
  6
CONTINUOUS
 10
2.6153785182461529
 20
-10.836163588217991
 30
0.0
  0
VERTEX
  5
353
  8
0
  6
CONTINUOUS
 10
2.9117112399264018
 20
-10.86844038984438
 30
0.0
  0
VERTEX
  5
354
  8
0
  6
CONTINUOUS
 10
3.3818040439817918
 20
-10.937647397012579
 30
0.0
  0
VERTEX
  5
355
  8
0
  6
CONTINUOUS
 10
3.7690266549044269
 20
-10.97982505803351
 30
0.0
  0
VERTEX
  5
356
  8
0
  6
CONTINUOUS
 10
4.3234747810017691
 20
-11.06140813944508
 30
0.0
  0
VERTEX
  5
357
  8
0
  6
CONTINUOUS
 10
4.7425781591750003
 20
-11.10705110125409
 30
0.0
  0
VERTEX
  5
358
  8
0
  6
CONTINUOUS
 10
5.0257427378604209
 20
-11.15338712322086
 30
0.0
  0
VERTEX
  5
359
  8
0
  6
CONTINUOUS
 10
5.6842488961949771
 20
-11.23081184368659
 30
0.0
  0
VERTEX
  5
35A
  8
0
  6
CONTINUOUS
 10
6.1543417002503666
 20
-11.29991984226085
 30
0.0
  0
VERTEX
  5
35B
  8
0
  6
CONTINUOUS
 10
6.4506744219306169
 20
-11.33229565248117
 30
0.0
  0
VERTEX
  5
35C
  8
0
  6
CONTINUOUS
 10
6.7647296819271681
 20
-11.37843365725997
 30
0.0
  0
VERTEX
  5
35D
  8
0
  6
CONTINUOUS
 10
6.9251236041196096
 20
-11.39595817838843
 30
0.0
  0
SEQEND
  5
35E
  8
0
  6
CONTINUOUS
  0
POLYLINE
  5
40
  8
0
  6
CONTINUOUS
 66
     1
 10
0.0
 20
0.0
 30
0.0
 70
     1
  0
VERTEX
  5
35F
  8
0
  6
CONTINUOUS
 10
-3.285335663744843
 20
-10.502306609432191
 30
0.0
  0
VERTEX
  5
360
  8
0
  6
CONTINUOUS
 10
-3.285335663744843
 20
-4.6366414696980831
 30
0.0
  0
VERTEX
  5
361
  8
0
  6
CONTINUOUS
 10
-3.036329049970782
 20
-4.6366414696980831
 30
0.0
  0
VERTEX
  5
362
  8
0
  6
CONTINUOUS
 10
-2.9471223068254648
 20
-4.6658490049121442
 30
0.0
  0
VERTEX
  5
363
  8
0
  6
CONTINUOUS
 10
-2.2041618178550211
 20
-5.1370309035009338
 30
0.0
  0
VERTEX
  5
364
  8
0
  6
CONTINUOUS
 10
-1.6441692104967109
 20
-5.3390084351506424
 30
0.0
  0
VERTEX
  5
365
  8
0
  6
CONTINUOUS
 10
-0.8237840010605158
 20
-5.5146496808108623
 30
0.0
  0
VERTEX
  5
366
  8
0
  6
CONTINUOUS
 10
-0.1972576185705184
 20
-5.5811834559424653
 30
0.0
  0
VERTEX
  5
367
  8
0
  6
CONTINUOUS
 10
-0.1479513387854275
 20
-5.6309847786973171
 30
0.0
  0
VERTEX
  5
368
  8
0
  6
CONTINUOUS
 10
-0.1479513387854277
 20
-9.5080623090270038
 30
0.0
  0
VERTEX
  5
369
  8
0
  6
CONTINUOUS
 10
-0.1972576185705186
 20
-9.5577646231878077
 30
0.0
  0
VERTEX
  5
36A
  8
0
  6
CONTINUOUS
 10
-0.8237840010605161
 20
-9.6242983983195245
 30
0.0
  0
VERTEX
  5
36B
  8
0
  6
CONTINUOUS
 10
-1.6441692104967109
 20
-9.7999396439796307
 30
0.0
  0
VERTEX
  5
36C
  8
0
  6
CONTINUOUS
 10
-2.2041618178550211
 20
-10.001917175629339
 30
0.0
  0
VERTEX
  5
36D
  8
0
  6
CONTINUOUS
 10
-2.9471223068254648
 20
-10.47309907421813
 30
0.0
  0
VERTEX
  5
36E
  8
0
  6
CONTINUOUS
 10
-3.036329049970782
 20
-10.502306609432191
 30
0.0
  0
SEQEND
  5
36F
  8
0
  6
CONTINUOUS
  0
POLYLINE
  5
41
  8
0
  6
CONTINUOUS
 66
     1
 10
0.0
 20
0.0
 30
0.0
  0
VERTEX
  5
370
  8
0
  6
CONTINUOUS
 10
4.9610901260137013
 20
-12.928017161108169
 30
0.0
  0
VERTEX
  5
371
  8
0
  6
CONTINUOUS
 10
4.9080215196586749
 20
-12.974650208856641
 30
0.0
  0
VERTEX
  5
372
  8
0
  6
CONTINUOUS
 10
4.7748549608013651
 20
-15.080364984899219
 30
0.0
  0
VERTEX
  5
373
  8
0
  6
CONTINUOUS
 10
4.8169336132284188
 20
-15.131849453751091
 30
0.0
  0
SEQEND
  5
374
  8
0
  6
CONTINUOUS
  0
POLYLINE
  5
42
  8
0
  6
CONTINUOUS
 66
     1
 10
0.0
 20
0.0
 30
0.0
 70
     1
  0
VERTEX
  5
375
  8
0
  6
CONTINUOUS
 10
-0.1454761239367912
 20
9.1799088068659689
 30
0.0
  0
VERTEX
  5
376
  8
0
  6
CONTINUOUS
 10
1.4888587363291019
 20
9.1868394084421148
 30
0.0
  0
VERTEX
  5
377
  8
0
  6
CONTINUOUS
 10
1.5590558294367609
 20
9.1572358388523121
 30
0.0
  0
VERTEX
  5
378
  8
0
  6
CONTINUOUS
 10
1.588164356056887
 20
9.0857516340232696
 30
0.0
  0
VERTEX
  5
379
  8
0
  6
CONTINUOUS
 10
1.588164356056887
 20
5.7698548141793422
 30
0.0
  0
VERTEX
  5
37A
  8
0
  6
CONTINUOUS
 10
1.5590558294367609
 20
5.6983706093504107
 30
0.0
  0
VERTEX
  5
37B
  8
0
  6
CONTINUOUS
 10
1.4888587363291019
 20
5.668767039760497
 30
0.0
  0
VERTEX
  5
37C
  8
0
  6
CONTINUOUS
 10
-0.1454761239367914
 20
5.6602523006811616
 30
0.0
  0
SEQEND
  5
37D
  8
0
  6
CONTINUOUS
  0
POLYLINE
  5
43
  8
0
  6
CONTINUOUS
 66
     1
 10
0.0
 20
0.0
 30
0.0
  0
VERTEX
  5
37E
  8
0
  6
CONTINUOUS
 10
1.4888587363291019
 20
9.1868394084421148
 30
0.0
  0
VERTEX
  5
37F
  8
0
  6
CONTINUOUS
 10
1.4888587363291019
 20
5.668767039760497
 30
0.0
  0
SEQEND
  5
380
  8
0
  6
CONTINUOUS
  0
POLYLINE
  5
44
  8
0
  6
CONTINUOUS
 66
     1
 10
0.0
 20
0.0
 30
0.0
  0
VERTEX
  5
381
  8
0
  6
CONTINUOUS
 10
2.39838527757037
 20
5.668767039760497
 30
0.0
  0
VERTEX
  5
382
  8
0
  6
CONTINUOUS
 10
1.6874699757846721
 20
5.668767039760497
 30
0.0
  0
VERTEX
  5
383
  8
0
  6
CONTINUOUS
 10
1.6172728826769851
 20
5.6983706093504107
 30
0.0
  0
VERTEX
  5
384
  8
0
  6
CONTINUOUS
 10
1.588164356056887
 20
5.7698548141793422
 30
0.0
  0
VERTEX
  5
385
  8
0
  6
CONTINUOUS
 10
1.588164356056887
 20
9.0857516340232696
 30
0.0
  0
VERTEX
  5
386
  8
0
  6
CONTINUOUS
 10
1.6172728826769851
 20
9.1572358388523121
 30
0.0
  0
VERTEX
  5
387
  8
0
  6
CONTINUOUS
 10
1.6874699757846721
 20
9.1868394084421148
 30
0.0
  0
VERTEX
  5
388
  8
0
  6
CONTINUOUS
 10
2.134491121904841
 20
9.1868394084421148
 30
0.0
  0
SEQEND
  5
389
  8
0
  6
CONTINUOUS
  0
POLYLINE
  5
45
  8
0
  6
CONTINUOUS
 66
     1
 10
0.0
 20
0.0
 30
0.0
  0
VERTEX
  5
38A
  8
0
  6
CONTINUOUS
 10
2.3983852775703691
 20
-5.8077151188908251
 30
0.0
  0
VERTEX
  5
38B
  8
0
  6
CONTINUOUS
 10
1.687469975784671
 20
-5.8077151188908251
 30
0.0
  0
VERTEX
  5
38C
  8
0
  6
CONTINUOUS
 10
1.617272882676984
 20
-5.8373186884807389
 30
0.0
  0
VERTEX
  5
38D
  8
0
  6
CONTINUOUS
 10
1.5881643560568861
 20
-5.9088028933096703
 30
0.0
  0
VERTEX
  5
38E
  8
0
  6
CONTINUOUS
 10
1.5881643560568861
 20
-9.2246997131535995
 30
0.0
  0
VERTEX
  5
38F
  8
0
  6
CONTINUOUS
 10
1.617272882676984
 20
-9.2961839179826402
 30
0.0
  0
VERTEX
  5
390
  8
0
  6
CONTINUOUS
 10
1.687469975784671
 20
-9.3257874875724447
 30
0.0
  0
VERTEX
  5
391
  8
0
  6
CONTINUOUS
 10
2.1344911219048401
 20
-9.3257874875724447
 30
0.0
  0
SEQEND
  5
392
  8
0
  6
CONTINUOUS
  0
POLYLINE
  5
46
  8
0
  6
CONTINUOUS
 66
     1
 10
0.0
 20
0.0
 30
0.0
  0
VERTEX
  5
393
  8
0
  6
CONTINUOUS
 10
1.488858736329101
 20
-9.3257874875724447
 30
0.0
  0
VERTEX
  5
394
  8
0
  6
CONTINUOUS
 10
1.488858736329101
 20
-5.8077151188908251
 30
0.0
  0
SEQEND
  5
395
  8
0
  6
CONTINUOUS
  0
POLYLINE
  5
47
  8
0
  6
CONTINUOUS
 66
     1
 10
0.0
 20
0.0
 30
0.0
 70
     1
  0
VERTEX
  5
396
  8
0
  6
CONTINUOUS
 10
-0.1454761239367923
 20
-9.3188568859961851
 30
0.0
  0
VERTEX
  5
397
  8
0
  6
CONTINUOUS
 10
1.488858736329101
 20
-9.3257874875724447
 30
0.0
  0
VERTEX
  5
398
  8
0
  6
CONTINUOUS
 10
1.55905582943676
 20
-9.2961839179826402
 30
0.0
  0
VERTEX
  5
399
  8
0
  6
CONTINUOUS
 10
1.5881643560568861
 20
-9.2246997131535995
 30
0.0
  0
VERTEX
  5
39A
  8
0
  6
CONTINUOUS
 10
1.5881643560568861
 20
-5.9088028933096703
 30
0.0
  0
VERTEX
  5
39B
  8
0
  6
CONTINUOUS
 10
1.55905582943676
 20
-5.8373186884807389
 30
0.0
  0
VERTEX
  5
39C
  8
0
  6
CONTINUOUS
 10
1.488858736329101
 20
-5.8077151188908251
 30
0.0
  0
VERTEX
  5
39D
  8
0
  6
CONTINUOUS
 10
-0.1454761239367921
 20
-5.7992003798114897
 30
0.0
  0
SEQEND
  5
39E
  8
0
  6
CONTINUOUS
  0
POLYLINE
  5
48
  8
0
  6
CONTINUOUS
 66
     1
 10
0.0
 20
0.0
 30
0.0
 70
     1
  0
VERTEX
  5
39F
  8
0
  6
CONTINUOUS
 10
-3.2853356637448421
 20
10.363358530301969
 30
0.0
  0
VERTEX
  5
3A0
  8
0
  6
CONTINUOUS
 10
-3.2853356637448421
 20
4.4976933905677541
 30
0.0
  0
VERTEX
  5
3A1
  8
0
  6
CONTINUOUS
 10
-3.0363290499707811
 20
4.4976933905677541
 30
0.0
  0
VERTEX
  5
3A2
  8
0
  6
CONTINUOUS
 10
-2.9471223068254639
 20
4.526900925781816
 30
0.0
  0
VERTEX
  5
3A3
  8
0
  6
CONTINUOUS
 10
-2.2041618178550202
 20
4.9980828243706057
 30
0.0
  0
VERTEX
  5
3A4
  8
0
  6
CONTINUOUS
 10
-1.6441692104967101
 20
5.2000603560204262
 30
0.0
  0
VERTEX
  5
3A5
  8
0
  6
CONTINUOUS
 10
-0.8237840010605152
 20
5.3757016016805341
 30
0.0
  0
VERTEX
  5
3A6
  8
0
  6
CONTINUOUS
 10
-0.1972576185705177
 20
5.44223537681225
 30
0.0
  0
VERTEX
  5
3A7
  8
0
  6
CONTINUOUS
 10
-0.1479513387854268
 20
5.492036699566988
 30
0.0
  0
VERTEX
  5
3A8
  8
0
  6
CONTINUOUS
 10
-0.1479513387854266
 20
9.3691142298966739
 30
0.0
  0
VERTEX
  5
3A9
  8
0
  6
CONTINUOUS
 10
-0.1972576185705175
 20
9.4188165440574778
 30
0.0
  0
VERTEX
  5
3AA
  8
0
  6
CONTINUOUS
 10
-0.8237840010605149
 20
9.4853503191891946
 30
0.0
  0
VERTEX
  5
3AB
  8
0
  6
CONTINUOUS
 10
-1.6441692104967101
 20
9.6609915648493008
 30
0.0
  0
VERTEX
  5
3AC
  8
0
  6
CONTINUOUS
 10
-2.2041618178550202
 20
9.8629690964991212
 30
0.0
  0
VERTEX
  5
3AD
  8
0
  6
CONTINUOUS
 10
-2.9471223068254639
 20
10.33415099508791
 30
0.0
  0
VERTEX
  5
3AE
  8
0
  6
CONTINUOUS
 10
-3.0363290499707811
 20
10.363358530301969
 30
0.0
  0
SEQEND
  5
3AF
  8
0
  6
CONTINUOUS
  0
POLYLINE
  5
49
  8
0
  6
CONTINUOUS
 66
     1
 10
0.0
 20
0.0
 30
0.0
  0
VERTEX
  5
3B0
  8
0
  6
CONTINUOUS
 10
5.8625633738916489
 20
16.704264920976659
 30
0.0
  0
VERTEX
  5
3B1
  8
0
  6
CONTINUOUS
 10
5.7323670728527061
 20
16.736442714009058
 30
0.0
  0
VERTEX
  5
3B2
  8
0
  6
CONTINUOUS
 10
4.8980216516701436
 20
16.747432667937058
 30
0.0
  0
VERTEX
  5
3B3
  8
0
  6
CONTINUOUS
 10
4.609213583129792
 20
16.710700479583132
 30
0.0
  0
VERTEX
  5
3B4
  8
0
  6
CONTINUOUS
 10
4.2297136425349526
 20
16.664562474804342
 30
0.0
  0
VERTEX
  5
3B5
  8
0
  6
CONTINUOUS
 10
4.0209045179029506
 20
16.63406782786895
 30
0.0
  0
VERTEX
  5
3B6
  8
0
  6
CONTINUOUS
 10
3.7109086102581692
 20
16.593276287163221
 30
0.0
  0
VERTEX
  5
3B7
  8
0
  6
CONTINUOUS
 10
3.272003513295743
 20
16.53436617376537
 30
0.0
  0
VERTEX
  5
3B8
  8
0
  6
CONTINUOUS
 10
2.469835885145609
 20
16.308824596756519
 30
0.0
  0
VERTEX
  5
3B9
  8
0
  6
CONTINUOUS
 10
2.3525107013196611
 20
16.24427099350374
 30
0.0
  0
SEQEND
  5
3BA
  8
0
  6
CONTINUOUS
  0
POLYLINE
  5
4A
  8
0
  6
CONTINUOUS
 66
     1
 10
0.0
 20
0.0
 30
0.0
  0
VERTEX
  5
3BB
  8
0
  6
CONTINUOUS
 10
2.469835885145609
 20
16.308824596756519
 30
0.0
  0
VERTEX
  5
3BC
  8
0
  6
CONTINUOUS
 10
2.541815132944329
 20
16.31941851630873
 30
0.0
  0
VERTEX
  5
3BD
  8
0
  6
CONTINUOUS
 10
2.6463682081512472
 20
16.33080450461253
 30
0.0
  0
VERTEX
  5
3BE
  8
0
  6
CONTINUOUS
 10
2.8510189718375449
 20
16.361002125765989
 30
0.0
  0
VERTEX
  5
3BF
  8
0
  6
CONTINUOUS
 10
3.0442837472200468
 20
16.381991947682579
 30
0.0
  0
VERTEX
  5
3C0
  8
0
  6
CONTINUOUS
 10
3.3506163368888018
 20
16.427040857927981
 30
0.0
  0
VERTEX
  5
3C1
  8
0
  6
CONTINUOUS
 10
3.6030882514509921
 20
16.454565247044972
 30
0.0
  0
VERTEX
  5
3C2
  8
0
  6
CONTINUOUS
 10
3.972489315463362
 20
16.50882195652736
 30
0.0
  0
VERTEX
  5
3C3
  8
0
  6
CONTINUOUS
 10
4.237733338644583
 20
16.53753444877163
 30
0.0
  0
VERTEX
  5
3C4
  8
0
  6
CONTINUOUS
 10
4.3914936850426294
 20
16.570108276179891
 30
0.0
  0
VERTEX
  5
3C5
  8
0
  6
CONTINUOUS
 10
4.8015872811667908
 20
16.61208792001295
 30
0.0
  0
VERTEX
  5
3C6
  8
0
  6
CONTINUOUS
 10
5.1527707638930709
 20
16.662582302925401
 30
0.0
  0
VERTEX
  5
3C7
  8
0
  6
CONTINUOUS
 10
5.351183986160799
 20
16.684364193593531
 30
0.0
  0
VERTEX
  5
3C8
  8
0
  6
CONTINUOUS
 10
5.5559337584410038
 20
16.714462806153069
 30
0.0
  0
VERTEX
  5
3C9
  8
0
  6
CONTINUOUS
 10
5.6608828680237187
 20
16.72258151085666
 30
0.0
  0
VERTEX
  5
3CA
  8
0
  6
CONTINUOUS
 10
5.7323670728527061
 20
16.736442714009058
 30
0.0
  0
SEQEND
  5
3CB
  8
0
  6
CONTINUOUS
  0
DIMENSION
  5
B1
  8
COTATION-JACOBDELAFON
  2
*D2
 10
-14.40954144756846
 20
7.430525960434867
 30
0.0
 11
-16.84126041073354
 21
-0.0694740395651354
 31
0.0
 70
     0
 13
-3.2853356637448452
 23
-7.5694740395651356
 33
0.0
 14
-3.2853356637448421
 24
7.4305259604348626
 34
0.0
 50
90.0
  0
INSERT
  5
158
 67
     1
  8
0
  6
CONTINUOUS
  2
ADCADD_ZZ
 10
0.0
 20
0.0
 30
0.0
1001
ADCADD_ZZ
1070
   205
1070
    14
1070
   209
1070
     1
1070
   231
1070
     0
1070
   235
1070
     0
1070
   236
1070
     4
1070
   237
1070
     2
1070
   238
1070
     4
1070
   239
1070
     2
1070
   240
1070
     0
1070
   241
1070
  4096
1070
   242
1070
     2
1070
   244
1070
     0
1070
   245
1070
     1
1070
   303
1040
0.1
1070
   304
1040
4.0
1070
   305
1040
1.0
1070
   306
1040
1.0
1070
   337
1040
0.0
1070
   338
1040
0.3048
1070
   339
1040
0.0625
1070
   340
1040
96.0
1070
   341
1040
4.0
1070
   342
1040
1.0
1070
   530
1010
0.0
1020
0.0
1030
0.0
1070
   531
1010
0.0
1020
0.0
1030
0.0
1070
   107
1000

1070
   108
1000
Architectural Desktop
1070
   135
1000
L120
1070
   136
1000
'
1070
   137
1000
m
1001
SDSK_PMN
1070
   100
1000
ACADARCH
1070
   300
1040
2453077.6580909141
  0
ENDSEC
  0
EOF
