  0
SECTION
  2
HEADER
  9
$ACADVER
  1
AC1009
  9
$INSBASE
 10
0.0
 20
0.0
 30
0.0
  9
$EXTMIN
 10
-16.952724088846729
 20
-3.9117923490478899
 30
0.0
  9
$EXTMAX
 10
16.83191697808882
 20
14.337608065612329
 30
0.0
  9
$LIMMIN
 10
0.0
 20
0.0
  9
$LIMMAX
 10
12.0
 20
9.0
  9
$ORTHOMODE
 70
     1
  9
$REGENMODE
 70
     1
  9
$FILLMODE
 70
     1
  9
$QTEXTMODE
 70
     0
  9
$MIRRTEXT
 70
     1
  9
$DRAGMODE
 70
     2
  9
$LTSCALE
 40
1.0
  9
$OSMODE
 70
     1
  9
$ATTMODE
 70
     1
  9
$TEXTSIZE
 40
0.2
  9
$TRACEWID
 40
0.05
  9
$TEXTSTYLE
  7
STANDARD
  9
$CLAYER
  8
0
  9
$CELTYPE
  6
CONTINUOUS
  9
$CECOLOR
 62
   256
  9
$DIMSCALE
 40
1.0
  9
$DIMASZ
 40
0.18
  9
$DIMEXO
 40
0.0625
  9
$DIMDLI
 40
0.38
  9
$DIMRND
 40
0.0
  9
$DIMDLE
 40
0.0
  9
$DIMEXE
 40
0.18
  9
$DIMTP
 40
0.0
  9
$DIMTM
 40
0.0
  9
$DIMTXT
 40
0.18
  9
$DIMCEN
 40
0.09
  9
$DIMTSZ
 40
0.0
  9
$DIMTOL
 70
     0
  9
$DIMLIM
 70
     0
  9
$DIMTIH
 70
     1
  9
$DIMTOH
 70
     1
  9
$DIMSE1
 70
     0
  9
$DIMSE2
 70
     0
  9
$DIMTAD
 70
     0
  9
$DIMZIN
 70
     0
  9
$DIMBLK
  1

  9
$DIMASO
 70
     1
  9
$DIMSHO
 70
     1
  9
$DIMPOST
  1

  9
$DIMAPOST
  1

  9
$DIMALT
 70
     0
  9
$DIMALTD
 70
     2
  9
$DIMALTF
 40
25.399999999999999
  9
$DIMLFAC
 40
1.0
  9
$DIMTOFL
 70
     0
  9
$DIMTVP
 40
0.0
  9
$DIMTIX
 70
     0
  9
$DIMSOXD
 70
     0
  9
$DIMSAH
 70
     0
  9
$DIMBLK1
  1

  9
$DIMBLK2
  1

  9
$DIMSTYLE
  2
STANDARD
  9
$DIMCLRD
 70
     0
  9
$DIMCLRE
 70
     0
  9
$DIMCLRT
 70
     0
  9
$DIMTFAC
 40
1.0
  9
$DIMGAP
 40
0.09
  9
$LUNITS
 70
     2
  9
$LUPREC
 70
     4
  9
$SKETCHINC
 40
0.1
  9
$FILLETRAD
 40
0.0
  9
$AUNITS
 70
     0
  9
$AUPREC
 70
     2
  9
$MENU
  1
.
  9
$ELEVATION
 40
0.0
  9
$PELEVATION
 40
0.0
  9
$THICKNESS
 40
0.0
  9
$LIMCHECK
 70
     0
  9
$BLIPMODE
 70
     0
  9
$CHAMFERA
 40
0.0
  9
$CHAMFERB
 40
0.0
  9
$SKPOLY
 70
     0
  9
$TDCREATE
 40
2453045.601786851
  9
$TDUPDATE
 40
2453077.6582879391
  9
$TDINDWG
 40
0.1567172222
  9
$TDUSRTIMER
 40
0.1567172222
  9
$USRTIMER
 70
     1
  9
$ANGBASE
 50
0.0
  9
$ANGDIR
 70
     0
  9
$PDMODE
 70
     0
  9
$PDSIZE
 40
0.0
  9
$PLINEWID
 40
0.0
  9
$COORDS
 70
     1
  9
$SPLFRAME
 70
     0
  9
$SPLINETYPE
 70
     6
  9
$SPLINESEGS
 70
     8
  9
$ATTDIA
 70
     1
  9
$ATTREQ
 70
     1
  9
$HANDLING
 70
 22529
  9
$HANDSEED
  5
3FC
  9
$SURFTAB1
 70
     6
  9
$SURFTAB2
 70
     6
  9
$SURFTYPE
 70
     6
  9
$SURFU
 70
     6
  9
$SURFV
 70
     6
  9
$UCSNAME
  2

  9
$UCSORG
 10
0.0
 20
0.0
 30
0.0
  9
$UCSXDIR
 10
1.0
 20
0.0
 30
0.0
  9
$UCSYDIR
 10
0.0
 20
1.0
 30
0.0
  9
$PUCSNAME
  2

  9
$PUCSORG
 10
0.0
 20
0.0
 30
0.0
  9
$PUCSXDIR
 10
1.0
 20
0.0
 30
0.0
  9
$PUCSYDIR
 10
0.0
 20
1.0
 30
0.0
  9
$USERI1
 70
     0
  9
$USERI2
 70
     0
  9
$USERI3
 70
     0
  9
$USERI4
 70
     0
  9
$USERI5
 70
     0
  9
$USERR1
 40
0.0
  9
$USERR2
 40
0.0
  9
$USERR3
 40
0.0
  9
$USERR4
 40
0.0
  9
$USERR5
 40
0.0
  9
$WORLDVIEW
 70
     1
  9
$SHADEDGE
 70
     3
  9
$SHADEDIF
 70
    70
  9
$TILEMODE
 70
     1
  9
$MAXACTVP
 70
    64
  9
$PLIMCHECK
 70
     0
  9
$PEXTMIN
 10
-560.41432337266713
 20
-221.02247567658731
 30
0.0
  9
$PEXTMAX
 10
605.98165318579765
 20
209.58722915671501
 30
0.0
  9
$PLIMMIN
 10
-0.1979161059762549
 20
-0.2679166643638311
  9
$PLIMMAX
 10
11.493750144177531
 20
7.9987497780266699
  9
$UNITMODE
 70
     0
  9
$VISRETAIN
 70
     1
  9
$PLINEGEN
 70
     0
  9
$PSLTSCALE
 70
     1
  0
ENDSEC
  0
SECTION
  2
TABLES
  0
TABLE
  2
VPORT
 70
     2
  0
VPORT
  2
*ACTIVE
 70
     0
 10
0.0
 20
0.0
 11
1.0
 21
1.0
 12
1.153326520864244
 22
3.8146796303429178
 13
0.0
 23
0.0
 14
1.0
 24
1.0
 15
0.0
 25
0.0
 16
0.0
 26
0.0
 36
1.0
 17
0.1687951338768018
 27
1.398024822843315
 37
0.1747608202959771
 40
19.070515228365519
 41
1.928853754940711
 42
50.0
 43
0.0
 44
0.0
 50
0.0
 51
0.0
 71
     0
 72
   100
 73
     1
 74
     1
 75
     0
 76
     0
 77
     0
 78
     0
  0
ENDTAB
  0
TABLE
  2
LTYPE
 70
     1
  0
LTYPE
  2
CONTINUOUS
 70
     0
  3
Solid line
 72
    65
 73
     0
 40
0.0
  0
ENDTAB
  0
TABLE
  2
LAYER
 70
     3
  0
LAYER
  2
0
 70
     0
 62
     7
  6
CONTINUOUS
  0
LAYER
  2
DEFPOINTS
 70
     0
 62
     7
  6
CONTINUOUS
  0
LAYER
  2
COTATION-JACOBDELAFON
 70
     0
 62
     8
  6
CONTINUOUS
  0
ENDTAB
  0
TABLE
  2
STYLE
 70
     2
  0
STYLE
  2
STANDARD
 70
     0
 40
0.0
 41
1.0
 50
0.0
 71
     0
 42
0.2
  3
txt
  4

  0
STYLE
  2
JACOB-DELAFON
 70
     0
 40
0.0
 41
1.0
 50
0.0
 71
     0
 42
2.5
  3
txt
  4

  0
ENDTAB
  0
TABLE
  2
VIEW
 70
     0
  0
ENDTAB
  0
TABLE
  2
UCS
 70
     0
  0
ENDTAB
  0
TABLE
  2
APPID
 70
     9
  0
APPID
  2
ACAD
 70
     0
  0
APPID
  2
ADCADD_ZZ
 70
     0
  0
APPID
  2
SDSK_PMN
 70
     0
  0
APPID
  2
ACAECLAYERSTANDARD
 70
     0
  0
APPID
  2
AECBASE
 70
     0
  0
APPID
  2
AEC_DWGVARSSETUP_DATA
 70
     0
  0
APPID
  2
AEC_DISPREPCONFIG_DATA
 70
     0
  0
APPID
  2
AEC_DISPREPSET_DATA
 70
     0
  0
APPID
  2
DCO15
 70
     0
  0
ENDTAB
  0
TABLE
  2
DIMSTYLE
 70
     2
  0
DIMSTYLE
  2
STANDARD
 70
     0
  3

  4

  5

  6

  7

 40
1.0
 41
0.18
 42
0.0625
 43
0.38
 44
0.18
 45
0.0
 46
0.0
 47
0.0
 48
0.0
140
0.18
141
0.09
142
0.0
143
25.399999999999999
144
1.0
145
0.0
146
1.0
147
0.09
 71
     0
 72
     0
 73
     1
 74
     1
 75
     0
 76
     0
 77
     0
 78
     0
170
     0
171
     2
172
     0
173
     0
174
     0
175
     0
176
     0
177
     0
178
     0
  0
DIMSTYLE
  2
COTATION-JACOB-DELAFON
 70
     0
  3

  4

  5
OBLIQUE
  6

  7

 40
1.0
 41
1.8
 42
0.625
 43
3.7999999999999989
 44
1.8
 45
0.0
 46
0.0
 47
0.0
 48
0.0
140
3.0
141
0.9
142
0.0
143
25.399999999999999
144
1.0
145
0.0
146
1.0
147
0.9
 71
     0
 72
     0
 73
     0
 74
     0
 75
     0
 76
     0
 77
     1
 78
    12
170
     0
171
     2
172
     0
173
     0
174
     0
175
     0
176
     0
177
     0
178
     0
  0
ENDTAB
  0
ENDSEC
  0
SECTION
  2
BLOCKS
  0
BLOCK
  8
0
  2
$MODEL_SPACE
 70
     0
 10
0.0
 20
0.0
 30
0.0
  3
$MODEL_SPACE
  1

  0
ENDBLK
  5
9
  8
0
  0
BLOCK
 67
     1
  8
0
  2
$PAPER_SPACE
 70
     0
 10
0.0
 20
0.0
 30
0.0
  3
$PAPER_SPACE
  1

  0
ENDBLK
  5
E
 67
     1
  8
0
  0
BLOCK
  8
0
  2
_OBLIQUE
 70
     0
 10
0.0
 20
0.0
 30
0.0
  3
_OBLIQUE
  1

  0
LINE
  5
19A
  8
0
  6
BYBLOCK
 62
     0
 10
-0.5
 20
-0.5
 30
0.0
 11
0.5
 21
0.5
 31
0.0
  0
ENDBLK
  5
19C
  8
0
  0
BLOCK
  8
0
  2
*D1
 70
     1
 10
0.0
 20
0.0
 30
0.0
  3
*D1
  1

  0
LINE
  5
208
  8
COTATION-JACOBDELAFON
 62
     0
 10
7.4048241066400351
 20
4.0718032861779081
 30
0.0
 11
7.404824106640036
 21
11.386312021956121
 31
0.0
  0
LINE
  5
209
  8
COTATION-JACOBDELAFON
 62
     0
 10
-7.595175893359964
 20
4.0718032861779081
 30
0.0
 11
-7.595175893359964
 21
11.386312021956121
 31
0.0
  0
LINE
  5
20A
  8
COTATION-JACOBDELAFON
 62
     0
 10
7.4048241066400351
 20
9.5863120219561235
 30
0.0
 11
-7.595175893359964
 21
9.5863120219561235
 31
0.0
  0
INSERT
  5
20B
  8
COTATION-JACOBDELAFON
 62
     0
  2
_OBLIQUE
 10
7.4048241066400351
 20
9.5863120219561235
 30
0.0
 41
1.8
 42
1.8
 43
1.8
  0
INSERT
  5
20C
  8
COTATION-JACOBDELAFON
 62
     0
  2
_OBLIQUE
 10
-7.595175893359964
 20
9.5863120219561235
 30
0.0
 41
1.8
 42
1.8
 43
1.8
 50
180.0
  0
TEXT
  5
20D
  8
0
  6
CONTINUOUS
 62
     0
 10
-2.57027821259598
 20
10.543610794125289
 30
0.0
 40
3.0
  1
15
  7
JACOB-DELAFON
  0
POINT
  5
20E
  8
DEFPOINTS
 62
     0
 10
7.4048241066400351
 20
3.4468032861779081
 30
0.0
  0
POINT
  5
20F
  8
DEFPOINTS
 62
     0
 10
-7.595175893359964
 20
3.4468032861779081
 30
0.0
  0
POINT
  5
210
  8
DEFPOINTS
 62
     0
 10
-7.595175893359964
 20
9.5863120219561235
 30
0.0
  0
ENDBLK
  5
1BF
  8
0
  0
BLOCK
  8
0
  2
ADCADD_ZZ
 70
     0
 10
0.0
 20
0.0
 30
0.0
  3
ADCADD_ZZ
  1

  0
ENDBLK
  5
22D
  8
0
  0
ENDSEC
  0
SECTION
  2
ENTITIES
  0
POLYLINE
  5
24
  8
0
  6
CONTINUOUS
 66
     1
 10
0.0
 20
0.0
 30
0.0
 70
     1
  0
VERTEX
  5
395
  8
0
  6
CONTINUOUS
 10
-10.99773085079943
 20
2.8973946255748988
 30
0.0
  0
VERTEX
  5
396
  8
0
  6
CONTINUOUS
 10
-11.060179473217341
 20
2.8739266719274088
 30
0.0
  0
VERTEX
  5
397
  8
0
  6
CONTINUOUS
 10
-11.1923358732067
 20
2.675741792184096
 30
0.0
  0
VERTEX
  5
398
  8
0
  6
CONTINUOUS
 10
-11.215008303001721
 20
2.6214472892539429
 30
0.0
  0
VERTEX
  5
399
  8
0
  6
CONTINUOUS
 10
-11.31812808237647
 20
2.0755190455054309
 30
0.0
  0
VERTEX
  5
39A
  8
0
  6
CONTINUOUS
 10
-11.380178942868071
 20
1.259013251440017
 30
0.0
  0
VERTEX
  5
39B
  8
0
  6
CONTINUOUS
 10
-11.39887375340083
 20
0.2986170805614998
 30
0.0
  0
VERTEX
  5
39C
  8
0
  6
CONTINUOUS
 10
-11.36933993037835
 20
-0.6608841259830133
 30
0.0
  0
VERTEX
  5
39D
  8
0
  6
CONTINUOUS
 10
-11.29525677161832
 20
-1.472815657896773
 30
0.0
  0
VERTEX
  5
39E
  8
0
  6
CONTINUOUS
 10
-11.20267768328867
 20
-1.9907016858461679
 30
0.0
  0
VERTEX
  5
39F
  8
0
  6
CONTINUOUS
 10
-11.056102413473459
 20
-2.2414905803332021
 30
0.0
  0
VERTEX
  5
3A0
  8
0
  6
CONTINUOUS
 10
-10.993554350574041
 20
-2.2647596530175682
 30
0.0
  0
VERTEX
  5
3A1
  8
0
  6
CONTINUOUS
 10
-8.2648080961655204
 20
-2.4226711377302359
 30
0.0
  0
VERTEX
  5
3A2
  8
0
  6
CONTINUOUS
 10
-5.5319847820131622
 20
-2.535635524779114
 30
0.0
  0
VERTEX
  5
3A3
  8
0
  6
CONTINUOUS
 10
-2.7960788129325431
 20
-2.6033544927195011
 30
0.0
  0
VERTEX
  5
3A4
  8
0
  6
CONTINUOUS
 10
-0.0583829151838597
 20
-2.6259274820329579
 30
0.0
  0
VERTEX
  5
3A5
  8
0
  6
CONTINUOUS
 10
2.679412423046386
 20
-2.6033544927195011
 30
0.0
  0
VERTEX
  5
3A6
  8
0
  6
CONTINUOUS
 10
5.4152189516454428
 20
-2.535635524779114
 30
0.0
  0
VERTEX
  5
3A7
  8
0
  6
CONTINUOUS
 10
8.1481417062793611
 20
-2.4226711377302359
 30
0.0
  0
VERTEX
  5
3A8
  8
0
  6
CONTINUOUS
 10
10.868634400718671
 20
-2.2647596530175682
 30
0.0
  0
VERTEX
  5
3A9
  8
0
  6
CONTINUOUS
 10
10.931083023136519
 20
-2.2414905803332021
 30
0.0
  0
VERTEX
  5
3AA
  8
0
  6
CONTINUOUS
 10
11.05478698219353
 20
-2.0448967482947871
 30
0.0
  0
VERTEX
  5
3AB
  8
0
  6
CONTINUOUS
 10
11.07765829295168
 20
-1.9907016858461679
 30
0.0
  0
VERTEX
  5
3AC
  8
0
  6
CONTINUOUS
 10
11.170336821762939
 20
-1.472815657896773
 30
0.0
  0
VERTEX
  5
3AD
  8
0
  6
CONTINUOUS
 10
11.24441998052297
 20
-0.6608841259830133
 30
0.0
  0
VERTEX
  5
3AE
  8
0
  6
CONTINUOUS
 10
11.273953803545449
 20
0.2986170805614998
 30
0.0
  0
VERTEX
  5
3AF
  8
0
  6
CONTINUOUS
 10
11.25525899301269
 20
1.259013251440017
 30
0.0
  0
VERTEX
  5
3B0
  8
0
  6
CONTINUOUS
 10
11.193208132521031
 20
2.0755190455054309
 30
0.0
  0
VERTEX
  5
3B1
  8
0
  6
CONTINUOUS
 10
11.193208132521031
 20
2.0755190455054309
 30
0.0
  0
VERTEX
  5
3B2
  8
0
  6
CONTINUOUS
 10
11.090088353146349
 20
2.6214472892539429
 30
0.0
  0
VERTEX
  5
3B3
  8
0
  6
CONTINUOUS
 10
11.067415923351319
 20
2.675741792184096
 30
0.0
  0
VERTEX
  5
3B4
  8
0
  6
CONTINUOUS
 10
10.935259523361911
 20
2.8739266719274088
 30
0.0
  0
VERTEX
  5
3B5
  8
0
  6
CONTINUOUS
 10
10.87271146046249
 20
2.8973946255748988
 30
0.0
  0
VERTEX
  5
3B6
  8
0
  6
CONTINUOUS
 10
8.1437663250908461
 20
3.0489419194679179
 30
0.0
  0
VERTEX
  5
3B7
  8
0
  6
CONTINUOUS
 10
5.4109430109384888
 20
3.1572326038835938
 30
0.0
  0
VERTEX
  5
3B8
  8
0
  6
CONTINUOUS
 10
2.675136482339433
 20
3.222167238340405
 30
0.0
  0
VERTEX
  5
3B9
  8
0
  6
CONTINUOUS
 10
-0.0624599749276883
 20
3.2438452633198591
 30
0.0
  0
VERTEX
  5
3BA
  8
0
  6
CONTINUOUS
 10
-2.8000564321948089
 20
3.222167238340405
 30
0.0
  0
VERTEX
  5
3BB
  8
0
  6
CONTINUOUS
 10
-8.2687857154277857
 20
3.0489419194679179
 30
0.0
  0
VERTEX
  5
3BC
  8
0
  6
CONTINUOUS
 10
-10.99773085079943
 20
2.8973946255748988
 30
0.0
  0
VERTEX
  5
3BD
  8
0
  6
CONTINUOUS
 10
-11.060179473217341
 20
2.8739266719274088
 30
0.0
  0
SEQEND
  5
3BE
  8
0
  6
CONTINUOUS
  0
POLYLINE
  5
25
  8
0
  6
CONTINUOUS
 66
     1
 10
0.0
 20
0.0
 30
0.0
  0
VERTEX
  5
3BF
  8
0
  6
CONTINUOUS
 10
-16.801475116398372
 20
2.0369361386612752
 30
0.0
  0
VERTEX
  5
3C0
  8
0
  6
CONTINUOUS
 10
-16.857062345588758
 20
1.781175220096394
 30
0.0
  0
VERTEX
  5
3C1
  8
0
  6
CONTINUOUS
 10
-16.921499777637798
 20
1.1463471858358401
 30
0.0
  0
VERTEX
  5
3C2
  8
0
  6
CONTINUOUS
 10
-16.941785635875441
 20
0.5817241315545888
 30
0.0
  0
VERTEX
  5
3C3
  8
0
  6
CONTINUOUS
 10
-16.94874646958441
 20
0.3765784181022815
 30
0.0
  0
VERTEX
  5
3C4
  8
0
  6
CONTINUOUS
 10
-16.952724088846729
 20
0.2714698290964162
 30
0.0
  0
VERTEX
  5
3C5
  8
0
  6
CONTINUOUS
 10
-16.945862695619269
 20
-0.0493251644067959
 30
0.0
  0
VERTEX
  5
3C6
  8
0
  6
CONTINUOUS
 10
-16.931543266275028
 20
-0.419243755799246
 30
0.0
  0
VERTEX
  5
3C7
  8
0
  6
CONTINUOUS
 10
-16.884010716090739
 20
-1.1199013888506011
 30
0.0
  0
VERTEX
  5
3C8
  8
0
  6
CONTINUOUS
 10
-16.801872878324559
 20
-1.6187942848226
 30
0.0
  0
VERTEX
  5
3C9
  8
0
  6
CONTINUOUS
 10
-16.701736313396569
 20
-1.839850475324043
 30
0.0
  0
VERTEX
  5
3CA
  8
0
  6
CONTINUOUS
 10
-15.156530670480709
 20
-1.9418764094016181
 30
0.0
  0
VERTEX
  5
3CB
  8
0
  6
CONTINUOUS
 10
-11.14818429939535
 20
-2.2259778652102868
 30
0.0
  0
VERTEX
  5
3CC
  8
0
  6
CONTINUOUS
 10
-11.272484901341739
 20
-1.9517210170757919
 30
0.0
  0
VERTEX
  5
3CD
  8
0
  6
CONTINUOUS
 10
-11.37441139493774
 20
-1.332902900345907
 30
0.0
  0
VERTEX
  5
3CE
  8
0
  6
CONTINUOUS
 10
-11.438351624578971
 20
-0.4635942105737189
 30
0.0
  0
VERTEX
  5
3CF
  8
0
  6
CONTINUOUS
 10
-11.45465986355434
 20
0.5236508903252375
 30
0.0
  0
VERTEX
  5
3D0
  8
0
  6
CONTINUOUS
 10
-11.420750659343399
 20
1.4787767156812199
 30
0.0
  0
VERTEX
  5
3D1
  8
0
  6
CONTINUOUS
 10
-11.34189435746862
 20
2.2561029600131191
 30
0.0
  0
VERTEX
  5
3D2
  8
0
  6
CONTINUOUS
 10
-11.18298846794035
 20
2.8250019550013241
 30
0.0
  0
VERTEX
  5
3D3
  8
0
  6
CONTINUOUS
 10
-11.102342237397499
 20
2.8495637539459429
 30
0.0
  0
SEQEND
  5
3D4
  8
0
  6
CONTINUOUS
  0
POLYLINE
  5
26
  8
0
  6
CONTINUOUS
 66
     1
 10
0.0
 20
0.0
 30
0.0
  0
VERTEX
  5
3D5
  8
0
  6
CONTINUOUS
 10
-4.991326883787198
 20
-2.5490178541758359
 30
0.0
  0
VERTEX
  5
3D6
  8
0
  6
CONTINUOUS
 10
-4.991326883787198
 20
-3.9117923490478899
 30
0.0
  0
VERTEX
  5
3D7
  8
0
  6
CONTINUOUS
 10
-7.0250836125930816
 20
-3.9117923490478899
 30
0.0
  0
VERTEX
  5
3D8
  8
0
  6
CONTINUOUS
 10
-7.0250836125930816
 20
-2.4739165715901681
 30
0.0
  0
SEQEND
  5
3D9
  8
0
  6
CONTINUOUS
  0
LINE
  5
27
  8
0
  6
CONTINUOUS
 10
-12.922389485670649
 20
2.8341859769596951
 30
0.0
 11
-11.27257213136266
 21
2.7276109491727851
 31
0.0
  0
LINE
  5
28
  8
0
  6
CONTINUOUS
 10
-11.1956345410783
 20
2.931779963079189
 30
0.0
 11
-12.875488490296259
 21
3.0188960672533138
 31
0.0
  0
LINE
  5
29
  8
0
  6
CONTINUOUS
 10
-11.277262230900091
 20
2.6524695672219241
 30
0.0
 11
-12.97946899493483
 21
2.7762083635288111
 31
0.0
  0
LINE
  5
2A
  8
0
  6
CONTINUOUS
 10
-12.97946899493483
 20
2.7762083635288111
 30
0.0
 11
-11.277262230900091
 21
2.6524695672219241
 31
0.0
  0
LINE
  5
2B
  8
0
  6
CONTINUOUS
 10
-12.96988921715621
 20
2.4824352579572162
 30
0.0
 11
-11.27606475867776
 21
2.6249277061084402
 31
0.0
  0
LINE
  5
2C
  8
0
  6
CONTINUOUS
 10
-11.27606475867776
 20
2.6249277061084402
 30
0.0
 11
-12.96988921715621
 21
2.4824352579572162
 31
0.0
  0
LINE
  5
2D
  8
0
  6
CONTINUOUS
 10
-12.93256799956044
 20
2.9609184538224151
 30
0.0
 11
-12.875488490296259
 21
3.0188960672533138
 31
0.0
  0
LINE
  5
2E
  8
0
  6
CONTINUOUS
 10
-12.922389485670649
 20
2.8341859769596951
 30
0.0
 11
-12.875488490296259
 21
3.0188960672533138
 31
0.0
  0
LINE
  5
2F
  8
0
  6
CONTINUOUS
 10
-15.28243186443825
 20
2.9565277223405459
 30
0.0
 11
-15.320152239441461
 21
2.8003573866790319
 31
0.0
  0
LINE
  5
30
  8
0
  6
CONTINUOUS
 10
-15.320152239441461
 20
2.8003573866790319
 30
0.0
 11
-15.32204823712684
 21
2.7246172686169792
 31
0.0
  0
LINE
  5
31
  8
0
  6
CONTINUOUS
 10
-15.19519176364315
 20
2.742878720007436
 30
0.0
 11
-13.0820524486473
 21
2.7861872987148479
 31
0.0
  0
LINE
  5
32
  8
0
  6
CONTINUOUS
 10
-15.19519176364315
 20
2.742878720007436
 30
0.0
 11
-13.0820524486473
 21
2.7861872987148479
 31
0.0
  0
LINE
  5
33
  8
0
  6
CONTINUOUS
 10
-13.037346819013839
 20
3.0124097593823862
 30
0.0
 11
-15.13363763168274
 21
2.9460751855190339
 31
0.0
  0
LINE
  5
34
  8
0
  6
CONTINUOUS
 10
-15.16729912394613
 20
2.8067094834233739
 30
0.0
 11
-13.081353923184309
 21
2.8490545903869049
 31
0.0
  0
LINE
  5
35
  8
0
  6
CONTINUOUS
 10
-15.16729912394613
 20
2.8067094834233739
 30
0.0
 11
-15.19519176364315
 21
2.742878720007436
 31
0.0
  0
LINE
  5
36
  8
0
  6
CONTINUOUS
 10
-15.13363763168274
 20
2.9460751855190339
 30
0.0
 11
-15.16729912394613
 21
2.8067094834233739
 31
0.0
  0
LINE
  5
37
  8
0
  6
CONTINUOUS
 10
-13.081353923184309
 20
2.8490545903869049
 30
0.0
 11
-13.0820524486473
 21
2.7861872987148479
 31
0.0
  0
LINE
  5
38
  8
0
  6
CONTINUOUS
 10
-13.081353923184309
 20
2.8490545903869049
 30
0.0
 11
-13.037346819013839
 21
3.0124097593823862
 31
0.0
  0
LINE
  5
39
  8
0
  6
CONTINUOUS
 10
-13.037346819013839
 20
3.0124097593823862
 30
0.0
 11
-13.020681997253201
 21
2.701466138985392
 31
0.0
  0
LINE
  5
3A
  8
0
  6
CONTINUOUS
 10
-12.922389485670649
 20
2.8341859769596951
 30
0.0
 11
-12.97946899493483
 21
2.7762083635288111
 31
0.0
  0
LINE
  5
3B
  8
0
  6
CONTINUOUS
 10
-12.97946899493483
 20
2.7762083635288111
 30
0.0
 11
-12.93256799956044
 21
2.9609184538224151
 31
0.0
  0
LINE
  5
3C
  8
0
  6
CONTINUOUS
 10
-16.514307205885832
 20
2.7816967778811179
 30
0.0
 11
-16.543779809305921
 21
2.7047591875967649
 31
0.0
  0
LINE
  5
3D
  8
0
  6
CONTINUOUS
 10
-16.514307205885832
 20
2.7816967778811179
 30
0.0
 11
-16.452048733649718
 21
2.9217012385412771
 31
0.0
  0
LINE
  5
3E
  8
0
  6
CONTINUOUS
 10
-15.28243186443825
 20
2.9565277223405459
 30
0.0
 11
-16.452048733649718
 21
2.9217012385412771
 31
0.0
  0
LINE
  5
3F
  8
0
  6
CONTINUOUS
 10
-15.320152239441461
 20
2.8003573866790319
 30
0.0
 11
-16.514307205885832
 21
2.7816967778811179
 31
0.0
  0
LINE
  5
40
  8
0
  6
CONTINUOUS
 10
-16.543779809305921
 20
2.7047591875967649
 30
0.0
 11
-15.32204823712684
 21
2.7246172686169792
 31
0.0
  0
LINE
  5
41
  8
0
  6
CONTINUOUS
 10
-15.16335896039968
 20
2.273868766263563
 30
0.0
 11
-15.2792143979096
 21
2.2418363843163771
 31
0.0
  0
LINE
  5
42
  8
0
  6
CONTINUOUS
 10
-15.23268357917779
 20
2.4344838216583371
 30
0.0
 11
-15.2792143979096
 21
2.2418363843163771
 31
0.0
  0
LINE
  5
43
  8
0
  6
CONTINUOUS
 10
-13.065387626886601
 20
2.4752436783178551
 30
0.0
 11
-15.16335896039968
 21
2.273868766263563
 31
0.0
  0
LINE
  5
44
  8
0
  6
CONTINUOUS
 10
-15.2792143979096
 20
2.2418363843163771
 30
0.0
 11
-16.8220575670233
 21
2.0624151296713591
 31
0.0
  0
LINE
  5
45
  8
0
  6
CONTINUOUS
 10
-16.8220575670233
 20
2.0624151296713591
 30
0.0
 11
-16.543779809305921
 21
2.7047591875967649
 31
0.0
  0
LINE
  5
46
  8
0
  6
CONTINUOUS
 10
-13.0820524486473
 20
2.7861872987148479
 30
0.0
 11
-13.065387626886601
 21
2.4752436783178551
 31
0.0
  0
LINE
  5
47
  8
0
  6
CONTINUOUS
 10
-13.0820524486473
 20
2.7861872987148479
 30
0.0
 11
-13.065387626886601
 21
2.4752436783178551
 31
0.0
  0
LINE
  5
48
  8
0
  6
CONTINUOUS
 10
-13.020681997253201
 20
2.701466138985392
 30
0.0
 11
-13.065387626886601
 21
2.4752436783178551
 31
0.0
  0
LINE
  5
49
  8
0
  6
CONTINUOUS
 10
-12.97946899493483
 20
2.7762083635288111
 30
0.0
 11
-12.96988921715621
 21
2.4824352579572162
 31
0.0
  0
LINE
  5
4A
  8
0
  6
CONTINUOUS
 10
-12.96988921715621
 20
2.4824352579572162
 30
0.0
 11
-12.97946899493483
 21
2.7762083635288111
 31
0.0
  0
LINE
  5
4B
  8
0
  6
CONTINUOUS
 10
-15.16335896039968
 20
2.273868766263563
 30
0.0
 11
-15.19519176364315
 21
2.742878720007436
 31
0.0
  0
LINE
  5
4C
  8
0
  6
CONTINUOUS
 10
-15.32204823712684
 20
2.7246172686169792
 30
0.0
 11
-15.2792143979096
 21
2.2418363843163771
 31
0.0
  0
LINE
  5
4D
  8
0
  6
CONTINUOUS
 10
-15.28243186443825
 20
2.9565277223405459
 30
0.0
 11
-15.23268357917779
 21
2.4344838216583371
 31
0.0
  0
POLYLINE
  5
4E
  8
0
  6
CONTINUOUS
 66
     1
 10
0.0
 20
0.0
 30
0.0
  0
VERTEX
  5
3DA
  8
0
  6
CONTINUOUS
 10
6.1379754470228161
 20
3.128423262391137
 30
0.0
  0
VERTEX
  5
3DB
  8
0
  6
CONTINUOUS
 10
6.2775668077086939
 20
3.2219683573772948
 30
0.0
  0
VERTEX
  5
3DC
  8
0
  6
CONTINUOUS
 10
7.4048241066400351
 20
3.4468032861779081
 30
0.0
  0
VERTEX
  5
3DD
  8
0
  6
CONTINUOUS
 10
8.5320814055713772
 20
3.2219683573772948
 30
0.0
  0
VERTEX
  5
3DE
  8
0
  6
CONTINUOUS
 10
8.8486941962967851
 20
3.0097949575571259
 30
0.0
  0
SEQEND
  5
3DF
  8
0
  6
CONTINUOUS
  0
POLYLINE
  5
4F
  8
0
  6
CONTINUOUS
 66
     1
 10
0.0
 20
0.0
 30
0.0
  0
VERTEX
  5
3E0
  8
0
  6
CONTINUOUS
 10
-9.0449491899664967
 20
3.0058390103400159
 30
0.0
  0
VERTEX
  5
3E1
  8
0
  6
CONTINUOUS
 10
-8.7224331922913052
 20
3.2219683573772948
 30
0.0
  0
VERTEX
  5
3E2
  8
0
  6
CONTINUOUS
 10
-7.595175893359964
 20
3.4468032861779081
 30
0.0
  0
VERTEX
  5
3E3
  8
0
  6
CONTINUOUS
 10
-6.4679185944286219
 20
3.2219683573772948
 30
0.0
  0
VERTEX
  5
3E4
  8
0
  6
CONTINUOUS
 10
-6.3026562968148321
 20
3.1112202619940459
 30
0.0
  0
SEQEND
  5
3E5
  8
0
  6
CONTINUOUS
  0
LINE
  5
50
  8
0
  6
CONTINUOUS
 10
-11.1956345410783
 20
2.931779963079189
 30
0.0
 11
-11.27257213136266
 21
2.7276109491727851
 31
0.0
  0
LINE
  5
51
  8
0
  6
CONTINUOUS
 10
-11.277262230900091
 20
2.6524695672219241
 30
0.0
 11
-11.27606475867776
 21
2.6249277061084402
 31
0.0
  0
LINE
  5
52
  8
0
  6
CONTINUOUS
 10
-11.27257213136266
 20
2.7276109491727851
 30
0.0
 11
-11.277262230900091
 21
2.6524695672219241
 31
0.0
  0
POLYLINE
  5
53
  8
0
  6
CONTINUOUS
 66
     1
 10
0.0
 20
0.0
 30
0.0
  0
VERTEX
  5
3E6
  8
0
  6
CONTINUOUS
 10
16.678215617739671
 20
2.0601906504200609
 30
0.0
  0
VERTEX
  5
3E7
  8
0
  6
CONTINUOUS
 10
16.734158088835269
 20
1.8045071987812431
 30
0.0
  0
VERTEX
  5
3E8
  8
0
  6
CONTINUOUS
 10
16.799477343131329
 20
1.1697692916491771
 30
0.0
  0
VERTEX
  5
3E9
  8
0
  6
CONTINUOUS
 10
16.820547539525659
 20
0.6051749626887915
 30
0.0
  0
VERTEX
  5
3EA
  8
0
  6
CONTINUOUS
 10
16.827793348905931
 20
0.400039116966487
 30
0.0
  0
VERTEX
  5
3EB
  8
0
  6
CONTINUOUS
 10
16.83191697808882
 20
0.2949361549713025
 30
0.0
  0
VERTEX
  5
3EC
  8
0
  6
CONTINUOUS
 10
16.825501230446029
 20
-0.0258680606430412
 30
0.0
  0
VERTEX
  5
3ED
  8
0
  6
CONTINUOUS
 10
16.811695694939271
 20
-0.3958061872316546
 30
0.0
  0
VERTEX
  5
3EE
  8
0
  6
CONTINUOUS
 10
16.765136523582889
 20
-1.096529175039785
 30
0.0
  0
VERTEX
  5
3EF
  8
0
  6
CONTINUOUS
 10
16.683691812400308
 20
-1.595535693098032
 30
0.0
  0
VERTEX
  5
3F0
  8
0
  6
CONTINUOUS
 10
16.58386242884815
 20
-1.816730777071847
 30
0.0
  0
VERTEX
  5
3F1
  8
0
  6
CONTINUOUS
 10
15.03880000832306
 20
-1.9209031669094261
 30
0.0
  0
VERTEX
  5
3F2
  8
0
  6
CONTINUOUS
 10
11.03085217026414
 20
-2.2105726254045148
 30
0.0
  0
VERTEX
  5
3F3
  8
0
  6
CONTINUOUS
 10
11.154771662730919
 20
-1.9361433671617401
 30
0.0
  0
VERTEX
  5
3F4
  8
0
  6
CONTINUOUS
 10
11.25583841406201
 20
-1.3171842542429
 30
0.0
  0
VERTEX
  5
3F5
  8
0
  6
CONTINUOUS
 10
11.318570963958869
 20
-0.4477875793795434
 30
0.0
  0
VERTEX
  5
3F6
  8
0
  6
CONTINUOUS
 10
11.333507735358349
 20
0.5394792238543169
 30
0.0
  0
VERTEX
  5
3F7
  8
0
  6
CONTINUOUS
 10
11.298271731178559
 20
1.494557021942841
 30
0.0
  0
VERTEX
  5
3F8
  8
0
  6
CONTINUOUS
 10
11.218335666649709
 20
2.271772971380392
 30
0.0
  0
VERTEX
  5
3F9
  8
0
  6
CONTINUOUS
 10
11.058639632707941
 20
2.8404506700539351
 30
0.0
  0
VERTEX
  5
3FA
  8
0
  6
CONTINUOUS
 10
10.977959359452241
 20
2.8649004139288188
 30
0.0
  0
SEQEND
  5
3FB
  8
0
  6
CONTINUOUS
  0
LINE
  5
54
  8
0
  6
CONTINUOUS
 10
16.39001338475278
 20
2.8045516458118538
 30
0.0
 11
16.327560482513249
 21
2.9444694837445762
 31
0.0
  0
LINE
  5
55
  8
0
  6
CONTINUOUS
 10
16.39001338475278
 20
2.8045516458118538
 30
0.0
 11
16.41959283917101
 21
2.7276550722377242
 31
0.0
  0
LINE
  5
56
  8
0
  6
CONTINUOUS
 10
15.04297185562392
 20
2.8276931032336412
 30
0.0
 11
15.07095314022547
 21
2.763901149042082
 31
0.0
  0
LINE
  5
57
  8
0
  6
CONTINUOUS
 10
15.009116793108589
 20
2.9670119093012151
 30
0.0
 11
15.04297185562392
 21
2.8276931032336412
 31
0.0
  0
LINE
  5
58
  8
0
  6
CONTINUOUS
 10
15.195833647777491
 20
2.8215533516681148
 30
0.0
 11
15.19783485957643
 21
2.7458159405517071
 31
0.0
  0
LINE
  5
59
  8
0
  6
CONTINUOUS
 10
15.157896361936301
 20
2.9776711366063329
 30
0.0
 11
15.195833647777491
 21
2.8215533516681148
 31
0.0
  0
LINE
  5
5A
  8
0
  6
CONTINUOUS
 10
12.85518620890347
 20
2.7941527435409488
 30
0.0
 11
11.153152981618719
 21
2.6680494110877628
 31
0.0
  0
LINE
  5
5B
  8
0
  6
CONTINUOUS
 10
11.071137360777371
 20
2.9472461426545551
 30
0.0
 11
12.75086866997964
 21
3.0366957664396401
 31
0.0
  0
LINE
  5
5C
  8
0
  6
CONTINUOUS
 10
11.153152981618719
 20
2.6680494110877628
 30
0.0
 11
12.85518620890347
 21
2.7941527435409488
 31
0.0
  0
LINE
  5
5D
  8
0
  6
CONTINUOUS
 10
12.79802621392087
 20
2.8520510078548988
 30
0.0
 11
11.148358502410369
 21
2.7431842051865978
 31
0.0
  0
LINE
  5
5E
  8
0
  6
CONTINUOUS
 10
11.148358502410369
 20
2.7431842051865978
 30
0.0
 11
11.153152981618719
 21
2.6680494110877628
 31
0.0
  0
LINE
  5
5F
  8
0
  6
CONTINUOUS
 10
11.153152981618719
 20
2.6680494110877628
 30
0.0
 11
11.15199377089478
 21
2.6405059130561801
 31
0.0
  0
LINE
  5
60
  8
0
  6
CONTINUOUS
 10
11.071137360777371
 20
2.9472461426545551
 30
0.0
 11
11.148358502410369
 21
2.7431842051865978
 31
0.0
  0
LINE
  5
61
  8
0
  6
CONTINUOUS
 10
12.912735853108449
 20
3.0304343136541871
 30
0.0
 11
12.896503001154221
 21
2.7194678430060768
 31
0.0
  0
LINE
  5
62
  8
0
  6
CONTINUOUS
 10
12.85518620890347
 20
2.7941527435409488
 30
0.0
 11
12.80802866496224
 21
2.9787975021256758
 31
0.0
  0
LINE
  5
63
  8
0
  6
CONTINUOUS
 10
12.79802621392087
 20
2.8520510078548988
 30
0.0
 11
12.75086866997964
 21
3.0366957664396401
 31
0.0
  0
LINE
  5
64
  8
0
  6
CONTINUOUS
 10
12.956969843009841
 20
2.8671404356537682
 30
0.0
 11
12.912735853108449
 21
3.0304343136541871
 31
0.0
  0
LINE
  5
65
  8
0
  6
CONTINUOUS
 10
12.79802621392087
 20
2.8520510078548988
 30
0.0
 11
12.85518620890347
 21
2.7941527435409488
 31
0.0
  0
LINE
  5
66
  8
0
  6
CONTINUOUS
 10
12.956969843009841
 20
2.8671404356537682
 30
0.0
 11
12.957755701190299
 21
2.8042741750132598
 31
0.0
  0
LINE
  5
67
  8
0
  6
CONTINUOUS
 10
12.80802866496224
 20
2.9787975021256758
 30
0.0
 11
12.75086866997964
 21
3.0366957664396401
 31
0.0
  0
LINE
  5
68
  8
0
  6
CONTINUOUS
 10
15.07095314022547
 20
2.763901149042082
 30
0.0
 11
12.957755701190299
 21
2.8042741750132598
 31
0.0
  0
LINE
  5
69
  8
0
  6
CONTINUOUS
 10
15.07095314022547
 20
2.763901149042082
 30
0.0
 11
12.957755701190299
 21
2.8042741750132598
 31
0.0
  0
LINE
  5
6A
  8
0
  6
CONTINUOUS
 10
15.04297185562392
 20
2.8276931032336412
 30
0.0
 11
12.956969843009841
 21
2.8671404356537682
 31
0.0
  0
LINE
  5
6B
  8
0
  6
CONTINUOUS
 10
12.912735853108449
 20
3.0304343136541871
 30
0.0
 11
15.009116793108589
 21
2.9670119093012151
 31
0.0
  0
LINE
  5
6C
  8
0
  6
CONTINUOUS
 10
16.41959283917101
 20
2.7276550722377242
 30
0.0
 11
15.19783485957643
 21
2.7458159405517071
 31
0.0
  0
LINE
  5
6D
  8
0
  6
CONTINUOUS
 10
15.195833647777491
 20
2.8215533516681148
 30
0.0
 11
16.39001338475278
 21
2.8045516458118538
 31
0.0
  0
LINE
  5
6E
  8
0
  6
CONTINUOUS
 10
15.157896361936301
 20
2.9776711366063329
 30
0.0
 11
16.327560482513249
 21
2.9444694837445762
 31
0.0
  0
LINE
  5
6F
  8
0
  6
CONTINUOUS
 10
15.039771902522469
 20
2.2948474266514838
 30
0.0
 11
15.15567172668603
 21
2.2629760185764951
 31
0.0
  0
LINE
  5
70
  8
0
  6
CONTINUOUS
 10
15.10887333270122
 20
2.4555586307893491
 30
0.0
 11
15.15567172668603
 21
2.2629760185764951
 31
0.0
  0
LINE
  5
71
  8
0
  6
CONTINUOUS
 10
12.94152284923606
 20
2.493307704365149
 30
0.0
 11
15.039771902522469
 21
2.2948474266514838
 31
0.0
  0
LINE
  5
72
  8
0
  6
CONTINUOUS
 10
15.15567172668603
 20
2.2629760185764951
 30
0.0
 11
16.69876265384023
 21
2.0856982093802192
 31
0.0
  0
LINE
  5
73
  8
0
  6
CONTINUOUS
 10
15.157896361936301
 20
2.9776711366063329
 30
0.0
 11
15.10887333270122
 21
2.4555586307893491
 31
0.0
  0
LINE
  5
74
  8
0
  6
CONTINUOUS
 10
15.19783485957643
 20
2.7458159405517071
 30
0.0
 11
15.15567172668603
 21
2.2629760185764951
 31
0.0
  0
LINE
  5
75
  8
0
  6
CONTINUOUS
 10
15.039771902522469
 20
2.2948474266514838
 30
0.0
 11
15.07095314022547
 21
2.763901149042082
 31
0.0
  0
LINE
  5
76
  8
0
  6
CONTINUOUS
 10
12.84601454132104
 20
2.5003666134850389
 30
0.0
 11
12.85518620890347
 21
2.7941527435409488
 31
0.0
  0
LINE
  5
77
  8
0
  6
CONTINUOUS
 10
12.85518620890347
 20
2.7941527435409488
 30
0.0
 11
12.84601454132104
 21
2.5003666134850389
 31
0.0
  0
LINE
  5
78
  8
0
  6
CONTINUOUS
 10
12.896503001154221
 20
2.7194678430060768
 30
0.0
 11
12.94152284923606
 21
2.493307704365149
 31
0.0
  0
LINE
  5
79
  8
0
  6
CONTINUOUS
 10
12.957755701190299
 20
2.8042741750132598
 30
0.0
 11
12.94152284923606
 21
2.493307704365149
 31
0.0
  0
LINE
  5
7A
  8
0
  6
CONTINUOUS
 10
12.957755701190299
 20
2.8042741750132598
 30
0.0
 11
12.94152284923606
 21
2.493307704365149
 31
0.0
  0
LINE
  5
7B
  8
0
  6
CONTINUOUS
 10
16.69876265384023
 20
2.0856982093802192
 30
0.0
 11
16.41959283917101
 21
2.7276550722377242
 31
0.0
  0
LINE
  5
7C
  8
0
  6
CONTINUOUS
 10
11.15199377089478
 20
2.6405059130561801
 30
0.0
 11
12.84601454132104
 21
2.5003666134850389
 31
0.0
  0
LINE
  5
7D
  8
0
  6
CONTINUOUS
 10
12.84601454132104
 20
2.5003666134850389
 30
0.0
 11
11.15199377089478
 21
2.6405059130561801
 31
0.0
  0
DIMENSION
  5
1B3
  8
COTATION-JACOBDELAFON
  2
*D1
 10
-7.595175893359964
 20
9.5863120219561235
 30
0.0
 11
-0.0951758933599643
 21
12.01803098512119
 31
0.0
 70
     0
 13
7.4048241066400351
 23
3.4468032861779081
 33
0.0
 14
-7.595175893359964
 24
3.4468032861779081
 34
0.0
 50
180.0
  0
INSERT
  5
22E
 67
     1
  8
0
  6
CONTINUOUS
  2
ADCADD_ZZ
 10
0.0
 20
0.0
 30
0.0
1001
ADCADD_ZZ
1070
   205
1070
    14
1070
   209
1070
     1
1070
   231
1070
     0
1070
   235
1070
     0
1070
   236
1070
     4
1070
   237
1070
     2
1070
   238
1070
     4
1070
   239
1070
     2
1070
   240
1070
     0
1070
   241
1070
  4096
1070
   242
1070
     2
1070
   244
1070
     0
1070
   245
1070
     1
1070
   303
1040
0.1
1070
   304
1040
4.0
1070
   305
1040
1.0
1070
   306
1040
1.0
1070
   337
1040
0.0
1070
   338
1040
0.3048
1070
   339
1040
0.0625
1070
   340
1040
96.0
1070
   341
1040
4.0
1070
   342
1040
1.0
1070
   530
1010
0.0
1020
0.0
1030
0.0
1070
   531
1010
0.0
1020
0.0
1030
0.0
1070
   107
1000

1070
   108
1000
Architectural Desktop
1070
   135
1000
L120
1070
   136
1000
'
1070
   137
1000
m
1001
SDSK_PMN
1070
   100
1000
ACADARCH
1070
   300
1040
2453077.658320046
  0
ENDSEC
  0
EOF
