  0
SECTION
  2
HEADER
  9
$ACADVER
  1
AC1009
  9
$INSBASE
 10
0.0
 20
-0.0000000000000142
 30
0.0
  9
$EXTMIN
 10
-0.9000000000000005
 20
-10.703026195070001
 30
0.0
  9
$EXTMAX
 10
13.398507660595209
 20
3.4020185156165041
 30
0.0
  9
$LIMMIN
 10
0.0
 20
0.0
  9
$LIMMAX
 10
12.0
 20
9.0
  9
$ORTHOMODE
 70
     1
  9
$REGENMODE
 70
     1
  9
$FILLMODE
 70
     1
  9
$QTEXTMODE
 70
     0
  9
$MIRRTEXT
 70
     1
  9
$DRAGMODE
 70
     2
  9
$LTSCALE
 40
1.0
  9
$OSMODE
 70
     1
  9
$ATTMODE
 70
     1
  9
$TEXTSIZE
 40
0.2
  9
$TRACEWID
 40
0.05
  9
$TEXTSTYLE
  7
STANDARD
  9
$CLAYER
  8
0
  9
$CELTYPE
  6
CONTINUOUS
  9
$CECOLOR
 62
   256
  9
$DIMSCALE
 40
1.0
  9
$DIMASZ
 40
0.18
  9
$DIMEXO
 40
0.0625
  9
$DIMDLI
 40
0.38
  9
$DIMRND
 40
0.0
  9
$DIMDLE
 40
0.0
  9
$DIMEXE
 40
0.18
  9
$DIMTP
 40
0.0
  9
$DIMTM
 40
0.0
  9
$DIMTXT
 40
0.18
  9
$DIMCEN
 40
0.09
  9
$DIMTSZ
 40
0.0
  9
$DIMTOL
 70
     0
  9
$DIMLIM
 70
     0
  9
$DIMTIH
 70
     1
  9
$DIMTOH
 70
     1
  9
$DIMSE1
 70
     0
  9
$DIMSE2
 70
     0
  9
$DIMTAD
 70
     0
  9
$DIMZIN
 70
     0
  9
$DIMBLK
  1

  9
$DIMASO
 70
     1
  9
$DIMSHO
 70
     1
  9
$DIMPOST
  1

  9
$DIMAPOST
  1

  9
$DIMALT
 70
     0
  9
$DIMALTD
 70
     2
  9
$DIMALTF
 40
25.399999999999999
  9
$DIMLFAC
 40
1.0
  9
$DIMTOFL
 70
     0
  9
$DIMTVP
 40
0.0
  9
$DIMTIX
 70
     0
  9
$DIMSOXD
 70
     0
  9
$DIMSAH
 70
     0
  9
$DIMBLK1
  1

  9
$DIMBLK2
  1

  9
$DIMSTYLE
  2
STANDARD
  9
$DIMCLRD
 70
     0
  9
$DIMCLRE
 70
     0
  9
$DIMCLRT
 70
     0
  9
$DIMTFAC
 40
1.0
  9
$DIMGAP
 40
0.09
  9
$LUNITS
 70
     2
  9
$LUPREC
 70
     4
  9
$SKETCHINC
 40
0.1
  9
$FILLETRAD
 40
0.0
  9
$AUNITS
 70
     0
  9
$AUPREC
 70
     2
  9
$MENU
  1
.
  9
$ELEVATION
 40
0.0
  9
$PELEVATION
 40
0.0
  9
$THICKNESS
 40
0.0
  9
$LIMCHECK
 70
     0
  9
$BLIPMODE
 70
     0
  9
$CHAMFERA
 40
0.0
  9
$CHAMFERB
 40
0.0
  9
$SKPOLY
 70
     0
  9
$TDCREATE
 40
2453045.601786851
  9
$TDUPDATE
 40
2453077.6586079388
  9
$TDINDWG
 40
0.1317045139
  9
$TDUSRTIMER
 40
0.1317045139
  9
$USRTIMER
 70
     1
  9
$ANGBASE
 50
0.0
  9
$ANGDIR
 70
     0
  9
$PDMODE
 70
     0
  9
$PDSIZE
 40
0.0
  9
$PLINEWID
 40
0.0
  9
$COORDS
 70
     1
  9
$SPLFRAME
 70
     0
  9
$SPLINETYPE
 70
     6
  9
$SPLINESEGS
 70
     8
  9
$ATTDIA
 70
     1
  9
$ATTREQ
 70
     1
  9
$HANDLING
 70
 22529
  9
$HANDSEED
  5
2E7
  9
$SURFTAB1
 70
     6
  9
$SURFTAB2
 70
     6
  9
$SURFTYPE
 70
     6
  9
$SURFU
 70
     6
  9
$SURFV
 70
     6
  9
$UCSNAME
  2

  9
$UCSORG
 10
0.0
 20
0.0
 30
0.0
  9
$UCSXDIR
 10
1.0
 20
0.0
 30
0.0
  9
$UCSYDIR
 10
0.0
 20
1.0
 30
0.0
  9
$PUCSNAME
  2

  9
$PUCSORG
 10
0.0
 20
0.0
 30
0.0
  9
$PUCSXDIR
 10
1.0
 20
0.0
 30
0.0
  9
$PUCSYDIR
 10
0.0
 20
1.0
 30
0.0
  9
$USERI1
 70
     0
  9
$USERI2
 70
     0
  9
$USERI3
 70
     0
  9
$USERI4
 70
     0
  9
$USERI5
 70
     0
  9
$USERR1
 40
0.0
  9
$USERR2
 40
0.0
  9
$USERR3
 40
0.0
  9
$USERR4
 40
0.0
  9
$USERR5
 40
0.0
  9
$WORLDVIEW
 70
     1
  9
$SHADEDGE
 70
     3
  9
$SHADEDIF
 70
    70
  9
$TILEMODE
 70
     1
  9
$MAXACTVP
 70
    64
  9
$PLIMCHECK
 70
     0
  9
$PEXTMIN
 10
-708.01784835287424
 20
-221.02247567658731
 30
0.0
  9
$PEXTMAX
 10
605.98165318579765
 20
209.58722915671501
 30
0.0
  9
$PLIMMIN
 10
-0.1979161059762549
 20
-0.2679166643638311
  9
$PLIMMAX
 10
11.493750144177531
 20
7.9987497780266699
  9
$UNITMODE
 70
     0
  9
$VISRETAIN
 70
     1
  9
$PLINEGEN
 70
     0
  9
$PSLTSCALE
 70
     1
  0
ENDSEC
  0
SECTION
  2
TABLES
  0
TABLE
  2
VPORT
 70
     2
  0
VPORT
  2
*ACTIVE
 70
     0
 10
0.0
 20
0.0
 11
1.0
 21
1.0
 12
7.1151032421124834
 22
-5.0486174784922708
 13
0.0
 23
0.0
 14
1.0
 24
1.0
 15
0.0
 25
0.0
 16
0.0
 26
0.0
 36
1.0
 17
0.1687951338768018
 27
1.398024822843315
 37
0.1747608202959771
 40
14.270763594289919
 41
1.928853754940711
 42
50.0
 43
0.0
 44
0.0
 50
0.0
 51
0.0
 71
     0
 72
   100
 73
     1
 74
     1
 75
     0
 76
     0
 77
     0
 78
     0
  0
ENDTAB
  0
TABLE
  2
LTYPE
 70
     1
  0
LTYPE
  2
CONTINUOUS
 70
     0
  3
Solid line
 72
    65
 73
     0
 40
0.0
  0
ENDTAB
  0
TABLE
  2
LAYER
 70
     3
  0
LAYER
  2
0
 70
     0
 62
     7
  6
CONTINUOUS
  0
LAYER
  2
DEFPOINTS
 70
     0
 62
     7
  6
CONTINUOUS
  0
LAYER
  2
COTATION-JACOBDELAFON
 70
     0
 62
     8
  6
CONTINUOUS
  0
ENDTAB
  0
TABLE
  2
STYLE
 70
     2
  0
STYLE
  2
STANDARD
 70
     0
 40
0.0
 41
1.0
 50
0.0
 71
     0
 42
0.2
  3
txt
  4

  0
STYLE
  2
JACOB-DELAFON
 70
     0
 40
0.0
 41
1.0
 50
0.0
 71
     0
 42
2.5
  3
txt
  4

  0
ENDTAB
  0
TABLE
  2
VIEW
 70
     0
  0
ENDTAB
  0
TABLE
  2
UCS
 70
     0
  0
ENDTAB
  0
TABLE
  2
APPID
 70
     9
  0
APPID
  2
ACAD
 70
     0
  0
APPID
  2
ADCADD_ZZ
 70
     0
  0
APPID
  2
SDSK_PMN
 70
     0
  0
APPID
  2
ACAECLAYERSTANDARD
 70
     0
  0
APPID
  2
AECBASE
 70
     0
  0
APPID
  2
AEC_DWGVARSSETUP_DATA
 70
     0
  0
APPID
  2
AEC_DISPREPCONFIG_DATA
 70
     0
  0
APPID
  2
AEC_DISPREPSET_DATA
 70
     0
  0
APPID
  2
DCO15
 70
     0
  0
ENDTAB
  0
TABLE
  2
DIMSTYLE
 70
     2
  0
DIMSTYLE
  2
STANDARD
 70
     0
  3

  4

  5

  6

  7

 40
1.0
 41
0.18
 42
0.0625
 43
0.38
 44
0.18
 45
0.0
 46
0.0
 47
0.0
 48
0.0
140
0.18
141
0.09
142
0.0
143
25.399999999999999
144
1.0
145
0.0
146
1.0
147
0.09
 71
     0
 72
     0
 73
     1
 74
     1
 75
     0
 76
     0
 77
     0
 78
     0
170
     0
171
     2
172
     0
173
     0
174
     0
175
     0
176
     0
177
     0
178
     0
  0
DIMSTYLE
  2
COTATION-JACOB-DELAFON
 70
     0
  3

  4

  5
OBLIQUE
  6

  7

 40
1.0
 41
1.8
 42
0.625
 43
3.7999999999999989
 44
1.8
 45
0.0
 46
0.0
 47
0.0
 48
0.0
140
3.0
141
0.9
142
0.0
143
25.399999999999999
144
1.0
145
0.0
146
1.0
147
0.9
 71
     0
 72
     0
 73
     0
 74
     0
 75
     0
 76
     0
 77
     1
 78
    12
170
     0
171
     2
172
     0
173
     0
174
     0
175
     0
176
     0
177
     0
178
     0
  0
ENDTAB
  0
ENDSEC
  0
SECTION
  2
BLOCKS
  0
BLOCK
  8
0
  2
$MODEL_SPACE
 70
     0
 10
0.0
 20
0.0
 30
0.0
  3
$MODEL_SPACE
  1

  0
ENDBLK
  5
9
  8
0
  0
BLOCK
 67
     1
  8
0
  2
$PAPER_SPACE
 70
     0
 10
0.0
 20
0.0
 30
0.0
  3
$PAPER_SPACE
  1

  0
ENDBLK
  5
E
 67
     1
  8
0
  0
BLOCK
  8
0
  2
*D0
 70
     1
 10
0.0
 20
0.0
 30
0.0
  3
*D0
  1

  0
LINE
  5
8B
  8
COTATION-JACOBDELAFON
 62
     0
 10
0.0
 20
-4.0270185156165317
 30
0.0
 11
-0.0000000000000004
 21
-10.703026195070001
 31
0.0
  0
LINE
  5
8C
  8
COTATION-JACOBDELAFON
 62
     0
 10
9.5000000000000568
 20
-5.6972512868112508
 30
0.0
 11
9.5000000000000568
 21
-10.703026195070001
 31
0.0
  0
LINE
  5
8D
  8
COTATION-JACOBDELAFON
 62
     0
 10
-0.0000000000000003
 20
-8.9030261950700087
 30
0.0
 11
9.5000000000000568
 21
-8.9030261950700087
 31
0.0
  0
INSERT
  5
8E
  8
COTATION-JACOBDELAFON
 62
     0
  2
_OBLIQUE
 10
-0.0000000000000003
 20
-8.9030261950700087
 30
0.0
 41
1.8
 42
1.8
 43
1.8
 50
180.0
  0
INSERT
  5
8F
  8
COTATION-JACOBDELAFON
 62
     0
  2
_OBLIQUE
 10
9.5000000000000568
 20
-8.9030261950700087
 30
0.0
 41
1.8
 42
1.8
 43
1.8
  0
TEXT
  5
90
  8
0
  6
CONTINUOUS
 62
     0
 10
1.833901773533452
 20
-7.9457274229008412
 30
0.0
 40
3.0
  1
9.5
  7
JACOB-DELAFON
  0
POINT
  5
91
  8
DEFPOINTS
 62
     0
 10
0.0
 20
-3.4020185156165321
 30
0.0
  0
POINT
  5
92
  8
DEFPOINTS
 62
     0
 10
9.5000000000000568
 20
-5.0722512868112508
 30
0.0
  0
POINT
  5
93
  8
DEFPOINTS
 62
     0
 10
9.5000000000000568
 20
-8.9030261950700087
 30
0.0
  0
ENDBLK
  5
51
  8
0
  0
BLOCK
  8
0
  2
_OBLIQUE
 70
     0
 10
0.0
 20
0.0
 30
0.0
  3
_OBLIQUE
  1

  0
LINE
  5
5F
  8
0
  6
BYBLOCK
 62
     0
 10
-0.5
 20
-0.5
 30
0.0
 11
0.5
 21
0.5
 31
0.0
  0
ENDBLK
  5
61
  8
0
  0
BLOCK
  8
0
  2
ADCADD_ZZ
 70
     0
 10
0.0
 20
0.0
 30
0.0
  3
ADCADD_ZZ
  1

  0
ENDBLK
  5
AF
  8
0
  0
ENDSEC
  0
SECTION
  2
ENTITIES
  0
POLYLINE
  5
24
  8
0
  6
CONTINUOUS
 66
     1
 10
0.0
 20
0.0
 30
0.0
  0
VERTEX
  5
219
  8
0
  6
CONTINUOUS
 10
11.97334161071398
 20
-0.2239383053871506
 30
0.0
  0
VERTEX
  5
21A
  8
0
  6
CONTINUOUS
 10
11.754384801764781
 20
0.908063816193902
 30
0.0
  0
VERTEX
  5
21B
  8
0
  6
CONTINUOUS
 10
11.126487216268631
 20
1.870580541726411
 30
0.0
  0
VERTEX
  5
21C
  8
0
  6
CONTINUOUS
 10
10.188820714345979
 20
2.5140524609134611
 30
0.0
  0
VERTEX
  5
21D
  8
0
  6
CONTINUOUS
 10
9.0794929903444181
 20
2.7422851597815452
 30
0.0
  0
VERTEX
  5
21E
  8
0
  6
CONTINUOUS
 10
7.96363778825173
 20
2.5164573212628052
 30
0.0
  0
SEQEND
  5
21F
  8
0
  6
CONTINUOUS
  0
POLYLINE
  5
25
  8
0
  6
CONTINUOUS
 66
     1
 10
0.0
 20
0.0
 30
0.0
  0
VERTEX
  5
220
  8
0
  6
CONTINUOUS
 10
7.9632942367733222
 20
2.5414220620321251
 30
0.0
  0
VERTEX
  5
221
  8
0
  6
CONTINUOUS
 10
8.4166676712031858
 20
2.8781025109393852
 30
0.0
  0
VERTEX
  5
222
  8
0
  6
CONTINUOUS
 10
9.5092758899189676
 20
3.1682889930928009
 30
0.0
  0
VERTEX
  5
223
  8
0
  6
CONTINUOUS
 10
10.78018732596399
 20
2.8756976505900411
 30
0.0
  0
VERTEX
  5
224
  8
0
  6
CONTINUOUS
 10
12.05957303181162
 20
2.089193799197175
 30
0.0
  0
VERTEX
  5
225
  8
0
  6
CONTINUOUS
 10
13.02621237508594
 20
0.9807822124714959
 30
0.0
  0
VERTEX
  5
226
  8
0
  6
CONTINUOUS
 10
13.398507660595209
 20
-0.2239383053871506
 30
0.0
  0
VERTEX
  5
227
  8
0
  6
CONTINUOUS
 10
13.021173620068341
 20
-1.4302620634786929
 30
0.0
  0
VERTEX
  5
228
  8
0
  6
CONTINUOUS
 10
12.05453427679401
 20
-2.5390172016828378
 30
0.0
  0
VERTEX
  5
229
  8
0
  6
CONTINUOUS
 10
10.83297973648996
 20
-3.2980369347975791
 30
0.0
  0
VERTEX
  5
22A
  8
0
  6
CONTINUOUS
 10
9.4745771905927541
 20
-3.5914298974167589
 30
0.0
  0
VERTEX
  5
22B
  8
0
  6
CONTINUOUS
 10
8.4166676712031858
 20
-3.3362856660679929
 30
0.0
  0
VERTEX
  5
22C
  8
0
  6
CONTINUOUS
 10
8.1615234398544771
 20
-3.1388580831033148
 30
0.0
  0
VERTEX
  5
22D
  8
0
  6
CONTINUOUS
 10
6.9919596899599119
 20
-2.3409025157611718
 30
0.0
  0
SEQEND
  5
22E
  8
0
  6
CONTINUOUS
  0
POLYLINE
  5
26
  8
0
  6
CONTINUOUS
 66
     1
 10
0.0
 20
0.0
 30
0.0
  0
VERTEX
  5
22F
  8
0
  6
CONTINUOUS
 10
7.9632942367733222
 20
-2.9852905722241871
 30
0.0
  0
VERTEX
  5
230
  8
0
  6
CONTINUOUS
 10
9.0545282495750143
 20
-3.175503574140861
 30
0.0
  0
VERTEX
  5
231
  8
0
  6
CONTINUOUS
 10
10.261539110623509
 20
-2.947041840953744
 30
0.0
  0
VERTEX
  5
232
  8
0
  6
CONTINUOUS
 10
11.15007775112405
 20
-2.3310540400448749
 30
0.0
  0
VERTEX
  5
233
  8
0
  6
CONTINUOUS
 10
11.78358667743532
 20
-1.3652163168871141
 30
0.0
  0
VERTEX
  5
234
  8
0
  6
CONTINUOUS
 10
12.009529033113489
 20
-0.2239383053871506
 30
0.0
  0
VERTEX
  5
235
  8
0
  6
CONTINUOUS
 10
11.78862543245293
 20
0.9183703605482378
 30
0.0
  0
VERTEX
  5
236
  8
0
  6
CONTINUOUS
 10
11.15500198898223
 20
1.8897049073616179
 30
0.0
  0
VERTEX
  5
237
  8
0
  6
CONTINUOUS
 10
10.208746700097659
 20
2.539017201682781
 30
0.0
  0
VERTEX
  5
238
  8
0
  6
CONTINUOUS
 10
9.0892269489012278
 20
2.769311209421744
 30
0.0
  0
VERTEX
  5
239
  8
0
  6
CONTINUOUS
 10
7.9632942367733222
 20
2.5414220620321251
 30
0.0
  0
SEQEND
  5
23A
  8
0
  6
CONTINUOUS
  0
POLYLINE
  5
27
  8
0
  6
CONTINUOUS
 66
     1
 10
0.0
 20
0.0
 30
0.0
  0
VERTEX
  5
23B
  8
0
  6
CONTINUOUS
 10
11.97334161071398
 20
-0.2239383053871506
 30
0.0
  0
VERTEX
  5
23C
  8
0
  6
CONTINUOUS
 10
11.749460563906609
 20
-1.3549097725327779
 30
0.0
  0
VERTEX
  5
23D
  8
0
  6
CONTINUOUS
 10
11.121562978410561
 20
-2.3119296744096398
 30
0.0
  0
SEQEND
  5
23E
  8
0
  6
CONTINUOUS
  0
POLYLINE
  5
28
  8
0
  6
CONTINUOUS
 66
     1
 10
0.0
 20
0.0
 30
0.0
  0
VERTEX
  5
23F
  8
0
  6
CONTINUOUS
 10
7.310867693416184
 20
2.0978971033185871
 30
0.0
  0
VERTEX
  5
240
  8
0
  6
CONTINUOUS
 10
5.7517388526586037
 20
2.0978971033185871
 30
0.0
  0
VERTEX
  5
241
  8
0
  6
CONTINUOUS
 10
5.6705461865786901
 20
2.063541955470896
 30
0.0
  0
VERTEX
  5
242
  8
0
  6
CONTINUOUS
 10
5.6368781416878164
 20
1.9807460491579709
 30
0.0
  0
VERTEX
  5
243
  8
0
  6
CONTINUOUS
 10
5.6368781416878164
 20
-1.86565630386832
 30
0.0
  0
VERTEX
  5
244
  8
0
  6
CONTINUOUS
 10
5.6705461865786901
 20
-1.9485667273407039
 30
0.0
  0
VERTEX
  5
245
  8
0
  6
CONTINUOUS
 10
5.7517388526586037
 20
-1.982921875188367
 30
0.0
  0
VERTEX
  5
246
  8
0
  6
CONTINUOUS
 10
6.7150275582019949
 20
-1.982921875188367
 30
0.0
  0
SEQEND
  5
247
  8
0
  6
CONTINUOUS
  0
POLYLINE
  5
29
  8
0
  6
CONTINUOUS
 66
     1
 10
0.0
 20
0.0
 30
0.0
 70
     1
  0
VERTEX
  5
248
  8
0
  6
CONTINUOUS
 10
7.675398097809647
 20
1.367621177236372
 30
0.0
  0
VERTEX
  5
249
  8
0
  6
CONTINUOUS
 10
8.3946803765807072
 20
1.5761569246718059
 30
0.0
  0
VERTEX
  5
24A
  8
0
  6
CONTINUOUS
 10
8.8793169955519033
 20
1.556803524717622
 30
0.0
  0
VERTEX
  5
24B
  8
0
  6
CONTINUOUS
 10
9.3536470701689041
 20
1.4043811854334081
 30
0.0
  0
VERTEX
  5
24C
  8
0
  6
CONTINUOUS
 10
9.7598394348880202
 20
1.135609412105026
 30
0.0
  0
VERTEX
  5
24D
  8
0
  6
CONTINUOUS
 10
10.22615330834048
 20
0.5444718348059326
 30
0.0
  0
VERTEX
  5
24E
  8
0
  6
CONTINUOUS
 10
10.43022288655572
 20
-0.1725201007751309
 30
0.0
  0
VERTEX
  5
24F
  8
0
  6
CONTINUOUS
 10
10.34754149740229
 20
-0.9136751570090667
 30
0.0
  0
VERTEX
  5
250
  8
0
  6
CONTINUOUS
 10
9.9893318225105077
 20
-1.566193931795993
 30
0.0
  0
VERTEX
  5
251
  8
0
  6
CONTINUOUS
 10
9.4114782357125932
 20
-2.0307900478561569
 30
0.0
  0
VERTEX
  5
252
  8
0
  6
CONTINUOUS
 10
8.7014718468603842
 20
-2.2366919006232422
 30
0.0
  0
VERTEX
  5
253
  8
0
  6
CONTINUOUS
 10
7.9674168545150224
 20
-2.1525217883964269
 30
0.0
  0
VERTEX
  5
254
  8
0
  6
CONTINUOUS
 10
7.321082006340589
 20
-1.7912201501983409
 30
0.0
  0
VERTEX
  5
255
  8
0
  6
CONTINUOUS
 10
6.8608375423412999
 20
-1.207640705425745
 30
0.0
  0
VERTEX
  5
256
  8
0
  6
CONTINUOUS
 10
6.6566534469665148
 20
-0.490648769844654
 30
0.0
  0
VERTEX
  5
257
  8
0
  6
CONTINUOUS
 10
6.7399074219173372
 20
0.2505062863892817
 30
0.0
  0
VERTEX
  5
258
  8
0
  6
CONTINUOUS
 10
7.0975445110117326
 20
0.9030250611762654
 30
0.0
  0
VERTEX
  5
259
  8
0
  6
CONTINUOUS
 10
7.675398097809647
 20
1.367621177236372
 30
0.0
  0
SEQEND
  5
25A
  8
0
  6
CONTINUOUS
  0
POLYLINE
  5
2A
  8
0
  6
CONTINUOUS
 66
     1
 10
0.0
 20
0.0
 30
0.0
  0
VERTEX
  5
25B
  8
0
  6
CONTINUOUS
 10
8.3907867931578721
 20
1.7213646829079889
 30
0.0
  0
VERTEX
  5
25C
  8
0
  6
CONTINUOUS
 10
8.9122979374857323
 20
1.7006370770398851
 30
0.0
  0
VERTEX
  5
25D
  8
0
  6
CONTINUOUS
 10
9.4225864001831496
 20
1.5365339874874731
 30
0.0
  0
VERTEX
  5
25E
  8
0
  6
CONTINUOUS
 10
9.8595838808057579
 20
1.247378159769482
 30
0.0
  0
VERTEX
  5
25F
  8
0
  6
CONTINUOUS
 10
10.361283556541361
 20
0.6113498559494702
 30
0.0
  0
VERTEX
  5
260
  8
0
  6
CONTINUOUS
 10
10.58081295128806
 20
-0.159923213230968
 30
0.0
  0
VERTEX
  5
261
  8
0
  6
CONTINUOUS
 10
10.49194763552202
 20
-0.9574207119351001
 30
0.0
  0
VERTEX
  5
262
  8
0
  6
CONTINUOUS
 10
10.106482876671061
 20
-1.6594108996226851
 30
0.0
  0
VERTEX
  5
263
  8
0
  6
CONTINUOUS
 10
9.484769217787516
 20
-2.1592783008064478
 30
0.0
  0
VERTEX
  5
264
  8
0
  6
CONTINUOUS
 10
8.7209397639741155
 20
-2.3807544872644821
 30
0.0
  0
VERTEX
  5
265
  8
0
  6
CONTINUOUS
 10
7.9311149149559688
 20
-2.2902859312656001
 30
0.0
  0
VERTEX
  5
266
  8
0
  6
CONTINUOUS
 10
7.2357667225189743
 20
-1.90150017478939
 30
0.0
  0
VERTEX
  5
267
  8
0
  6
CONTINUOUS
 10
6.7404800077149503
 20
-1.2736025892932901
 30
0.0
  0
VERTEX
  5
268
  8
0
  6
CONTINUOUS
 10
6.5209506129682486
 20
-0.502329520112852
 30
0.0
  0
VERTEX
  5
269
  8
0
  6
CONTINUOUS
 10
6.6103885145315644
 20
0.2950534614317917
 30
0.0
  0
VERTEX
  5
26A
  8
0
  6
CONTINUOUS
 10
6.9952806875851357
 20
0.9971581662788935
 30
0.0
  0
SEQEND
  5
26B
  8
0
  6
CONTINUOUS
  0
POLYLINE
  5
2B
  8
0
  6
CONTINUOUS
 66
     1
 10
0.0
 20
0.0
 30
0.0
 70
     1
  0
VERTEX
  5
26C
  8
0
  6
CONTINUOUS
 10
6.8568294417590323
 20
1.303606085080218
 30
0.0
  0
VERTEX
  5
26D
  8
0
  6
CONTINUOUS
 10
7.4770543775690612
 20
1.7707215786491579
 30
0.0
  0
VERTEX
  5
26E
  8
0
  6
CONTINUOUS
 10
8.3663946381860796
 20
2.028614221825733
 30
0.0
  0
VERTEX
  5
26F
  8
0
  6
CONTINUOUS
 10
8.8976397410707477
 20
2.0074285473196758
 30
0.0
  0
VERTEX
  5
270
  8
0
  6
CONTINUOUS
 10
8.9536386320623933
 20
1.936771459912932
 30
0.0
  0
VERTEX
  5
271
  8
0
  6
CONTINUOUS
 10
9.0310522318791282
 20
1.983723495304758
 30
0.0
  0
VERTEX
  5
272
  8
0
  6
CONTINUOUS
 10
9.4868305266584212
 20
1.837141531154685
 30
0.0
  0
VERTEX
  5
273
  8
0
  6
CONTINUOUS
 10
9.5231324662174757
 20
1.753773039044318
 30
0.0
  0
VERTEX
  5
274
  8
0
  6
CONTINUOUS
 10
9.6092493701556805
 20
1.778394228335145
 30
0.0
  0
VERTEX
  5
275
  8
0
  6
CONTINUOUS
 10
10.05449208626157
 20
1.483856094121023
 30
0.0
  0
VERTEX
  5
276
  8
0
  6
CONTINUOUS
 10
10.631085984305169
 20
0.7527785479224179
 30
0.0
  0
VERTEX
  5
277
  8
0
  6
CONTINUOUS
 10
10.88348180382615
 20
-0.1336987837072456
 30
0.0
  0
VERTEX
  5
278
  8
0
  6
CONTINUOUS
 10
10.78121798039944
 20
-1.0501796111238659
 30
0.0
  0
VERTEX
  5
279
  8
0
  6
CONTINUOUS
 10
10.33826560748343
 20
-1.8570675169063691
 30
0.0
  0
VERTEX
  5
27A
  8
0
  6
CONTINUOUS
 10
9.623678532251688
 20
-2.4316001060790882
 30
0.0
  0
VERTEX
  5
27B
  8
0
  6
CONTINUOUS
 10
8.7457899875839757
 20
-2.6861717516303538
 30
0.0
  0
VERTEX
  5
27C
  8
0
  6
CONTINUOUS
 10
7.8380124642886813
 20
-2.5821901708114008
 30
0.0
  0
VERTEX
  5
27D
  8
0
  6
CONTINUOUS
 10
7.038797208192249
 20
-2.1353442144725809
 30
0.0
  0
VERTEX
  5
27E
  8
0
  6
CONTINUOUS
 10
6.4323143315211828
 20
-1.326738551297665
 30
0.0
  0
VERTEX
  5
27F
  8
0
  6
CONTINUOUS
 10
6.2677531733307879
 20
-0.5206522656316395
 30
0.0
  0
VERTEX
  5
280
  8
0
  6
CONTINUOUS
 10
6.3989898381088324
 20
0.4457580433236217
 30
0.0
  0
SEQEND
  5
281
  8
0
  6
CONTINUOUS
  0
POLYLINE
  5
2C
  8
0
  6
CONTINUOUS
 66
     1
 10
0.0
 20
0.0
 30
0.0
  0
VERTEX
  5
282
  8
0
  6
CONTINUOUS
 10
7.9632942367733222
 20
2.5414220620321251
 30
0.0
  0
VERTEX
  5
283
  8
0
  6
CONTINUOUS
 10
7.0076485408103499
 20
1.8917662162324971
 30
0.0
  0
VERTEX
  5
284
  8
0
  6
CONTINUOUS
 10
6.2761129259737336
 20
0.6846408380244782
 30
0.0
  0
VERTEX
  5
285
  8
0
  6
CONTINUOUS
 10
6.0959774340923332
 20
-0.4813728799257718
 30
0.0
  0
VERTEX
  5
286
  8
0
  6
CONTINUOUS
 10
6.347113564858887
 20
-1.507332111816992
 30
0.0
  0
VERTEX
  5
287
  8
0
  6
CONTINUOUS
 10
6.9919596899599119
 20
-2.3409025157611718
 30
0.0
  0
SEQEND
  5
288
  8
0
  6
CONTINUOUS
  0
POLYLINE
  5
2D
  8
0
  6
CONTINUOUS
 66
     1
 10
0.0
 20
0.0
 30
0.0
 70
     1
  0
VERTEX
  5
289
  8
0
  6
CONTINUOUS
 10
3.6316826789783359
 20
2.105226201526079
 30
0.0
  0
VERTEX
  5
28A
  8
0
  6
CONTINUOUS
 10
5.5221319478765727
 20
2.0980116204780752
 30
0.0
  0
VERTEX
  5
28B
  8
0
  6
CONTINUOUS
 10
5.6032100967971701
 20
2.0636564726303561
 30
0.0
  0
VERTEX
  5
28C
  8
0
  6
CONTINUOUS
 10
5.6368781416878164
 20
1.9807460491579709
 30
0.0
  0
VERTEX
  5
28D
  8
0
  6
CONTINUOUS
 10
5.6368781416878164
 20
-1.86565630386832
 30
0.0
  0
VERTEX
  5
28E
  8
0
  6
CONTINUOUS
 10
5.6040117169136456
 20
-1.9501699675735999
 30
0.0
  0
VERTEX
  5
28F
  8
0
  6
CONTINUOUS
 10
5.5244222910664567
 20
-1.9853267355377111
 30
0.0
  0
VERTEX
  5
290
  8
0
  6
CONTINUOUS
 10
3.6316826789783359
 20
-2.0580451318153048
 30
0.0
  0
SEQEND
  5
291
  8
0
  6
CONTINUOUS
  0
POLYLINE
  5
2E
  8
0
  6
CONTINUOUS
 66
     1
 10
0.0
 20
0.0
 30
0.0
  0
VERTEX
  5
292
  8
0
  6
CONTINUOUS
 10
0.2880106561231059
 20
3.4020185156165041
 30
0.0
  0
VERTEX
  5
293
  8
0
  6
CONTINUOUS
 10
0.2880106561231059
 20
-3.4020185156165321
 30
0.0
  0
SEQEND
  5
294
  8
0
  6
CONTINUOUS
  0
POLYLINE
  5
2F
  8
0
  6
CONTINUOUS
 66
     1
 10
0.0
 20
0.0
 30
0.0
 70
     1
  0
VERTEX
  5
295
  8
0
  6
CONTINUOUS
 10
0.0
 20
-3.4020185156165321
 30
0.0
  0
VERTEX
  5
296
  8
0
  6
CONTINUOUS
 10
0.0
 20
3.4020185156165041
 30
0.0
  0
VERTEX
  5
297
  8
0
  6
CONTINUOUS
 10
0.2880106561231059
 20
3.4020185156165041
 30
0.0
  0
VERTEX
  5
298
  8
0
  6
CONTINUOUS
 10
0.3911906168256109
 20
3.368235953566284
 30
0.0
  0
VERTEX
  5
299
  8
0
  6
CONTINUOUS
 10
1.2505273816556151
 20
2.8216455513096999
 30
0.0
  0
VERTEX
  5
29A
  8
0
  6
CONTINUOUS
 10
1.8982364357439101
 20
2.5873434429884981
 30
0.0
  0
VERTEX
  5
29B
  8
0
  6
CONTINUOUS
 10
2.8471256192967749
 20
2.3835028990922629
 30
0.0
  0
VERTEX
  5
29C
  8
0
  6
CONTINUOUS
 10
3.571790204563853
 20
2.3063183335945041
 30
0.0
  0
VERTEX
  5
29D
  8
0
  6
CONTINUOUS
 10
3.6288197499910662
 20
2.2487162023699052
 30
0.0
  0
VERTEX
  5
29E
  8
0
  6
CONTINUOUS
 10
3.6288197499910662
 20
-2.2486016852104451
 30
0.0
  0
VERTEX
  5
29F
  8
0
  6
CONTINUOUS
 10
3.571790204563853
 20
-2.3063183335945321
 30
0.0
  0
VERTEX
  5
2A0
  8
0
  6
CONTINUOUS
 10
2.8471256192967749
 20
-2.3835028990923202
 30
0.0
  0
VERTEX
  5
2A1
  8
0
  6
CONTINUOUS
 10
1.8982364357439101
 20
-2.587343442988554
 30
0.0
  0
VERTEX
  5
2A2
  8
0
  6
CONTINUOUS
 10
1.2505273816556151
 20
-2.8215310341502402
 30
0.0
  0
VERTEX
  5
2A3
  8
0
  6
CONTINUOUS
 10
0.3911906168256109
 20
-3.368121436406823
 30
0.0
  0
VERTEX
  5
2A4
  8
0
  6
CONTINUOUS
 10
0.2880106561231059
 20
-3.4020185156165321
 30
0.0
  0
SEQEND
  5
2A5
  8
0
  6
CONTINUOUS
  0
POLYLINE
  5
30
  8
0
  6
CONTINUOUS
 66
     1
 10
0.0
 20
0.0
 30
0.0
  0
VERTEX
  5
2A6
  8
0
  6
CONTINUOUS
 10
8.3268862181612349
 20
-3.266813841541818
 30
0.0
  0
VERTEX
  5
2A7
  8
0
  6
CONTINUOUS
 10
8.3268862181612349
 20
-5.0722512868112508
 30
0.0
  0
VERTEX
  5
2A8
  8
0
  6
CONTINUOUS
 10
10.67311378183887
 20
-5.0722512868112508
 30
0.0
  0
VERTEX
  5
2A9
  8
0
  6
CONTINUOUS
 10
10.67311378183887
 20
-3.3325653933893871
 30
0.0
  0
SEQEND
  5
2AA
  8
0
  6
CONTINUOUS
  0
POLYLINE
  5
31
  8
0
  6
CONTINUOUS
 66
     1
 10
0.0
 20
0.0
 30
0.0
  0
VERTEX
  5
2AB
  8
0
  6
CONTINUOUS
 10
11.121562978410561
 20
-2.3119296744096398
 30
0.0
  0
VERTEX
  5
2AC
  8
0
  6
CONTINUOUS
 10
10.24104053907444
 20
-2.9223061345034291
 30
0.0
  0
VERTEX
  5
2AD
  8
0
  6
CONTINUOUS
 10
9.0450233253371835
 20
-3.1487065588196681
 30
0.0
  0
VERTEX
  5
2AE
  8
0
  6
CONTINUOUS
 10
7.96363778825173
 20
-2.9602113142953779
 30
0.0
  0
SEQEND
  5
2AF
  8
0
  6
CONTINUOUS
  0
POLYLINE
  5
32
  8
0
  6
CONTINUOUS
 66
     1
 10
0.0
 20
0.0
 30
0.0
  0
VERTEX
  5
2B0
  8
0
  6
CONTINUOUS
 10
8.3907867931578721
 20
1.7213646829079889
 30
0.0
  0
VERTEX
  5
2B1
  8
0
  6
CONTINUOUS
 10
7.6169943464686858
 20
1.497025567462628
 30
0.0
  0
VERTEX
  5
2B2
  8
0
  6
CONTINUOUS
 10
6.9952806875851357
 20
0.9971581662788935
 30
0.0
  0
SEQEND
  5
2B3
  8
0
  6
CONTINUOUS
  0
POLYLINE
  5
33
  8
0
  6
CONTINUOUS
 66
     1
 10
0.0
 20
0.0
 30
0.0
 70
     1
  0
VERTEX
  5
2B4
  8
0
  6
CONTINUOUS
 10
7.804115385079057
 20
0.2813114022927152
 30
0.0
  0
VERTEX
  5
2B5
  8
0
  6
CONTINUOUS
 10
8.0921260412021638
 20
0.5128650987860796
 30
0.0
  0
VERTEX
  5
2B6
  8
0
  6
CONTINUOUS
 10
8.4506792675723545
 20
0.6168466796050894
 30
0.0
  0
VERTEX
  5
2B7
  8
0
  6
CONTINUOUS
 10
8.6921959569416458
 20
0.607112721048253
 30
0.0
  0
VERTEX
  5
2B8
  8
0
  6
CONTINUOUS
 10
8.9286738912931014
 20
0.531187844304867
 30
0.0
  0
VERTEX
  5
2B9
  8
0
  6
CONTINUOUS
 10
9.1311402292753883
 20
0.3972027676989285
 30
0.0
  0
VERTEX
  5
2BA
  8
0
  6
CONTINUOUS
 10
9.3634955458852573
 20
0.1025501163253182
 30
0.0
  0
VERTEX
  5
2BB
  8
0
  6
CONTINUOUS
 10
9.4651867835143548
 20
-0.2547434212905841
 30
0.0
  0
VERTEX
  5
2BC
  8
0
  6
CONTINUOUS
 10
9.4239606060971255
 20
-0.6241757778126101
 30
0.0
  0
VERTEX
  5
2BD
  8
0
  6
CONTINUOUS
 10
9.2454283544486771
 20
-0.9494045107706483
 30
0.0
  0
VERTEX
  5
2BE
  8
0
  6
CONTINUOUS
 10
8.9574176983256848
 20
-1.1809582072640401
 30
0.0
  0
VERTEX
  5
2BF
  8
0
  6
CONTINUOUS
 10
8.60355967549458
 20
-1.283565582169075
 30
0.0
  0
VERTEX
  5
2C0
  8
0
  6
CONTINUOUS
 10
8.2376773509167833
 20
-1.241652301794943
 30
0.0
  0
VERTEX
  5
2C1
  8
0
  6
CONTINUOUS
 10
7.9155405812649633
 20
-1.0615168099135981
 30
0.0
  0
VERTEX
  5
2C2
  8
0
  6
CONTINUOUS
 10
7.6861627108019093
 20
-0.7706432248032514
 30
0.0
  0
VERTEX
  5
2C3
  8
0
  6
CONTINUOUS
 10
7.5844714731728109
 20
-0.4133496871873775
 30
0.0
  0
VERTEX
  5
2C4
  8
0
  6
CONTINUOUS
 10
7.6258121677495856
 20
-0.0439173306652947
 30
0.0
  0
SEQEND
  5
2C5
  8
0
  6
CONTINUOUS
  0
POLYLINE
  5
34
  8
0
  6
CONTINUOUS
 66
     1
 10
0.0
 20
0.0
 30
0.0
  0
VERTEX
  5
2C6
  8
0
  6
CONTINUOUS
 10
8.9715033089431682
 20
2.0120092336993869
 30
0.0
  0
VERTEX
  5
2C7
  8
0
  6
CONTINUOUS
 10
9.2457719059271994
 20
2.723733379943809
 30
0.0
  0
VERTEX
  5
2C8
  8
0
  6
CONTINUOUS
 10
9.5480972069867676
 20
2.8760412020685062
 30
0.0
  0
VERTEX
  5
2C9
  8
0
  6
CONTINUOUS
 10
10.132363754716261
 20
2.6811329966126598
 30
0.0
  0
VERTEX
  5
2CA
  8
0
  6
CONTINUOUS
 10
10.290168400496659
 20
2.541765613510591
 30
0.0
  0
VERTEX
  5
2CB
  8
0
  6
CONTINUOUS
 10
10.32303482527095
 20
2.4239274563930451
 30
0.0
  0
VERTEX
  5
2CC
  8
0
  6
CONTINUOUS
 10
9.5604650602118681
 20
1.8227123690586491
 30
0.0
  0
SEQEND
  5
2CD
  8
0
  6
CONTINUOUS
  0
POLYLINE
  5
35
  8
0
  6
CONTINUOUS
 66
     1
 10
0.0
 20
0.0
 30
0.0
  0
VERTEX
  5
2CE
  8
0
  6
CONTINUOUS
 10
9.8288932820618111
 20
2.5155411839868691
 30
0.0
  0
VERTEX
  5
2CF
  8
0
  6
CONTINUOUS
 10
9.7867509673686754
 20
2.6038339139554121
 30
0.0
  0
VERTEX
  5
2D0
  8
0
  6
CONTINUOUS
 10
9.2997094880480518
 20
2.7609514567787978
 30
0.0
  0
SEQEND
  5
2D1
  8
0
  6
CONTINUOUS
  0
POLYLINE
  5
36
  8
0
  6
CONTINUOUS
 66
     1
 10
0.0
 20
0.0
 30
0.0
  0
VERTEX
  5
2D2
  8
0
  6
CONTINUOUS
 10
9.3876586665380728
 20
2.8044679773858538
 30
0.0
  0
VERTEX
  5
2D3
  8
0
  6
CONTINUOUS
 10
9.8942825801318577
 20
2.631547066552542
 30
0.0
  0
VERTEX
  5
2D4
  8
0
  6
CONTINUOUS
 10
9.9316151741263639
 20
2.5592867389129021
 30
0.0
  0
VERTEX
  5
2D5
  8
0
  6
CONTINUOUS
 10
9.7657943271816521
 20
1.984296081102257
 30
0.0
  0
SEQEND
  5
2D6
  8
0
  6
CONTINUOUS
  0
POLYLINE
  5
37
  8
0
  6
CONTINUOUS
 66
     1
 10
0.0
 20
0.0
 30
0.0
  0
VERTEX
  5
2D7
  8
0
  6
CONTINUOUS
 10
9.8288932820618111
 20
2.5155411839868691
 30
0.0
  0
VERTEX
  5
2D8
  8
0
  6
CONTINUOUS
 10
9.5604650602118681
 20
1.8227123690586491
 30
0.0
  0
SEQEND
  5
2D9
  8
0
  6
CONTINUOUS
  0
POLYLINE
  5
38
  8
0
  6
CONTINUOUS
 66
     1
 10
0.0
 20
0.0
 30
0.0
  0
VERTEX
  5
2DA
  8
0
  6
CONTINUOUS
 10
10.169696348710771
 20
2.6089871861325662
 30
0.0
  0
VERTEX
  5
2DB
  8
0
  6
CONTINUOUS
 10
10.33311233530628
 20
2.4555341924129261
 30
0.0
  0
SEQEND
  5
2DC
  8
0
  6
CONTINUOUS
  0
POLYLINE
  5
39
  8
0
  6
CONTINUOUS
 66
     1
 10
0.0
 20
0.0
 30
0.0
  0
VERTEX
  5
2DD
  8
0
  6
CONTINUOUS
 10
10.169696348710771
 20
2.6089871861325662
 30
0.0
  0
VERTEX
  5
2DE
  8
0
  6
CONTINUOUS
 10
10.08724399387631
 20
2.2378370722181269
 30
0.0
  0
SEQEND
  5
2DF
  8
0
  6
CONTINUOUS
  0
POLYLINE
  5
3A
  8
0
  6
CONTINUOUS
 66
     1
 10
0.0
 20
0.0
 30
0.0
  0
VERTEX
  5
2E0
  8
0
  6
CONTINUOUS
 10
9.7867509673686754
 20
2.6038339139554121
 30
0.0
  0
VERTEX
  5
2E1
  8
0
  6
CONTINUOUS
 10
10.132363754716261
 20
2.6811329966126598
 30
0.0
  0
SEQEND
  5
2E2
  8
0
  6
CONTINUOUS
  0
POLYLINE
  5
3B
  8
0
  6
CONTINUOUS
 66
     1
 10
0.0
 20
0.0
 30
0.0
  0
VERTEX
  5
2E3
  8
0
  6
CONTINUOUS
 10
9.8288932820618111
 20
2.5155411839868691
 30
0.0
  0
VERTEX
  5
2E4
  8
0
  6
CONTINUOUS
 10
10.169696348710771
 20
2.6089871861325662
 30
0.0
  0
VERTEX
  5
2E5
  8
0
  6
CONTINUOUS
 10
10.132363754716261
 20
2.6811329966126598
 30
0.0
  0
SEQEND
  5
2E6
  8
0
  6
CONTINUOUS
  0
DIMENSION
  5
43
  8
COTATION-JACOBDELAFON
  2
*D0
 10
9.5000000000000568
 20
-8.9030261950700087
 30
0.0
 11
4.7500000000000284
 21
-6.471307231904933
 31
0.0
 70
     0
 13
0.0
 23
-3.4020185156165321
 33
0.0
 14
9.5000000000000568
 24
-5.0722512868112508
 34
0.0
  0
INSERT
  5
B0
 67
     1
  8
0
  6
CONTINUOUS
  2
ADCADD_ZZ
 10
0.0
 20
0.0
 30
0.0
1001
ADCADD_ZZ
1070
   205
1070
    14
1070
   209
1070
     1
1070
   231
1070
     0
1070
   235
1070
     0
1070
   236
1070
     4
1070
   237
1070
     2
1070
   238
1070
     4
1070
   239
1070
     2
1070
   240
1070
     0
1070
   241
1070
  4096
1070
   242
1070
     2
1070
   244
1070
     0
1070
   245
1070
     1
1070
   303
1040
0.1
1070
   304
1040
4.0
1070
   305
1040
1.0
1070
   306
1040
1.0
1070
   337
1040
0.0
1070
   338
1040
0.3048
1070
   339
1040
0.0625
1070
   340
1040
96.0
1070
   341
1040
4.0
1070
   342
1040
1.0
1070
   530
1010
0.0
1020
0.0
1030
0.0
1070
   531
1010
0.0
1020
0.0
1030
0.0
1070
   107
1000

1070
   108
1000
Architectural Desktop
1070
   135
1000
L120
1070
   136
1000
'
1070
   137
1000
m
1001
SDSK_PMN
1070
   100
1000
ACADARCH
1070
   300
1040
2453077.6586409719
  0
ENDSEC
  0
EOF
