  0
SECTION
  2
HEADER
  9
$ACADVER
  1
AC1021
  9
$ACADMAINTVER
 70
    50
  9
$DWGCODEPAGE
  3
ANSI_1252
  9
$LASTSAVEDBY
  1
François
  9
$INSBASE
 10
189.172605
 20
147.473858
 30
0.0
  9
$EXTMIN
 10
165.6981415745096
 20
144.986013
 30
-0.0015258207003583
  9
$EXTMAX
 10
211.727441
 20
174.0872354694164
 30
0.0000000349246037
  9
$LIMMIN
 10
189.16003
 20
145.873611
  9
$LIMMAX
 10
210.839844
 20
154.12651
  9
$ORTHOMODE
 70
     0
  9
$REGENMODE
 70
     1
  9
$FILLMODE
 70
     1
  9
$QTEXTMODE
 70
     0
  9
$MIRRTEXT
 70
     1
  9
$LTSCALE
 40
1.0
  9
$ATTMODE
 70
     1
  9
$TEXTSIZE
 40
0.0
  9
$TRACEWID
 40
0.05
  9
$TEXTSTYLE
  7
Standard
  9
$CLAYER
  8
Cotation-JacobDelafon
  9
$CELTYPE
  6
Continuous
  9
$CECOLOR
 62
   256
  9
$CELTSCALE
 40
1.0
  9
$DISPSILH
 70
     0
  9
$DIMSCALE
 40
1.0
  9
$DIMASZ
 40
1.8
  9
$DIMEXO
 40
0.625
  9
$DIMDLI
 40
3.799999999999998
  9
$DIMRND
 40
0.0
  9
$DIMDLE
 40
0.0
  9
$DIMEXE
 40
1.8
  9
$DIMTP
 40
0.0
  9
$DIMTM
 40
0.0
  9
$DIMTXT
 40
3.0
  9
$DIMCEN
 40
0.9
  9
$DIMTSZ
 40
0.0
  9
$DIMTOL
 70
     0
  9
$DIMLIM
 70
     0
  9
$DIMTIH
 70
     0
  9
$DIMTOH
 70
     0
  9
$DIMSE1
 70
     0
  9
$DIMSE2
 70
     0
  9
$DIMTAD
 70
     1
  9
$DIMZIN
 70
    12
  9
$DIMBLK
  1
Oblique
  9
$DIMASO
 70
     1
  9
$DIMSHO
 70
     1
  9
$DIMPOST
  1

  9
$DIMAPOST
  1

  9
$DIMALT
 70
     0
  9
$DIMALTD
 70
     2
  9
$DIMALTF
 40
25.4
  9
$DIMLFAC
 40
1.0
  9
$DIMTOFL
 70
     0
  9
$DIMTVP
 40
0.0
  9
$DIMTIX
 70
     0
  9
$DIMSOXD
 70
     0
  9
$DIMSAH
 70
     0
  9
$DIMBLK1
  1

  9
$DIMBLK2
  1

  9
$DIMSTYLE
  2
Cotation-Jacob-Delafon
  9
$DIMCLRD
 70
     0
  9
$DIMCLRE
 70
     0
  9
$DIMCLRT
 70
     0
  9
$DIMTFAC
 40
1.0
  9
$DIMGAP
 40
0.9
  9
$DIMJUST
 70
     0
  9
$DIMSD1
 70
     0
  9
$DIMSD2
 70
     0
  9
$DIMTOLJ
 70
     1
  9
$DIMTZIN
 70
     0
  9
$DIMALTZ
 70
     0
  9
$DIMALTTZ
 70
     0
  9
$DIMUPT
 70
     0
  9
$DIMDEC
 70
     2
  9
$DIMTDEC
 70
     2
  9
$DIMALTU
 70
     2
  9
$DIMALTTD
 70
     2
  9
$DIMTXSTY
  7
Jacob-Delafon
  9
$DIMAUNIT
 70
     0
  9
$DIMADEC
 70
     0
  9
$DIMALTRND
 40
0.0
  9
$DIMAZIN
 70
     3
  9
$DIMDSEP
 70
    46
  9
$DIMATFIT
 70
     3
  9
$DIMFRAC
 70
     0
  9
$DIMLDRBLK
  1
Oblique
  9
$DIMLUNIT
 70
     2
  9
$DIMLWD
 70
    -2
  9
$DIMLWE
 70
    -2
  9
$DIMTMOVE
 70
     2
  9
$DIMFXL
 40
1.0
  9
$DIMFXLON
 70
     0
  9
$DIMJOGANG
 40
0.7853981633974483
  9
$DIMTFILL
 70
     0
  9
$DIMTFILLCLR
 70
     0
  9
$DIMARCSYM
 70
     0
  9
$DIMLTYPE
  6

  9
$DIMLTEX1
  6

  9
$DIMLTEX2
  6

  9
$LUNITS
 70
     2
  9
$LUPREC
 70
     4
  9
$SKETCHINC
 40
0.1
  9
$FILLETRAD
 40
0.0
  9
$AUNITS
 70
     0
  9
$AUPREC
 70
     0
  9
$MENU
  1
acad
  9
$ELEVATION
 40
0.0
  9
$PELEVATION
 40
0.0
  9
$THICKNESS
 40
0.0
  9
$LIMCHECK
 70
     0
  9
$CHAMFERA
 40
0.0
  9
$CHAMFERB
 40
0.0
  9
$CHAMFERC
 40
0.0
  9
$CHAMFERD
 40
0.0
  9
$SKPOLY
 70
     0
  9
$TDCREATE
 40
2455577.964056887
  9
$TDUCREATE
 40
2455577.922390220
  9
$TDUPDATE
 40
2455577.972995868
  9
$TDUUPDATE
 40
2455577.931329202
  9
$TDINDWG
 40
0.0089406134
  9
$TDUSRTIMER
 40
0.0089404282
  9
$USRTIMER
 70
     1
  9
$ANGBASE
 50
0.0
  9
$ANGDIR
 70
     0
  9
$PDMODE
 70
     0
  9
$PDSIZE
 40
0.0
  9
$PLINEWID
 40
0.0
  9
$SPLFRAME
 70
     0
  9
$SPLINETYPE
 70
     6
  9
$SPLINESEGS
 70
     8
  9
$HANDSEED
  5
1C5
  9
$SURFTAB1
 70
     6
  9
$SURFTAB2
 70
     6
  9
$SURFTYPE
 70
     6
  9
$SURFU
 70
     6
  9
$SURFV
 70
     6
  9
$UCSBASE
  2

  9
$UCSNAME
  2

  9
$UCSORG
 10
0.0
 20
0.0
 30
0.0
  9
$UCSXDIR
 10
1.0
 20
0.0
 30
0.0
  9
$UCSYDIR
 10
0.0
 20
1.0
 30
0.0
  9
$UCSORTHOREF
  2

  9
$UCSORTHOVIEW
 70
     0
  9
$UCSORGTOP
 10
0.0
 20
0.0
 30
0.0
  9
$UCSORGBOTTOM
 10
0.0
 20
0.0
 30
0.0
  9
$UCSORGLEFT
 10
0.0
 20
0.0
 30
0.0
  9
$UCSORGRIGHT
 10
0.0
 20
0.0
 30
0.0
  9
$UCSORGFRONT
 10
0.0
 20
0.0
 30
0.0
  9
$UCSORGBACK
 10
0.0
 20
0.0
 30
0.0
  9
$PUCSBASE
  2

  9
$PUCSNAME
  2

  9
$PUCSORG
 10
0.0
 20
0.0
 30
0.0
  9
$PUCSXDIR
 10
1.0
 20
0.0
 30
0.0
  9
$PUCSYDIR
 10
0.0
 20
1.0
 30
0.0
  9
$PUCSORTHOREF
  2

  9
$PUCSORTHOVIEW
 70
     0
  9
$PUCSORGTOP
 10
0.0
 20
0.0
 30
0.0
  9
$PUCSORGBOTTOM
 10
0.0
 20
0.0
 30
0.0
  9
$PUCSORGLEFT
 10
0.0
 20
0.0
 30
0.0
  9
$PUCSORGRIGHT
 10
0.0
 20
0.0
 30
0.0
  9
$PUCSORGFRONT
 10
0.0
 20
0.0
 30
0.0
  9
$PUCSORGBACK
 10
0.0
 20
0.0
 30
0.0
  9
$USERI1
 70
     0
  9
$USERI2
 70
     0
  9
$USERI3
 70
     0
  9
$USERI4
 70
     0
  9
$USERI5
 70
     0
  9
$USERR1
 40
0.0
  9
$USERR2
 40
0.0
  9
$USERR3
 40
0.0
  9
$USERR4
 40
0.0
  9
$USERR5
 40
0.0
  9
$WORLDVIEW
 70
     1
  9
$SHADEDGE
 70
     3
  9
$SHADEDIF
 70
    70
  9
$TILEMODE
 70
     1
  9
$MAXACTVP
 70
    16
  9
$PINSBASE
 10
0.0
 20
0.0
 30
0.0
  9
$PLIMCHECK
 70
     0
  9
$PEXTMIN
 10
1.000000000000000E+20
 20
1.000000000000000E+20
 30
1.000000000000000E+20
  9
$PEXTMAX
 10
-1.000000000000000E+20
 20
-1.000000000000000E+20
 30
-1.000000000000000E+20
  9
$PLIMMIN
 10
0.0
 20
0.0
  9
$PLIMMAX
 10
12.0
 20
9.0
  9
$UNITMODE
 70
     0
  9
$VISRETAIN
 70
     0
  9
$PLINEGEN
 70
     1
  9
$PSLTSCALE
 70
     0
  9
$TREEDEPTH
 70
  3020
  9
$CMLSTYLE
  2
Standard
  9
$CMLJUST
 70
     0
  9
$CMLSCALE
 40
1.0
  9
$PROXYGRAPHICS
 70
     0
  9
$MEASUREMENT
 70
     1
  9
$CELWEIGHT
370
     0
  9
$ENDCAPS
280
     0
  9
$JOINSTYLE
280
     0
  9
$LWDISPLAY
290
     0
  9
$INSUNITS
 70
     0
  9
$HYPERLINKBASE
  1

  9
$STYLESHEET
  1

  9
$XEDIT
290
     1
  9
$CEPSNTYPE
380
     0
  9
$PSTYLEMODE
290
     1
  9
$FINGERPRINTGUID
  2

  9
$VERSIONGUID
  2
{F7EB649A-5D49-4413-B7FA-A06FA53BC9C6}
  9
$EXTNAMES
290
     1
  9
$PSVPSCALE
 40
0.0
  9
$OLESTARTUP
290
     0
  9
$SORTENTS
280
   127
  9
$INDEXCTL
280
     0
  9
$HIDETEXT
280
     0
  9
$XCLIPFRAME
290
     0
  9
$HALOGAP
280
     0
  9
$OBSCOLOR
 70
   257
  9
$OBSLTYPE
280
     0
  9
$INTERSECTIONDISPLAY
280
     0
  9
$INTERSECTIONCOLOR
 70
   257
  9
$DIMASSOC
280
     1
  9
$PROJECTNAME
  1

  9
$CAMERADISPLAY
290
     0
  9
$LENSLENGTH
 40
50.0
  9
$CAMERAHEIGHT
 40
0.0
  9
$STEPSPERSEC
 40
2.0
  9
$STEPSIZE
 40
6.0
  9
$3DDWFPREC
 40
2.0
  9
$PSOLWIDTH
 40
0.25
  9
$PSOLHEIGHT
 40
4.0
  9
$LOFTANG1
 40
1.570796326794896
  9
$LOFTANG2
 40
1.570796326794896
  9
$LOFTMAG1
 40
0.0
  9
$LOFTMAG2
 40
0.0
  9
$LOFTPARAM
 70
     7
  9
$LOFTNORMALS
280
     1
  9
$LATITUDE
 40
37.795
  9
$LONGITUDE
 40
-122.394
  9
$NORTHDIRECTION
 40
0.0
  9
$TIMEZONE
 70
 -8000
  9
$LIGHTGLYPHDISPLAY
280
     1
  9
$TILEMODELIGHTSYNCH
280
     1
  9
$CMATERIAL
347
137
  9
$SOLIDHIST
280
     1
  9
$SHOWHIST
280
     1
  9
$DWFFRAME
280
     2
  9
$DGNFRAME
280
     0
  9
$REALWORLDSCALE
290
     1
  9
$INTERFERECOLOR
 62
     1
  9
$INTERFEREOBJVS
345
159
  9
$INTERFEREVPVS
346
156
  9
$CSHADOW
280
     0
  9
$SHADOWPLANELOCATION
 40
0.0
  0
ENDSEC
  0
SECTION
  2
CLASSES
  0
CLASS
  1
IMAGE
  2
AcDbRasterImage
  3
ISM
 90
     2175
 91
        0
280
     0
281
     1
  0
CLASS
  1
DICTIONARYVAR
  2
AcDbDictionaryVar
  3
ObjectDBX Classes
 90
        0
 91
        7
280
     0
281
     0
  0
CLASS
  1
RASTERVARIABLES
  2
AcDbRasterVariables
  3
ISM
 90
        0
 91
        0
280
     0
281
     0
  0
CLASS
  1
IMAGEDEF
  2
AcDbRasterImageDef
  3
ISM
 90
        0
 91
        0
280
     0
281
     0
  0
CLASS
  1
IMAGEDEF_REACTOR
  2
AcDbRasterImageDefReactor
  3
ISM
 90
        1
 91
        0
280
     0
281
     0
  0
CLASS
  1
IDBUFFER
  2
AcDbIdBuffer
  3
ObjectDBX Classes
 90
        0
 91
        0
280
     0
281
     0
  0
CLASS
  1
SPATIAL_FILTER
  2
AcDbSpatialFilter
  3
ObjectDBX Classes
 90
        0
 91
        0
280
     0
281
     0
  0
CLASS
  1
SORTENTSTABLE
  2
AcDbSortentsTable
  3
ObjectDBX Classes
 90
        0
 91
        0
280
     0
281
     0
  0
CLASS
  1
LAYER_INDEX
  2
AcDbLayerIndex
  3
ObjectDBX Classes
 90
        0
 91
        0
280
     0
281
     0
  0
CLASS
  1
SPATIAL_INDEX
  2
AcDbSpatialIndex
  3
ObjectDBX Classes
 90
        0
 91
        0
280
     0
281
     0
  0
CLASS
  1
OBJECT_PTR
  2
CAseDLPNTableRecord
  3
"ASE-LPNTableRecord"
 90
        1
 91
        0
280
     0
281
     0
  0
CLASS
  1
PLOTSETTINGS
  2
AcDbPlotSettings
  3
ObjectDBX Classes
 90
        0
 91
        0
280
     0
281
     0
  0
CLASS
  1
ACDBDICTIONARYWDFLT
  2
AcDbDictionaryWithDefault
  3
ObjectDBX Classes
 90
        0
 91
        1
280
     0
281
     0
  0
CLASS
  1
WIPEOUT
  2
AcDbWipeout
  3
"WipeOut|Product Desc: Object Enabler for WipeOut entity                        |Company: Autodesk, Inc.                        |WEB Address: www.autodesk.com"
 90
     2175
 91
        0
280
     0
281
     1
  0
CLASS
  1
WIPEOUTVARIABLES
  2
AcDbWipeoutVariables
  3
"WipeOut|Product Desc:     WipeOut Dbx Application|Company:          Autodesk, Inc.|WEB Address:      www.autodesk.com"
 90
        0
 91
        1
280
     0
281
     0
  0
CLASS
  1
RTEXT
  2
RText
  3
RText|AutoCAD Express Tool|expresstools@autodesk.com
 90
        0
 91
        0
280
     0
281
     1
  0
CLASS
  1
ARCALIGNEDTEXT
  2
AcDbArcAlignedText
  3
ATEXT|AutoCAD Express Tool|expresstools@autodesk.com
 90
        0
 91
        0
280
     0
281
     1
  0
CLASS
  1
MATERIAL
  2
AcDbMaterial
  3
ObjectDBX Classes
 90
     1153
 91
        3
280
     0
281
     0
  0
CLASS
  1
VISUALSTYLE
  2
AcDbVisualStyle
  3
ObjectDBX Classes
 90
     4095
 91
       16
280
     0
281
     0
  0
CLASS
  1
TABLESTYLE
  2
AcDbTableStyle
  3
ObjectDBX Classes
 90
     4095
 91
        1
280
     0
281
     0
  0
CLASS
  1
SCALE
  2
AcDbScale
  3
ObjectDBX Classes
 90
     1153
 91
       17
280
     0
281
     0
  0
CLASS
  1
MLEADERSTYLE
  2
AcDbMLeaderStyle
  3
ACDB_MLEADERSTYLE_CLASS
 90
     4095
 91
        1
280
     0
281
     0
  0
CLASS
  1
AEC_REFEDIT_STATUS_TRACKER
  2
AecDbRefEditStatusTracker
  3
AecArchBase50|Product Desc: Autodesk Architectural Desktop 2007 |Company: Autodesk,Inc. |WEB Address: www.autodesk.com
 90
      129
 91
        1
280
     0
281
     0
  0
CLASS
  1
NPOCOLLECTION
  2
AcDbImpNonPersistentObjectsCollection
  3
ObjectDBX Classes
 90
     1153
 91
        1
280
     0
281
     0
  0
CLASS
  1
CELLSTYLEMAP
  2
AcDbCellStyleMap
  3
ObjectDBX Classes
 90
     1152
 91
        1
280
     0
281
     0
  0
ENDSEC
  0
SECTION
  2
TABLES
  0
TABLE
  2
VPORT
  5
7
330
0
100
AcDbSymbolTable
 70
     1
  0
VPORT
  5
15
330
7
100
AcDbSymbolTableRecord
100
AcDbViewportTableRecord
  2
*ACTIVE
 70
     0
 10
0.0
 20
0.0
 11
1.0
 21
1.0
 12
185.2399710026855
 22
160.0184017414233
 13
0.0
 23
0.0
 14
1.0
 24
1.0
 15
0.0
 25
0.0
 16
0.0
 26
0.0
 36
1.0
 17
0.0
 27
0.0
 37
0.0
 40
47.84132072581383
 41
1.31063829787234
 42
50.0
 43
0.0
 44
0.0
 50
0.0
 51
0.0
 71
     0
 72
   100
 73
     1
 74
     1
 75
     0
 76
     0
 77
     0
 78
     0
281
     0
 65
     0
110
0.0
120
0.0
130
0.0
111
1.0
121
0.0
131
0.0
112
0.0
122
1.0
132
0.0
 79
     0
146
0.0
348
155
 60
     3
 61
     5
292
     1
282
     1
141
0.0
142
0.0
 63
   250
421
  3355443
  0
ENDTAB
  0
TABLE
  2
LTYPE
  5
4
330
0
100
AcDbSymbolTable
 70
     1
  0
LTYPE
  5
11
330
4
100
AcDbSymbolTableRecord
100
AcDbLinetypeTableRecord
  2
ByBlock
 70
     0
  3

 72
    65
 73
     0
 40
0.0
  0
LTYPE
  5
12
330
4
100
AcDbSymbolTableRecord
100
AcDbLinetypeTableRecord
  2
ByLayer
 70
     0
  3

 72
    65
 73
     0
 40
0.0
  0
LTYPE
  5
13
330
4
100
AcDbSymbolTableRecord
100
AcDbLinetypeTableRecord
  2
Continuous
 70
     0
  3
Solid line
 72
    65
 73
     0
 40
0.0
  0
ENDTAB
  0
TABLE
  2
LAYER
  5
2
330
0
100
AcDbSymbolTable
 70
     3
  0
LAYER
  5
14
102
{ACAD_XDICTIONARY
360
1B7
102
}
330
2
100
AcDbSymbolTableRecord
100
AcDbLayerTableRecord
  2
0
 70
     0
 62
     7
  6
Continuous
370
    -3
390
1D
347
147
  0
LAYER
  5
17F
330
2
100
AcDbSymbolTableRecord
100
AcDbLayerTableRecord
  2
Defpoints
 70
     0
 62
     7
  6
Continuous
290
     0
370
    -3
390
1D
347
147
  0
LAYER
  5
18D
102
{ACAD_XDICTIONARY
360
18E
102
}
330
2
100
AcDbSymbolTableRecord
100
AcDbLayerTableRecord
  2
Cotation-JacobDelafon
 70
     0
 62
     8
  6
Continuous
370
    -3
390
1D
347
147
  0
ENDTAB
  0
TABLE
  2
STYLE
  5
3
330
0
100
AcDbSymbolTable
 70
     7
  0
STYLE
  5
17
330
3
100
AcDbSymbolTableRecord
100
AcDbTextStyleTableRecord
  2
Standard
 70
     0
 40
0.0
 41
1.0
 50
0.0
 71
     0
 42
0.0
  3
txt
  4

  0
STYLE
  5
24
330
3
100
AcDbSymbolTableRecord
100
AcDbTextStyleTableRecord
  2
STD
 70
     0
 40
0.0
 41
1.0
 50
0.0
 71
     0
 42
0.0
  3
txt
  4

  0
STYLE
  5
25
330
3
100
AcDbSymbolTableRecord
100
AcDbTextStyleTableRecord
  2
TATESTD
 70
     4
 40
0.0
 41
1.0
 50
0.0
 71
     0
 42
0.0
  3
txt
  4

  0
STYLE
  5
26
330
3
100
AcDbSymbolTableRecord
100
AcDbTextStyleTableRecord
  2
KANJISTD
 70
     0
 40
0.0
 41
1.0
 50
0.0
 71
     0
 42
0.0
  3
txt
  4
extfont
  0
STYLE
  5
27
330
3
100
AcDbSymbolTableRecord
100
AcDbTextStyleTableRecord
  2
KANJITATE
 70
     4
 40
0.0
 41
1.0
 50
0.0
 71
     0
 42
0.0
  3
txt
  4
extfont
  0
STYLE
  5
180
330
3
100
AcDbSymbolTableRecord
100
AcDbTextStyleTableRecord
  2
Annotative
 70
     0
 40
0.0
 41
1.0
 50
0.0
 71
     0
 42
0.2
  3
txt
  4

1001
AcadAnnotative
1000
AnnotativeData
1002
{
1070
     1
1070
     1
1002
}
  0
STYLE
  5
181
330
3
100
AcDbSymbolTableRecord
100
AcDbTextStyleTableRecord
  2
Jacob-Delafon
 70
     0
 40
0.0
 41
1.0
 50
0.0
 71
     0
 42
2.5
  3
ARIAL.TTF
  4

1001
ACAD
1000
Arial
1071
       34
  0
ENDTAB
  0
TABLE
  2
VIEW
  5
5
330
0
100
AcDbSymbolTable
 70
     0
  0
ENDTAB
  0
TABLE
  2
UCS
  5
6
330
0
100
AcDbSymbolTable
 70
     0
  0
ENDTAB
  0
TABLE
  2
APPID
  5
8
330
0
100
AcDbSymbolTable
 70
     3
  0
APPID
  5
16
330
8
100
AcDbSymbolTableRecord
100
AcDbRegAppTableRecord
  2
ACAD
 70
     0
  0
APPID
  5
177
330
8
100
AcDbSymbolTableRecord
100
AcDbRegAppTableRecord
  2
ACAD_MLEADERVER
 70
     0
  0
APPID
  5
184
330
8
100
AcDbSymbolTableRecord
100
AcDbRegAppTableRecord
  2
AcadAnnotative
 70
     0
  0
ENDTAB
  0
TABLE
  2
DIMSTYLE
  5
9
330
0
100
AcDbSymbolTable
 70
     3
100
AcDbDimStyleTable
 71
     1
340
183
  0
DIMSTYLE
105
18
330
9
100
AcDbSymbolTableRecord
100
AcDbDimStyleTableRecord
  2
Standard
 70
     0
340
17
  0
DIMSTYLE
105
182
330
9
100
AcDbSymbolTableRecord
100
AcDbDimStyleTableRecord
  2
Annotative
 70
     0
340
17
1001
AcadAnnotative
1000
AnnotativeData
1002
{
1070
     1
1070
     1
1002
}
  0
DIMSTYLE
105
183
102
{ACAD_REACTORS
330
194
330
1A1
102
}
330
9
100
AcDbSymbolTableRecord
100
AcDbDimStyleTableRecord
  2
Cotation-Jacob-Delafon
 70
     0
 41
1.8
 42
0.625
 43
3.799999999999998
 44
1.8
 73
     0
 74
     0
 77
     1
 78
    12
 79
     3
140
3.0
141
0.9
147
0.9
271
     2
272
     2
279
     2
340
181
341
17B
342
17B
  0
ENDTAB
  0
TABLE
  2
BLOCK_RECORD
  5
1
330
0
100
AcDbSymbolTable
 70
     5
  0
BLOCK_RECORD
  5
A
330
1
100
AcDbSymbolTableRecord
100
AcDbBlockTableRecord
  2
*MODEL_SPACE
340
20
 70
     0
280
     1
281
     0
  0
BLOCK_RECORD
  5
B
330
1
100
AcDbSymbolTableRecord
100
AcDbBlockTableRecord
  2
*PAPER_SPACE
340
21
 70
     0
280
     1
281
     0
  0
BLOCK_RECORD
  5
17B
330
1
100
AcDbSymbolTableRecord
100
AcDbBlockTableRecord
  2
_Oblique
340
0
102
{BLKREFS
331
19B
331
19C
331
1B1
331
1B2
102
}
 70
     0
280
     1
281
     0
  0
BLOCK_RECORD
  5
195
330
1
100
AcDbSymbolTableRecord
100
AcDbBlockTableRecord
  2
*D3
340
0
 70
     0
280
     1
281
     0
  0
BLOCK_RECORD
  5
1A2
330
1
100
AcDbSymbolTableRecord
100
AcDbBlockTableRecord
  2
*D4
340
0
 70
     0
280
     1
281
     0
  0
ENDTAB
  0
ENDSEC
  0
SECTION
  2
BLOCKS
  0
BLOCK
  5
D
330
A
100
AcDbEntity
  8
0
100
AcDbBlockBegin
  2
*MODEL_SPACE
 70
     0
 10
0.0
 20
0.0
 30
0.0
  3
*MODEL_SPACE
  1

  0
ENDBLK
  5
E
330
A
100
AcDbEntity
  8
0
100
AcDbBlockEnd
  0
BLOCK
  5
F
330
B
100
AcDbEntity
 67
     1
  8
0
100
AcDbBlockBegin
  2
*PAPER_SPACE
 70
     0
 10
0.0
 20
0.0
 30
0.0
  3
*PAPER_SPACE
  1

  0
ENDBLK
  5
10
330
B
100
AcDbEntity
 67
     1
  8
0
100
AcDbBlockEnd
  0
BLOCK
  5
17C
330
17B
100
AcDbEntity
  8
0
100
AcDbBlockBegin
  2
_Oblique
 70
     0
 10
0.0
 20
0.0
 30
0.0
  3
_Oblique
  1

  0
LINE
  5
17D
330
17B
100
AcDbEntity
  8
0
  6
ByBlock
 62
     0
370
    -2
380
     1
100
AcDbLine
 10
-0.5
 20
-0.5
 30
0.0
 11
0.5
 21
0.5
 31
0.0
  0
ENDBLK
  5
17E
330
17B
100
AcDbEntity
  8
0
100
AcDbBlockEnd
  0
BLOCK
  5
196
330
195
100
AcDbEntity
  8
0
370
     0
100
AcDbBlockBegin
  2
*D3
 70
     1
 10
0.0
 20
0.0
 30
0.0
  3
*D3
  1

  0
LINE
  5
198
330
195
100
AcDbEntity
  8
Cotation-JacobDelafon
  6
Continuous
 62
     0
370
    -2
100
AcDbLine
 10
189.172605
 20
154.731528
 30
0.0
 11
189.172605
 21
171.1359394257601
 31
0.0
  0
LINE
  5
199
330
195
100
AcDbEntity
  8
Cotation-JacobDelafon
  6
Continuous
 62
     0
370
    -2
100
AcDbLine
 10
210.827441
 20
149.427976
 30
0.0
 11
210.827441
 21
171.1359394257601
 31
0.0
  0
LINE
  5
19A
330
195
100
AcDbEntity
  8
Cotation-JacobDelafon
  6
Continuous
 62
     0
370
    -2
100
AcDbLine
 10
189.172605
 20
169.3359394257601
 30
0.0
 11
210.827441
 21
169.3359394257601
 31
0.0
  0
INSERT
  5
19B
330
195
100
AcDbEntity
  8
Cotation-JacobDelafon
  6
Continuous
 62
     0
370
    -2
100
AcDbBlockReference
  2
_Oblique
 10
189.172605
 20
169.3359394257601
 30
0.0
 41
1.8
 42
1.8
 43
1.8
 50
180.0
  0
INSERT
  5
19C
330
195
100
AcDbEntity
  8
Cotation-JacobDelafon
  6
Continuous
 62
     0
370
    -2
100
AcDbBlockReference
  2
_Oblique
 10
210.827441
 20
169.3359394257601
 30
0.0
 41
1.8
 42
1.8
 43
1.8
  0
MTEXT
  5
19D
330
195
100
AcDbEntity
  8
Cotation-JacobDelafon
  6
Continuous
 62
     0
370
     0
100
AcDbMText
 10
200.000023
 20
171.7676583889252
 30
0.0
 40
3.0
 41
0.0
 46
0.0
 71
     5
 72
     1
  1
\A1;21.65
  7
Jacob-Delafon
 73
     1
 44
1.0
  0
POINT
  5
19E
330
195
100
AcDbEntity
  8
Defpoints
  6
Continuous
 62
     0
370
     0
100
AcDbPoint
 10
189.172605
 20
154.106528
 30
0.0
  0
POINT
  5
19F
330
195
100
AcDbEntity
  8
Defpoints
  6
Continuous
 62
     0
370
     0
100
AcDbPoint
 10
210.827441
 20
148.802976
 30
0.0
  0
POINT
  5
1A0
330
195
100
AcDbEntity
  8
Defpoints
  6
Continuous
 62
     0
370
     0
100
AcDbPoint
 10
210.827441
 20
169.3359394257601
 30
0.0
  0
ENDBLK
  5
197
330
195
100
AcDbEntity
  8
0
370
     0
100
AcDbBlockEnd
  0
BLOCK
  5
1A3
330
1A2
100
AcDbEntity
  8
0
370
     0
100
AcDbBlockBegin
  2
*D4
 70
     1
 10
0.0
 20
0.0
 30
0.0
  3
*D4
  1

  0
LINE
  5
1AE
330
1A2
100
AcDbEntity
  8
Cotation-JacobDelafon
  6
Continuous
 62
     0
370
    -2
100
AcDbLine
 10
196.412758
 20
145.886013
 30
0.0
 11
170.8994376181659
 21
145.886013
 31
0.0
  0
LINE
  5
1AF
330
1A2
100
AcDbEntity
  8
Cotation-JacobDelafon
  6
Continuous
 62
     0
370
    -2
100
AcDbLine
 10
188.547605
 20
154.106528
 30
0.0
 11
170.8994376181659
 21
154.106528
 31
0.0
  0
LINE
  5
1B0
330
1A2
100
AcDbEntity
  8
Cotation-JacobDelafon
  6
Continuous
 62
     0
370
    -2
100
AcDbLine
 10
172.6994376181659
 20
145.886013
 30
0.0
 11
172.6994376181659
 21
154.106528
 31
0.0
  0
INSERT
  5
1B1
330
1A2
100
AcDbEntity
  8
Cotation-JacobDelafon
  6
Continuous
 62
     0
370
    -2
100
AcDbBlockReference
  2
_Oblique
 10
172.6994376181659
 20
145.886013
 30
0.0
 41
1.8
 42
1.8
 43
1.8
 50
270.0
  0
INSERT
  5
1B2
330
1A2
100
AcDbEntity
  8
Cotation-JacobDelafon
  6
Continuous
 62
     0
370
    -2
100
AcDbBlockReference
  2
_Oblique
 10
172.6994376181659
 20
154.106528
 30
0.0
 41
1.8
 42
1.8
 43
1.8
 50
90.0
  0
MTEXT
  5
1B3
330
1A2
100
AcDbEntity
  8
Cotation-JacobDelafon
  6
Continuous
 62
     0
370
     0
100
AcDbMText
 10
170.2677186550008
 20
149.9962705
 30
0.0
 40
3.0
 41
0.0
 46
0.0
 71
     5
 72
     1
  1
\A1;8.2
  7
Jacob-Delafon
 11
0.0000000000000001
 21
1.0
 31
0.0
 73
     1
 44
1.0
  0
POINT
  5
1B4
330
1A2
100
AcDbEntity
  8
Defpoints
  6
Continuous
 62
     0
370
     0
100
AcDbPoint
 10
197.037758
 20
145.886013
 30
0.0
  0
POINT
  5
1B5
330
1A2
100
AcDbEntity
  8
Defpoints
  6
Continuous
 62
     0
370
     0
100
AcDbPoint
 10
189.172605
 20
154.106528
 30
0.0
  0
POINT
  5
1B6
330
1A2
100
AcDbEntity
  8
Defpoints
  6
Continuous
 62
     0
370
     0
100
AcDbPoint
 10
172.6994376181659
 20
154.106528
 30
0.0
  0
ENDBLK
  5
1A4
330
1A2
100
AcDbEntity
  8
0
370
     0
100
AcDbBlockEnd
  0
ENDSEC
  0
SECTION
  2
ENTITIES
  0
LINE
  5
133
330
A
100
AcDbEntity
  8
0
 62
     7
100
AcDbLine
 10
194.049826
 20
149.706797
 30
0.0
 11
193.85759
 21
149.706797
 31
0.0
  0
LINE
  5
132
330
A
100
AcDbEntity
  8
0
 62
     7
100
AcDbLine
 10
193.85759
 20
152.404995
 30
0.0
 11
192.799429
 21
152.404995
 31
0.0
  0
LINE
  5
131
330
A
100
AcDbEntity
  8
0
 62
     7
100
AcDbLine
 10
192.799429
 20
152.404995
 30
0.0
 11
192.630447
 21
152.606533
 31
0.0
  0
LINE
  5
130
330
A
100
AcDbEntity
  8
0
 62
     7
100
AcDbLine
 10
191.318899
 20
148.614185
 30
0.0
 11
191.368853
 21
148.727528
 31
0.0
  0
LINE
  5
12F
330
A
100
AcDbEntity
  8
0
 62
     7
100
AcDbLine
 10
191.489948
 20
152.806521
 30
0.0
 11
192.295928
 21
152.806521
 31
0.0
  0
LINE
  5
12E
330
A
100
AcDbEntity
  8
0
 62
     7
100
AcDbLine
 10
192.295928
 20
148.7764489999999
 30
0.0
 11
192.325728
 21
148.786095
 31
0.0
  0
LINE
  5
12D
330
A
100
AcDbEntity
  8
0
 62
     7
100
AcDbLine
 10
192.325728
 20
148.786095
 30
0.0
 11
192.3438149999999
 21
148.8109
 31
0.0
  0
LINE
  5
12C
330
A
100
AcDbEntity
  8
0
 62
     7
100
AcDbLine
 10
192.325728
 20
152.796703
 30
0.0
 11
192.3438149999999
 21
152.77207
 31
0.0
  0
LINE
  5
12B
330
A
100
AcDbEntity
  8
0
 62
     7
100
AcDbLine
 10
191.23415
 20
147.5331139999999
 30
0.0
 11
191.292716
 21
147.67643
 31
0.0
  0
LINE
  5
12A
330
A
100
AcDbEntity
  8
0
 62
     7
100
AcDbLine
 10
191.292716
 20
148.271742
 30
0.0
 11
191.292716
 21
147.829047
 31
0.0
  0
LINE
  5
129
330
A
100
AcDbEntity
  8
0
 62
     7
100
AcDbLine
 10
199.338909
 20
152.453227
 30
0.0
 11
199.641905
 21
151.99968
 31
0.0
  0
LINE
  5
128
330
A
100
AcDbEntity
  8
0
 62
     7
100
AcDbLine
 10
198.57651
 20
152.962584
 30
0.0
 11
199.338909
 21
152.453227
 31
0.0
  0
LINE
  5
127
330
A
100
AcDbEntity
  8
0
 62
     7
100
AcDbLine
 10
198.57651
 20
152.962584
 30
0.0
 11
197.677167
 21
153.141557
 31
0.0
  0
LINE
  5
126
330
A
100
AcDbEntity
  8
0
 62
     7
100
AcDbLine
 10
199.346833
 20
149.141629
 30
0.0
 11
199.338909
 21
149.129915
 31
0.0
  0
LINE
  5
125
330
A
100
AcDbEntity
  8
0
 62
     7
100
AcDbLine
 10
198.958226
 20
148.875323
 30
0.0
 11
199.338909
 21
149.129915
 31
0.0
  0
LINE
  5
124
330
A
100
AcDbEntity
  8
0
 62
     7
100
AcDbLine
 10
194.073253
 20
152.617558
 30
0.0
 11
194.073253
 21
152.478548
 31
0.0
  0
LINE
  5
123
330
A
100
AcDbEntity
  8
0
 62
     7
100
AcDbLine
 10
194.129753
 20
148.941469
 30
0.0
 11
194.073253
 21
148.96524
 31
0.0
  0
LINE
  5
122
330
A
100
AcDbEntity
  8
0
 62
     7
100
AcDbLine
 10
199.641733
 20
151.999852
 30
0.0
 11
199.338737
 21
152.453227
 31
0.0
  0
LINE
  5
121
330
A
100
AcDbEntity
  8
0
 62
     7
100
AcDbLine
 10
198.576337
 20
148.620386
 30
0.0
 11
197.674067
 21
148.436073
 31
0.0
  0
LINE
  5
120
330
A
100
AcDbEntity
  8
0
 62
     7
100
AcDbLine
 10
196.101725
 20
148.758879
 30
0.0
 11
195.127108
 21
148.941469
 31
0.0
  0
LINE
  5
11F
330
A
100
AcDbEntity
  8
0
 62
     7
100
AcDbLine
 10
195.127108
 20
148.941469
 30
0.0
 11
194.129753
 21
148.941469
 31
0.0
  0
LINE
  5
11E
330
A
100
AcDbEntity
  8
0
 62
     7
100
AcDbLine
 10
194.129753
 20
152.641501
 30
0.0
 11
195.127108
 21
152.641501
 31
0.0
  0
LINE
  5
11D
330
A
100
AcDbEntity
  8
0
 62
     7
100
AcDbLine
 10
194.049826
 20
152.425321
 30
0.0
 11
194.049826
 21
152.559852
 31
0.0
  0
LINE
  5
11C
330
A
100
AcDbEntity
  8
0
 62
     7
100
AcDbLine
 10
194.049826
 20
152.041882
 30
0.0
 11
194.049826
 21
152.425321
 31
0.0
  0
LINE
  5
11B
330
A
100
AcDbEntity
  8
0
 62
     7
100
AcDbLine
 10
194.049826
 20
151.876173
 30
0.0
 11
194.049826
 21
152.041882
 31
0.0
  0
LINE
  5
11A
330
A
100
AcDbEntity
  8
0
 62
     7
100
AcDbLine
 10
194.049826
 20
149.541088
 30
0.0
 11
194.049826
 21
149.706797
 31
0.0
  0
LINE
  5
119
330
A
100
AcDbEntity
  8
0
 62
     7
100
AcDbLine
 10
194.049826
 20
149.157821
 30
0.0
 11
194.049826
 21
149.541088
 31
0.0
  0
LINE
  5
118
330
A
100
AcDbEntity
  8
0
 62
     7
100
AcDbLine
 10
194.049826
 20
149.023117
 30
0.0
 11
194.049826
 21
149.157821
 31
0.0
  0
LINE
  5
117
330
A
100
AcDbEntity
  8
0
 62
     7
100
AcDbLine
 10
194.049826
 20
149.023117
 30
0.0
 11
194.073253
 21
148.96524
 31
0.0
  0
LINE
  5
116
330
A
100
AcDbEntity
  8
0
 62
     7
100
AcDbLine
 10
194.073253
 20
148.96524
 30
0.0
 11
194.129753
 21
148.941469
 31
0.0
  0
LINE
  5
115
330
A
100
AcDbEntity
  8
0
 62
     7
100
AcDbLine
 10
194.073253
 20
152.617558
 30
0.0
 11
194.049826
 21
152.559852
 31
0.0
  0
LINE
  5
114
330
A
100
AcDbEntity
  8
0
 62
     7
100
AcDbLine
 10
194.073253
 20
152.617558
 30
0.0
 11
194.073253
 21
152.478548
 31
0.0
  0
LINE
  5
113
330
A
100
AcDbEntity
  8
0
 62
     7
100
AcDbLine
 10
194.129753
 20
152.641501
 30
0.0
 11
194.073253
 21
152.617558
 31
0.0
  0
LINE
  5
112
330
A
100
AcDbEntity
  8
0
 62
     7
100
AcDbLine
 10
195.351039
 20
150.791485
 30
0.0
 11
195.528117
 21
149.901272
 31
0.0
  0
LINE
  5
111
330
A
100
AcDbEntity
  8
0
 62
     7
100
AcDbLine
 10
195.528117
 20
151.681698
 30
0.0
 11
195.351039
 21
150.791485
 31
0.0
  0
LINE
  5
110
330
A
100
AcDbEntity
  8
0
 62
     7
100
AcDbLine
 10
196.032307
 20
149.146796
 30
0.0
 11
195.528117
 21
149.901272
 31
0.0
  0
LINE
  5
10F
330
A
100
AcDbEntity
  8
0
 62
     7
100
AcDbLine
 10
196.032307
 20
152.436346
 30
0.0
 11
195.528117
 21
151.681698
 31
0.0
  0
LINE
  5
10E
330
A
100
AcDbEntity
  8
0
 62
     7
100
AcDbLine
 10
196.786955
 20
148.642434
 30
0.0
 11
196.032307
 21
149.146796
 31
0.0
  0
LINE
  5
10D
330
A
100
AcDbEntity
  8
0
 62
     7
100
AcDbLine
 10
196.786955
 20
152.940535
 30
0.0
 11
196.032307
 21
152.436346
 31
0.0
  0
LINE
  5
10C
330
A
100
AcDbEntity
  8
0
 62
     7
100
AcDbLine
 10
197.677167
 20
148.465356
 30
0.0
 11
196.786955
 21
148.642434
 31
0.0
  0
LINE
  5
10B
330
A
100
AcDbEntity
  8
0
 62
     7
100
AcDbLine
 10
197.677167
 20
153.1176129999999
 30
0.0
 11
196.786955
 21
152.940535
 31
0.0
  0
LINE
  5
10A
330
A
100
AcDbEntity
  8
0
 62
     7
100
AcDbLine
 10
198.567208
 20
148.642434
 30
0.0
 11
197.677167
 21
148.465356
 31
0.0
  0
LINE
  5
109
330
A
100
AcDbEntity
  8
0
 62
     7
100
AcDbLine
 10
198.576337
 20
152.962584
 30
0.0
 11
197.676995
 21
153.141557
 31
0.0
  0
LINE
  5
108
330
A
100
AcDbEntity
  8
0
 62
     7
100
AcDbLine
 10
198.567208
 20
152.940535
 30
0.0
 11
197.677167
 21
153.1176129999999
 31
0.0
  0
LINE
  5
107
330
A
100
AcDbEntity
  8
0
 62
     7
100
AcDbLine
 10
199.321856
 20
149.146796
 30
0.0
 11
198.567208
 21
148.642434
 31
0.0
  0
LINE
  5
106
330
A
100
AcDbEntity
  8
0
 62
     7
100
AcDbLine
 10
198.576337
 20
148.620386
 30
0.0
 11
199.338737
 21
149.129915
 31
0.0
  0
LINE
  5
105
330
A
100
AcDbEntity
  8
0
 62
     7
100
AcDbLine
 10
199.338737
 20
152.453227
 30
0.0
 11
198.576337
 21
152.962584
 31
0.0
  0
LINE
  5
104
330
A
100
AcDbEntity
  8
0
 62
     7
100
AcDbLine
 10
199.321856
 20
152.436346
 30
0.0
 11
198.567208
 21
152.940535
 31
0.0
  0
LINE
  5
103
330
A
100
AcDbEntity
  8
0
 62
     7
100
AcDbLine
 10
199.826218
 20
149.901272
 30
0.0
 11
199.321856
 21
149.146796
 31
0.0
  0
LINE
  5
102
330
A
100
AcDbEntity
  8
0
 62
     7
100
AcDbLine
 10
199.338737
 20
149.129915
 30
0.0
 11
199.848094
 21
149.892143
 31
0.0
  0
LINE
  5
101
330
A
100
AcDbEntity
  8
0
 62
     7
100
AcDbLine
 10
199.848094
 20
151.690827
 30
0.0
 11
199.338737
 21
152.453227
 31
0.0
  0
LINE
  5
100
330
A
100
AcDbEntity
  8
0
 62
     7
100
AcDbLine
 10
199.826218
 20
151.681698
 30
0.0
 11
199.321856
 21
152.436346
 31
0.0
  0
LINE
  5
FF
330
A
100
AcDbEntity
  8
0
 62
     7
100
AcDbLine
 10
200.003296
 20
150.791485
 30
0.0
 11
199.826218
 21
149.901272
 31
0.0
  0
LINE
  5
FE
330
A
100
AcDbEntity
  8
0
 62
     7
100
AcDbLine
 10
200.003296
 20
150.791485
 30
0.0
 11
199.826218
 21
151.681698
 31
0.0
  0
LINE
  5
FD
330
A
100
AcDbEntity
  8
0
 62
     7
100
AcDbLine
 10
199.848094
 20
151.690827
 30
0.0
 11
200.027067
 21
150.791485
 31
0.0
  0
LINE
  5
FC
330
A
100
AcDbEntity
  8
0
 62
     7
100
AcDbLine
 10
197.676995
 20
153.141557
 30
0.0
 11
197.674067
 21
153.141557
 31
0.0
  0
LINE
  5
FB
330
A
100
AcDbEntity
  8
0
 62
     7
100
AcDbLine
 10
200.027067
 20
150.791485
 30
0.0
 11
199.848094
 21
149.892143
 31
0.0
  0
LINE
  5
FA
330
A
100
AcDbEntity
  8
0
 62
     7
100
AcDbLine
 10
196.012325
 20
152.453227
 30
0.0
 11
196.78351
 21
152.969647
 31
0.0
  0
LINE
  5
F9
330
A
100
AcDbEntity
  8
0
 62
     7
100
AcDbLine
 10
195.5029679999999
 20
151.690827
 30
0.0
 11
196.012325
 21
152.453227
 31
0.0
  0
LINE
  5
F8
330
A
100
AcDbEntity
  8
0
 62
     7
100
AcDbLine
 10
195.5029679999999
 20
151.690827
 30
0.0
 11
195.309009
 21
150.791485
 31
0.0
  0
LINE
  5
F7
330
A
100
AcDbEntity
  8
0
 62
     7
100
AcDbLine
 10
196.786266
 20
148.613496
 30
0.0
 11
196.012325
 21
149.129915
 31
0.0
  0
LINE
  5
F6
330
A
100
AcDbEntity
  8
0
 62
     7
100
AcDbLine
 10
196.012325
 20
149.129915
 30
0.0
 11
195.5029679999999
 21
149.892143
 31
0.0
  0
LINE
  5
F5
330
A
100
AcDbEntity
  8
0
 62
     7
100
AcDbLine
 10
195.5029679999999
 20
149.892143
 30
0.0
 11
195.309009
 21
150.791485
 31
0.0
  0
LINE
  5
F4
330
A
100
AcDbEntity
  8
0
 62
     7
100
AcDbLine
 10
195.127108
 20
152.641501
 30
0.0
 11
196.101725
 21
152.824264
 31
0.0
  0
LINE
  5
F3
330
A
100
AcDbEntity
  8
0
 62
     7
100
AcDbLine
 10
196.101725
 20
148.758879
 30
0.0
 11
195.127108
 21
148.941469
 31
0.0
  0
LINE
  5
F2
330
A
100
AcDbEntity
  8
0
 62
     7
100
AcDbLine
 10
196.101725
 20
152.824264
 30
0.0
 11
196.928031
 21
153.000136
 31
0.0
  0
LINE
  5
F1
330
A
100
AcDbEntity
  8
0
 62
     7
100
AcDbLine
 10
196.928031
 20
148.582834
 30
0.0
 11
196.101725
 21
148.758879
 31
0.0
  0
LINE
  5
F0
330
A
100
AcDbEntity
  8
0
 62
     7
100
AcDbLine
 10
196.928031
 20
153.000136
 30
0.0
 11
197.480108
 21
153.1059
 31
0.0
  0
LINE
  5
EF
330
A
100
AcDbEntity
  8
0
 62
     7
100
AcDbLine
 10
197.480108
 20
153.1059
 30
0.0
 11
197.674067
 21
153.141557
 31
0.0
  0
LINE
  5
EE
330
A
100
AcDbEntity
  8
0
 62
     7
100
AcDbLine
 10
197.674067
 20
148.436073
 30
0.0
 11
196.928031
 21
148.582834
 31
0.0
  0
LINE
  5
ED
330
A
100
AcDbEntity
  8
0
 62
     7
100
AcDbLine
 10
194.129753
 20
148.941469
 30
0.0
 11
195.127108
 21
148.941469
 31
0.0
  0
LINE
  5
EC
330
A
100
AcDbEntity
  8
0
 62
     7
100
AcDbLine
 10
195.127108
 20
152.641501
 30
0.0
 11
194.129753
 21
152.641501
 31
0.0
  0
LINE
  5
EB
330
A
100
AcDbEntity
  8
0
 62
     7
100
AcDbLine
 10
194.049826
 20
152.425321
 30
0.0
 11
194.049826
 21
152.559852
 31
0.0
  0
LINE
  5
EA
330
A
100
AcDbEntity
  8
0
 62
     7
100
AcDbLine
 10
194.049826
 20
152.041882
 30
0.0
 11
194.049826
 21
152.425321
 31
0.0
  0
LINE
  5
E9
330
A
100
AcDbEntity
  8
0
 62
     7
100
AcDbLine
 10
194.049826
 20
151.468274
 30
0.0
 11
194.049826
 21
152.041882
 31
0.0
  0
LINE
  5
E8
330
A
100
AcDbEntity
  8
0
 62
     7
100
AcDbLine
 10
194.049826
 20
150.791485
 30
0.0
 11
194.049826
 21
151.468274
 31
0.0
  0
LINE
  5
E7
330
A
100
AcDbEntity
  8
0
 62
     7
100
AcDbLine
 10
194.049826
 20
150.114696
 30
0.0
 11
194.049826
 21
150.791485
 31
0.0
  0
LINE
  5
E6
330
A
100
AcDbEntity
  8
0
 62
     7
100
AcDbLine
 10
194.049826
 20
149.541088
 30
0.0
 11
194.049826
 21
150.114696
 31
0.0
  0
LINE
  5
E5
330
A
100
AcDbEntity
  8
0
 62
     7
100
AcDbLine
 10
194.049826
 20
149.157821
 30
0.0
 11
194.049826
 21
149.541088
 31
0.0
  0
LINE
  5
E4
330
A
100
AcDbEntity
  8
0
 62
     7
100
AcDbLine
 10
194.049826
 20
149.023117
 30
0.0
 11
194.049826
 21
149.157821
 31
0.0
  0
LINE
  5
E3
330
A
100
AcDbEntity
  8
0
 62
     7
100
AcDbLine
 10
199.960749
 20
151.843617
 30
0.0
 11
199.771958
 21
151.889781
 31
0.0
  0
LINE
  5
E2
330
A
100
AcDbEntity
  8
0
 62
     7
100
AcDbLine
 10
199.771958
 20
151.889781
 30
0.0
 11
199.641733
 21
151.999852
 31
0.0
  0
LINE
  5
E1
330
A
100
AcDbEntity
  8
0
 62
     7
100
AcDbLine
 10
199.845338
 20
149.888009
 30
0.0
 11
199.8451659999999
 21
149.886803
 31
0.0
  0
LINE
  5
E0
330
A
100
AcDbEntity
  8
0
 62
     7
100
AcDbLine
 10
206.804948
 20
149.687849
 30
0.0
 11
206.355363
 21
149.732463
 31
0.0
  0
LINE
  5
DF
330
A
100
AcDbEntity
  8
0
 62
     7
100
AcDbLine
 10
207.232484
 20
149.560208
 30
0.0
 11
206.804948
 21
149.687849
 31
0.0
  0
LINE
  5
DE
330
A
100
AcDbEntity
  8
0
 62
     7
100
AcDbLine
 10
207.626259
 20
149.355225
 30
0.0
 11
207.232484
 21
149.560208
 31
0.0
  0
LINE
  5
DD
330
A
100
AcDbEntity
  8
0
 62
     7
100
AcDbLine
 10
207.97628
 20
149.078239
 30
0.0
 11
207.626259
 21
149.355225
 31
0.0
  0
LINE
  5
DC
330
A
100
AcDbEntity
  8
0
 62
     7
100
AcDbLine
 10
208.266702
 20
148.740964
 30
0.0
 11
207.97628
 21
149.078239
 31
0.0
  0
LINE
  5
DB
330
A
100
AcDbEntity
  8
0
 62
     7
100
AcDbLine
 10
209.437001
 20
150.600627
 30
0.0
 11
209.865571
 21
150.117624
 31
0.0
  0
LINE
  5
DA
330
A
100
AcDbEntity
  8
0
 62
     7
100
AcDbLine
 10
208.773475
 20
151.126004
 30
0.0
 11
209.437001
 21
150.600627
 31
0.0
  0
LINE
  5
D9
330
A
100
AcDbEntity
  8
0
 62
     7
100
AcDbLine
 10
208.025201
 20
151.515644
 30
0.0
 11
208.773475
 21
151.126004
 31
0.0
  0
LINE
  5
D8
330
A
100
AcDbEntity
  8
0
 62
     7
100
AcDbLine
 10
207.212847
 20
151.758006
 30
0.0
 11
208.025201
 21
151.515644
 31
0.0
  0
LINE
  5
D7
330
A
100
AcDbEntity
  8
0
 62
     7
100
AcDbLine
 10
206.462505
 20
151.839827
 30
0.0
 11
207.212847
 21
151.758006
 31
0.0
  0
LINE
  5
D6
330
A
100
AcDbEntity
  8
0
 62
     7
100
AcDbLine
 10
199.960749
 20
151.843617
 30
0.0
 11
206.462505
 21
151.839827
 31
0.0
  0
LINE
  5
D5
330
A
100
AcDbEntity
  8
0
 62
     7
100
AcDbLine
 10
199.960749
 20
149.728673
 30
0.0
 11
199.771958
 21
149.682509
 31
0.0
  0
LINE
  5
D4
330
A
100
AcDbEntity
  8
0
 62
     7
100
AcDbLine
 10
199.771958
 20
149.682509
 30
0.0
 11
199.631915
 21
149.566409
 31
0.0
  0
LINE
  5
D3
330
A
100
AcDbEntity
  8
0
 62
     7
100
AcDbLine
 10
206.355363
 20
149.732463
 30
0.0
 11
199.960749
 21
149.728673
 31
0.0
  0
LINE
  5
D2
330
A
100
AcDbEntity
  8
0
 62
     7
100
AcDbLine
 10
196.773691
 20
145.886013
 30
0.0
 11
196.623313
 21
146.036564
 31
0.0
  0
LINE
  5
D1
330
A
100
AcDbEntity
  8
0
 62
     7
100
AcDbLine
 10
198.727749
 20
146.036564
 30
0.0
 11
198.577543
 21
145.886013
 31
0.0
  0
LINE
  5
D0
330
A
100
AcDbEntity
  8
0
 62
     7
100
AcDbLine
 10
198.647651
 20
146.036564
 30
0.0
 11
198.727749
 21
146.036564
 31
0.0
  0
LINE
  5
CF
330
A
100
AcDbEntity
  8
0
 62
     7
100
AcDbLine
 10
198.419586
 20
146.036564
 30
0.0
 11
198.647651
 21
146.036564
 31
0.0
  0
LINE
  5
CE
330
A
100
AcDbEntity
  8
0
 62
     7
100
AcDbLine
 10
198.078177
 20
146.036564
 30
0.0
 11
198.419586
 21
146.036564
 31
0.0
  0
LINE
  5
CD
330
A
100
AcDbEntity
  8
0
 62
     7
100
AcDbLine
 10
197.675617
 20
146.036564
 30
0.0
 11
198.078177
 21
146.036564
 31
0.0
  0
LINE
  5
CC
330
A
100
AcDbEntity
  8
0
 62
     7
100
AcDbLine
 10
197.272885
 20
146.036564
 30
0.0
 11
197.675617
 21
146.036564
 31
0.0
  0
LINE
  5
CB
330
A
100
AcDbEntity
  8
0
 62
     7
100
AcDbLine
 10
196.931477
 20
146.036564
 30
0.0
 11
197.272885
 21
146.036564
 31
0.0
  0
LINE
  5
CA
330
A
100
AcDbEntity
  8
0
 62
     7
100
AcDbLine
 10
196.703411
 20
146.036564
 30
0.0
 11
196.931477
 21
146.036564
 31
0.0
  0
LINE
  5
C9
330
A
100
AcDbEntity
  8
0
 62
     7
100
AcDbLine
 10
196.623313
 20
146.036564
 30
0.0
 11
196.703411
 21
146.036564
 31
0.0
  0
LINE
  5
C8
330
A
100
AcDbEntity
  8
0
 62
     7
100
AcDbLine
 10
196.623313
 20
146.036564
 30
0.0
 11
196.623313
 21
146.513021
 31
0.0
  0
LINE
  5
C7
330
A
100
AcDbEntity
  8
0
 62
     7
100
AcDbLine
 10
198.078177
 20
146.036564
 30
0.0
 11
197.675617
 21
146.036564
 31
0.0
  0
LINE
  5
C6
330
A
100
AcDbEntity
  8
0
 62
     7
100
AcDbLine
 10
198.727749
 20
146.513021
 30
0.0
 11
198.727749
 21
146.036564
 31
0.0
  0
LINE
  5
C5
330
A
100
AcDbEntity
  8
0
 62
     7
100
AcDbLine
 10
197.272885
 20
146.513021
 30
0.0
 11
197.675617
 21
146.513021
 31
0.0
  0
LINE
  5
C4
330
A
100
AcDbEntity
  8
0
 62
     7
100
AcDbLine
 10
196.931477
 20
146.513021
 30
0.0
 11
197.272885
 21
146.513021
 31
0.0
  0
LINE
  5
C3
330
A
100
AcDbEntity
  8
0
 62
     7
100
AcDbLine
 10
196.703411
 20
146.513021
 30
0.0
 11
196.931477
 21
146.513021
 31
0.0
  0
LINE
  5
C2
330
A
100
AcDbEntity
  8
0
 62
     7
100
AcDbLine
 10
196.623313
 20
146.513021
 30
0.0
 11
196.703411
 21
146.513021
 31
0.0
  0
LINE
  5
C1
330
A
100
AcDbEntity
  8
0
 62
     7
100
AcDbLine
 10
197.272885
 20
146.513021
 30
0.0
 11
196.931477
 21
146.513021
 31
0.0
  0
LINE
  5
C0
330
A
100
AcDbEntity
  8
0
 62
     7
100
AcDbLine
 10
197.675617
 20
146.513021
 30
0.0
 11
197.272885
 21
146.513021
 31
0.0
  0
LINE
  5
BF
330
A
100
AcDbEntity
  8
0
 62
     7
100
AcDbLine
 10
198.647651
 20
146.513021
 30
0.0
 11
198.727749
 21
146.513021
 31
0.0
  0
LINE
  5
BE
330
A
100
AcDbEntity
  8
0
 62
     7
100
AcDbLine
 10
198.419586
 20
146.513021
 30
0.0
 11
198.647651
 21
146.513021
 31
0.0
  0
LINE
  5
BD
330
A
100
AcDbEntity
  8
0
 62
     7
100
AcDbLine
 10
198.078177
 20
146.513021
 30
0.0
 11
198.419586
 21
146.513021
 31
0.0
  0
LINE
  5
BC
330
A
100
AcDbEntity
  8
0
 62
     7
100
AcDbLine
 10
197.675617
 20
146.513021
 30
0.0
 11
198.078177
 21
146.513021
 31
0.0
  0
LINE
  5
BB
330
A
100
AcDbEntity
  8
0
 62
     7
100
AcDbLine
 10
199.078288
 20
146.513021
 30
0.0
 11
199.193871
 21
146.513021
 31
0.0
  0
LINE
  5
BA
330
A
100
AcDbEntity
  8
0
 62
     7
100
AcDbLine
 10
198.749109
 20
146.513021
 30
0.0
 11
199.078288
 21
146.513021
 31
0.0
  0
LINE
  5
B9
330
A
100
AcDbEntity
  8
0
 62
     7
100
AcDbLine
 10
198.256632
 20
146.513021
 30
0.0
 11
198.749109
 21
146.513021
 31
0.0
  0
LINE
  5
B8
330
A
100
AcDbEntity
  8
0
 62
     7
100
AcDbLine
 10
197.675617
 20
146.513021
 30
0.0
 11
198.256632
 21
146.513021
 31
0.0
  0
LINE
  5
B7
330
A
100
AcDbEntity
  8
0
 62
     7
100
AcDbLine
 10
197.094602
 20
146.513021
 30
0.0
 11
197.675617
 21
146.513021
 31
0.0
  0
LINE
  5
B6
330
A
100
AcDbEntity
  8
0
 62
     7
100
AcDbLine
 10
196.601953
 20
146.513021
 30
0.0
 11
197.094602
 21
146.513021
 31
0.0
  0
LINE
  5
B5
330
A
100
AcDbEntity
  8
0
 62
     7
100
AcDbLine
 10
196.272947
 20
146.513021
 30
0.0
 11
196.601953
 21
146.513021
 31
0.0
  0
LINE
  5
B4
330
A
100
AcDbEntity
  8
0
 62
     7
100
AcDbLine
 10
196.157364
 20
146.513021
 30
0.0
 11
196.272947
 21
146.513021
 31
0.0
  0
LINE
  5
B3
330
A
100
AcDbEntity
  8
0
 62
     7
100
AcDbLine
 10
196.157364
 20
146.513021
 30
0.0
 11
196.098108
 21
146.5323129999999
 31
0.0
  0
LINE
  5
B2
330
A
100
AcDbEntity
  8
0
 62
     7
100
AcDbLine
 10
199.252954
 20
146.5323129999999
 30
0.0
 11
199.193871
 21
146.513021
 31
0.0
  0
LINE
  5
B1
330
A
100
AcDbEntity
  8
0
 62
     7
100
AcDbLine
 10
196.098108
 20
146.5323129999999
 30
0.0
 11
196.057111
 21
146.613273
 31
0.0
  0
LINE
  5
B0
330
A
100
AcDbEntity
  8
0
 62
     7
100
AcDbLine
 10
199.293951
 20
146.613273
 30
0.0
 11
199.252954
 21
146.5323129999999
 31
0.0
  0
LINE
  5
AF
330
A
100
AcDbEntity
  8
0
 62
     7
100
AcDbLine
 10
196.057111
 20
146.613273
 30
0.0
 11
196.057111
 21
147.04391
 31
0.0
  0
LINE
  5
AE
330
A
100
AcDbEntity
  8
0
 62
     7
100
AcDbLine
 10
199.293951
 20
147.04391
 30
0.0
 11
199.293951
 21
146.613273
 31
0.0
  0
LINE
  5
AD
330
A
100
AcDbEntity
  8
0
 62
     7
100
AcDbLine
 10
196.057111
 20
147.04391
 30
0.0
 11
196.068308
 21
147.090074
 31
0.0
  0
LINE
  5
AC
330
A
100
AcDbEntity
  8
0
 62
     7
100
AcDbLine
 10
199.282754
 20
147.090074
 30
0.0
 11
199.293951
 21
147.04391
 31
0.0
  0
LINE
  5
AB
330
A
100
AcDbEntity
  8
0
 62
     7
100
AcDbLine
 10
199.160453
 20
147.090074
 30
0.0
 11
199.282754
 21
147.090074
 31
0.0
  0
LINE
  5
AA
330
A
100
AcDbEntity
  8
0
 62
     7
100
AcDbLine
 10
198.811982
 20
147.090074
 30
0.0
 11
199.160453
 21
147.090074
 31
0.0
  0
LINE
  5
A9
330
A
100
AcDbEntity
  8
0
 62
     7
100
AcDbLine
 10
198.290567
 20
147.090074
 30
0.0
 11
198.811982
 21
147.090074
 31
0.0
  0
LINE
  5
A8
330
A
100
AcDbEntity
  8
0
 62
     7
100
AcDbLine
 10
197.675617
 20
147.090074
 30
0.0
 11
198.290567
 21
147.090074
 31
0.0
  0
LINE
  5
A7
330
A
100
AcDbEntity
  8
0
 62
     7
100
AcDbLine
 10
197.060495
 20
147.090074
 30
0.0
 11
197.675617
 21
147.090074
 31
0.0
  0
LINE
  5
A6
330
A
100
AcDbEntity
  8
0
 62
     7
100
AcDbLine
 10
196.53908
 20
147.090074
 30
0.0
 11
197.060495
 21
147.090074
 31
0.0
  0
LINE
  5
A5
330
A
100
AcDbEntity
  8
0
 62
     7
100
AcDbLine
 10
196.190609
 20
147.090074
 30
0.0
 11
196.53908
 21
147.090074
 31
0.0
  0
LINE
  5
A4
330
A
100
AcDbEntity
  8
0
 62
     7
100
AcDbLine
 10
196.068308
 20
147.090074
 30
0.0
 11
196.190609
 21
147.090074
 31
0.0
  0
LINE
  5
A3
330
A
100
AcDbEntity
  8
0
 62
     7
100
AcDbLine
 10
196.068308
 20
147.090074
 30
0.0
 11
196.119812
 21
147.136928
 31
0.0
  0
LINE
  5
A2
330
A
100
AcDbEntity
  8
0
 62
     7
100
AcDbLine
 10
199.23125
 20
147.136928
 30
0.0
 11
199.282754
 21
147.090074
 31
0.0
  0
LINE
  5
A1
330
A
100
AcDbEntity
  8
0
 62
     7
100
AcDbLine
 10
196.119812
 20
147.136928
 30
0.0
 11
196.330135
 21
147.222021
 31
0.0
  0
LINE
  5
A0
330
A
100
AcDbEntity
  8
0
 62
     7
100
AcDbLine
 10
199.021099
 20
147.222021
 30
0.0
 11
199.23125
 21
147.136928
 31
0.0
  0
LINE
  5
9F
330
A
100
AcDbEntity
  8
0
 62
     7
100
AcDbLine
 10
196.330135
 20
147.222021
 30
0.0
 11
196.368548
 21
147.249238
 31
0.0
  0
LINE
  5
9E
330
A
100
AcDbEntity
  8
0
 62
     7
100
AcDbLine
 10
198.9825139999999
 20
147.249238
 30
0.0
 11
199.021099
 21
147.222021
 31
0.0
  0
LINE
  5
9D
330
A
100
AcDbEntity
  8
0
 62
     7
100
AcDbLine
 10
198.883123
 20
147.249238
 30
0.0
 11
198.9825139999999
 21
147.249238
 31
0.0
  0
LINE
  5
9C
330
A
100
AcDbEntity
  8
0
 62
     7
100
AcDbLine
 10
198.599764
 20
147.249238
 30
0.0
 11
198.883123
 21
147.249238
 31
0.0
  0
LINE
  5
9B
330
A
100
AcDbEntity
  8
0
 62
     7
100
AcDbLine
 10
198.175673
 20
147.249238
 30
0.0
 11
198.599764
 21
147.249238
 31
0.0
  0
LINE
  5
9A
330
A
100
AcDbEntity
  8
0
 62
     7
100
AcDbLine
 10
197.675617
 20
147.249238
 30
0.0
 11
198.175673
 21
147.249238
 31
0.0
  0
LINE
  5
99
330
A
100
AcDbEntity
  8
0
 62
     7
100
AcDbLine
 10
197.175389
 20
147.249238
 30
0.0
 11
197.675617
 21
147.249238
 31
0.0
  0
LINE
  5
98
330
A
100
AcDbEntity
  8
0
 62
     7
100
AcDbLine
 10
196.75147
 20
147.249238
 30
0.0
 11
197.175389
 21
147.249238
 31
0.0
  0
LINE
  5
97
330
A
100
AcDbEntity
  8
0
 62
     7
100
AcDbLine
 10
196.468111
 20
147.249238
 30
0.0
 11
196.75147
 21
147.249238
 31
0.0
  0
LINE
  5
96
330
A
100
AcDbEntity
  8
0
 62
     7
100
AcDbLine
 10
196.368548
 20
147.249238
 30
0.0
 11
196.468111
 21
147.249238
 31
0.0
  0
LINE
  5
95
330
A
100
AcDbEntity
  8
0
 62
     7
100
AcDbLine
 10
196.368548
 20
147.249238
 30
0.0
 11
196.392836
 21
147.314695
 31
0.0
  0
LINE
  5
94
330
A
100
AcDbEntity
  8
0
 62
     7
100
AcDbLine
 10
198.958226
 20
147.314695
 30
0.0
 11
198.9825139999999
 21
147.249238
 31
0.0
  0
LINE
  5
93
330
A
100
AcDbEntity
  8
0
 62
     7
100
AcDbLine
 10
196.392836
 20
147.314695
 30
0.0
 11
196.392836
 21
148.186648
 31
0.0
  0
LINE
  5
92
330
A
100
AcDbEntity
  8
0
 62
     7
100
AcDbLine
 10
198.958226
 20
148.186648
 30
0.0
 11
198.958226
 21
147.314695
 31
0.0
  0
LINE
  5
91
330
A
100
AcDbEntity
  8
0
 62
     7
100
AcDbLine
 10
198.860558
 20
148.186648
 30
0.0
 11
198.958226
 21
148.186648
 31
0.0
  0
LINE
  5
90
330
A
100
AcDbEntity
  8
0
 62
     7
100
AcDbLine
 10
198.582539
 20
148.186648
 30
0.0
 11
198.860558
 21
148.186648
 31
0.0
  0
LINE
  5
8F
330
A
100
AcDbEntity
  8
0
 62
     7
100
AcDbLine
 10
197.675617
 20
148.186648
 30
0.0
 11
198.587534
 21
148.186648
 31
0.0
  0
LINE
  5
8E
330
A
100
AcDbEntity
  8
0
 62
     7
100
AcDbLine
 10
197.184691
 20
148.186648
 30
0.0
 11
197.675617
 21
148.186648
 31
0.0
  0
LINE
  5
8D
330
A
100
AcDbEntity
  8
0
 62
     7
100
AcDbLine
 10
196.768523
 20
148.186648
 30
0.0
 11
197.184691
 21
148.186648
 31
0.0
  0
LINE
  5
8C
330
A
100
AcDbEntity
  8
0
 62
     7
100
AcDbLine
 10
196.490504
 20
148.186648
 30
0.0
 11
196.768523
 21
148.186648
 31
0.0
  0
LINE
  5
8B
330
A
100
AcDbEntity
  8
0
 62
     7
100
AcDbLine
 10
196.392836
 20
148.186648
 30
0.0
 11
196.490504
 21
148.186648
 31
0.0
  0
LINE
  5
8A
330
A
100
AcDbEntity
  8
0
 62
     7
100
AcDbLine
 10
196.5582
 20
148.186648
 30
0.0
 11
196.5582
 21
148.330998
 31
0.0
  0
LINE
  5
89
330
A
100
AcDbEntity
  8
0
 62
     7
100
AcDbLine
 10
198.793034
 20
148.330998
 30
0.0
 11
198.793034
 21
148.186648
 31
0.0
  0
LINE
  5
88
330
A
100
AcDbEntity
  8
0
 62
     7
100
AcDbLine
 10
198.814221
 20
148.330998
 30
0.0
 11
198.9081
 21
148.330998
 31
0.0
  0
LINE
  5
87
330
A
100
AcDbEntity
  8
0
 62
     7
100
AcDbLine
 10
198.547054
 20
148.330998
 30
0.0
 11
198.814221
 21
148.330998
 31
0.0
  0
LINE
  5
86
330
A
100
AcDbEntity
  8
0
 62
     7
100
AcDbLine
 10
198.147251
 20
148.330998
 30
0.0
 11
198.547054
 21
148.330998
 31
0.0
  0
LINE
  5
85
330
A
100
AcDbEntity
  8
0
 62
     7
100
AcDbLine
 10
197.675617
 20
148.330998
 30
0.0
 11
198.147251
 21
148.330998
 31
0.0
  0
LINE
  5
84
330
A
100
AcDbEntity
  8
0
 62
     7
100
AcDbLine
 10
197.203984
 20
148.330998
 30
0.0
 11
197.675617
 21
148.330998
 31
0.0
  0
LINE
  5
83
330
A
100
AcDbEntity
  8
0
 62
     7
100
AcDbLine
 10
196.804008
 20
148.330998
 30
0.0
 11
197.203984
 21
148.330998
 31
0.0
  0
LINE
  5
82
330
A
100
AcDbEntity
  8
0
 62
     7
100
AcDbLine
 10
196.536841
 20
148.330998
 30
0.0
 11
196.804008
 21
148.330998
 31
0.0
  0
LINE
  5
81
330
A
100
AcDbEntity
  8
0
 62
     7
100
AcDbLine
 10
196.443134
 20
148.330998
 30
0.0
 11
196.536841
 21
148.330998
 31
0.0
  0
LINE
  5
80
330
A
100
AcDbEntity
  8
0
 62
     7
100
AcDbLine
 10
196.443134
 20
148.330998
 30
0.0
 11
196.392836
 21
148.381296
 31
0.0
  0
LINE
  5
7F
330
A
100
AcDbEntity
  8
0
 62
     7
100
AcDbLine
 10
198.958226
 20
148.381296
 30
0.0
 11
198.9081
 21
148.330998
 31
0.0
  0
LINE
  5
7E
330
A
100
AcDbEntity
  8
0
 62
     7
100
AcDbLine
 10
196.392836
 20
148.381296
 30
0.0
 11
196.392836
 21
148.696867
 31
0.0
  0
LINE
  5
7D
330
A
100
AcDbEntity
  8
0
 62
     7
100
AcDbLine
 10
198.958226
 20
148.875667
 30
0.0
 11
198.958226
 21
148.381296
 31
0.0
  0
LINE
  5
7C
330
A
100
AcDbEntity
  8
0
 62
     7
100
AcDbLine
 10
198.020816
 20
145.886013
 30
0.0
 11
198.313304
 21
145.886013
 31
0.0
  0
LINE
  5
7B
330
A
100
AcDbEntity
  8
0
 62
     7
100
AcDbLine
 10
197.675617
 20
145.886013
 30
0.0
 11
198.020816
 21
145.886013
 31
0.0
  0
LINE
  5
7A
330
A
100
AcDbEntity
  8
0
 62
     7
100
AcDbLine
 10
196.842249
 20
145.886013
 30
0.0
 11
196.773691
 21
145.886013
 31
0.0
  0
LINE
  5
79
330
A
100
AcDbEntity
  8
0
 62
     7
100
AcDbLine
 10
197.037758
 20
145.886013
 30
0.0
 11
196.842249
 21
145.886013
 31
0.0
  0
LINE
  5
78
330
A
100
AcDbEntity
  8
0
 62
     7
100
AcDbLine
 10
197.330419
 20
145.886013
 30
0.0
 11
197.037758
 21
145.886013
 31
0.0
  0
LINE
  5
77
330
A
100
AcDbEntity
  8
0
 62
     7
100
AcDbLine
 10
197.675617
 20
145.886013
 30
0.0
 11
197.330419
 21
145.886013
 31
0.0
  0
LINE
  5
76
330
A
100
AcDbEntity
  8
0
 62
     7
100
AcDbLine
 10
198.020643
 20
145.886013
 30
0.0
 11
197.675617
 21
145.886013
 31
0.0
  0
LINE
  5
75
330
A
100
AcDbEntity
  8
0
 62
     7
100
AcDbLine
 10
198.313304
 20
145.886013
 30
0.0
 11
198.020643
 21
145.886013
 31
0.0
  0
LINE
  5
74
330
A
100
AcDbEntity
  8
0
 62
     7
100
AcDbLine
 10
198.508813
 20
145.886013
 30
0.0
 11
198.313304
 21
145.886013
 31
0.0
  0
LINE
  5
73
330
A
100
AcDbEntity
  8
0
 62
     7
100
AcDbLine
 10
198.577543
 20
145.886013
 30
0.0
 11
198.508813
 21
145.886013
 31
0.0
  0
LINE
  5
72
330
A
100
AcDbEntity
  8
0
 62
     7
100
AcDbLine
 10
209.865571
 20
150.117624
 30
0.0
 11
210.827441
 21
148.802976
 31
0.0
  0
LINE
  5
71
330
A
100
AcDbEntity
  8
0
 62
     7
100
AcDbLine
 10
208.266702
 20
148.740964
 30
0.0
 11
209.086635
 21
147.610973
 31
0.0
  0
LINE
  5
70
330
A
100
AcDbEntity
  8
0
 62
     7
100
AcDbLine
 10
209.15278
 20
147.656448
 30
0.0
 11
209.086635
 21
147.610973
 31
0.0
  0
LINE
  5
6F
330
A
100
AcDbEntity
  8
0
 62
     7
100
AcDbLine
 10
209.341572
 20
147.785639
 30
0.0
 11
209.15278
 21
147.656448
 31
0.0
  0
LINE
  5
6E
330
A
100
AcDbEntity
  8
0
 62
     7
100
AcDbLine
 10
209.62407
 20
147.978909
 30
0.0
 11
209.341572
 21
147.785639
 31
0.0
  0
LINE
  5
6D
330
A
100
AcDbEntity
  8
0
 62
     7
100
AcDbLine
 10
209.956866
 20
148.206974
 30
0.0
 11
209.62407
 21
147.978909
 31
0.0
  0
LINE
  5
6C
330
A
100
AcDbEntity
  8
0
 62
     7
100
AcDbLine
 10
210.290007
 20
148.43504
 30
0.0
 11
209.956866
 21
148.206974
 31
0.0
  0
LINE
  5
6B
330
A
100
AcDbEntity
  8
0
 62
     7
100
AcDbLine
 10
210.572504
 20
148.628309
 30
0.0
 11
210.290007
 21
148.43504
 31
0.0
  0
LINE
  5
6A
330
A
100
AcDbEntity
  8
0
 62
     7
100
AcDbLine
 10
210.761296
 20
148.757501
 30
0.0
 11
210.572504
 21
148.628309
 31
0.0
  0
LINE
  5
69
330
A
100
AcDbEntity
  8
0
 62
     7
100
AcDbLine
 10
210.827441
 20
148.802976
 30
0.0
 11
210.761296
 21
148.757501
 31
0.0
  0
LINE
  5
68
330
A
100
AcDbEntity
  8
0
 62
     7
100
AcDbLine
 10
194.049826
 20
149.706797
 30
0.0
 11
193.85759
 21
149.706797
 31
0.0
  0
LINE
  5
67
330
A
100
AcDbEntity
  8
0
 62
     7
100
AcDbLine
 10
194.049826
 20
151.876173
 30
0.0
 11
193.85759
 21
151.876173
 31
0.0
  0
LINE
  5
66
330
A
100
AcDbEntity
  8
0
 62
     7
100
AcDbLine
 10
193.85759
 20
150.173952
 30
0.0
 11
193.85759
 21
150.791485
 31
0.0
  0
LINE
  5
65
330
A
100
AcDbEntity
  8
0
 62
     7
100
AcDbLine
 10
193.85759
 20
149.650469
 30
0.0
 11
193.85759
 21
150.173952
 31
0.0
  0
LINE
  5
64
330
A
100
AcDbEntity
  8
0
 62
     7
100
AcDbLine
 10
193.85759
 20
149.300792
 30
0.0
 11
193.85759
 21
149.650469
 31
0.0
  0
LINE
  5
63
330
A
100
AcDbEntity
  8
0
 62
     7
100
AcDbLine
 10
193.85759
 20
149.177802
 30
0.0
 11
193.85759
 21
149.300792
 31
0.0
  0
LINE
  5
62
330
A
100
AcDbEntity
  8
0
 62
     7
100
AcDbLine
 10
193.85759
 20
149.177802
 30
0.0
 11
192.799429
 21
149.177802
 31
0.0
  0
LINE
  5
61
330
A
100
AcDbEntity
  8
0
 62
     7
100
AcDbLine
 10
193.85759
 20
152.404995
 30
0.0
 11
192.799429
 21
152.404995
 31
0.0
  0
LINE
  5
60
330
A
100
AcDbEntity
  8
0
 62
     7
100
AcDbLine
 10
193.85759
 20
152.282178
 30
0.0
 11
193.85759
 21
152.404995
 31
0.0
  0
LINE
  5
5F
330
A
100
AcDbEntity
  8
0
 62
     7
100
AcDbLine
 10
193.85759
 20
151.932501
 30
0.0
 11
193.85759
 21
152.282178
 31
0.0
  0
LINE
  5
5E
330
A
100
AcDbEntity
  8
0
 62
     7
100
AcDbLine
 10
193.85759
 20
151.409018
 30
0.0
 11
193.85759
 21
151.932501
 31
0.0
  0
LINE
  5
5D
330
A
100
AcDbEntity
  8
0
 62
     7
100
AcDbLine
 10
193.85759
 20
150.791485
 30
0.0
 11
193.85759
 21
151.409018
 31
0.0
  0
LINE
  5
5C
330
A
100
AcDbEntity
  8
0
 62
     7
100
AcDbLine
 10
192.799429
 20
150.173952
 30
0.0
 11
192.799429
 21
150.791485
 31
0.0
  0
LINE
  5
5B
330
A
100
AcDbEntity
  8
0
 62
     7
100
AcDbLine
 10
192.799429
 20
149.650469
 30
0.0
 11
192.799429
 21
150.173952
 31
0.0
  0
LINE
  5
5A
330
A
100
AcDbEntity
  8
0
 62
     7
100
AcDbLine
 10
192.799429
 20
149.300792
 30
0.0
 11
192.799429
 21
149.650469
 31
0.0
  0
LINE
  5
59
330
A
100
AcDbEntity
  8
0
 62
     7
100
AcDbLine
 10
192.799429
 20
149.177802
 30
0.0
 11
192.799429
 21
149.300792
 31
0.0
  0
LINE
  5
58
330
A
100
AcDbEntity
  8
0
 62
     7
100
AcDbLine
 10
192.799429
 20
149.177802
 30
0.0
 11
192.630447
 21
148.976609
 31
0.0
  0
LINE
  5
57
330
A
100
AcDbEntity
  8
0
 62
     7
100
AcDbLine
 10
192.799429
 20
152.404995
 30
0.0
 11
192.630447
 21
152.606533
 31
0.0
  0
LINE
  5
56
330
A
100
AcDbEntity
  8
0
 62
     7
100
AcDbLine
 10
192.799429
 20
152.282178
 30
0.0
 11
192.799429
 21
152.404995
 31
0.0
  0
LINE
  5
55
330
A
100
AcDbEntity
  8
0
 62
     7
100
AcDbLine
 10
192.799429
 20
151.932501
 30
0.0
 11
192.799429
 21
152.282178
 31
0.0
  0
LINE
  5
54
330
A
100
AcDbEntity
  8
0
 62
     7
100
AcDbLine
 10
192.799429
 20
151.409018
 30
0.0
 11
192.799429
 21
151.932501
 31
0.0
  0
LINE
  5
53
330
A
100
AcDbEntity
  8
0
 62
     7
100
AcDbLine
 10
192.799429
 20
150.791485
 30
0.0
 11
192.799429
 21
151.409018
 31
0.0
  0
LINE
  5
52
330
A
100
AcDbEntity
  8
0
 62
     7
100
AcDbLine
 10
192.630447
 20
150.096954
 30
0.0
 11
192.630447
 21
150.791485
 31
0.0
  0
LINE
  5
51
330
A
100
AcDbEntity
  8
0
 62
     7
100
AcDbLine
 10
192.630447
 20
149.508187
 30
0.0
 11
192.630447
 21
150.096954
 31
0.0
  0
LINE
  5
50
330
A
100
AcDbEntity
  8
0
 62
     7
100
AcDbLine
 10
192.630447
 20
149.114757
 30
0.0
 11
192.630447
 21
149.508187
 31
0.0
  0
LINE
  5
4F
330
A
100
AcDbEntity
  8
0
 62
     7
100
AcDbLine
 10
192.630447
 20
148.976609
 30
0.0
 11
192.630447
 21
149.114757
 31
0.0
  0
LINE
  5
4E
330
A
100
AcDbEntity
  8
0
 62
     7
100
AcDbLine
 10
192.630447
 20
148.976609
 30
0.0
 11
192.346227
 21
148.976609
 31
0.0
  0
LINE
  5
4D
330
A
100
AcDbEntity
  8
0
 62
     7
100
AcDbLine
 10
192.630447
 20
152.606533
 30
0.0
 11
192.346227
 21
152.606533
 31
0.0
  0
LINE
  5
4C
330
A
100
AcDbEntity
  8
0
 62
     7
100
AcDbLine
 10
192.630447
 20
152.468385
 30
0.0
 11
192.630447
 21
152.606533
 31
0.0
  0
LINE
  5
4B
330
A
100
AcDbEntity
  8
0
 62
     7
100
AcDbLine
 10
192.630447
 20
152.074955
 30
0.0
 11
192.630447
 21
152.468385
 31
0.0
  0
LINE
  5
4A
330
A
100
AcDbEntity
  8
0
 62
     7
100
AcDbLine
 10
192.630447
 20
151.486016
 30
0.0
 11
192.630447
 21
152.074955
 31
0.0
  0
LINE
  5
49
330
A
100
AcDbEntity
  8
0
 62
     7
100
AcDbLine
 10
192.630447
 20
150.791485
 30
0.0
 11
192.630447
 21
151.486016
 31
0.0
  0
LINE
  5
48
330
A
100
AcDbEntity
  8
0
 62
     7
100
AcDbLine
 10
191.292716
 20
148.614185
 30
0.0
 11
191.318899
 21
148.614185
 31
0.0
  0
LINE
  5
47
330
A
100
AcDbEntity
  8
0
 62
     7
100
AcDbLine
 10
191.292716
 20
152.968785
 30
0.0
 11
191.318899
 21
152.968785
 31
0.0
  0
LINE
  5
46
330
A
100
AcDbEntity
  8
0
 62
     7
100
AcDbLine
 10
191.318899
 20
148.614185
 30
0.0
 11
191.368853
 21
148.727528
 31
0.0
  0
LINE
  5
45
330
A
100
AcDbEntity
  8
0
 62
     7
100
AcDbLine
 10
191.318899
 20
152.968785
 30
0.0
 11
191.368853
 21
152.855269
 31
0.0
  0
LINE
  5
44
330
A
100
AcDbEntity
  8
0
 62
     7
100
AcDbLine
 10
191.368853
 20
148.727528
 30
0.0
 11
191.489948
 21
148.7764489999999
 31
0.0
  0
LINE
  5
43
330
A
100
AcDbEntity
  8
0
 62
     7
100
AcDbLine
 10
191.368853
 20
152.855269
 30
0.0
 11
191.489948
 21
152.806521
 31
0.0
  0
LINE
  5
42
330
A
100
AcDbEntity
  8
0
 62
     7
100
AcDbLine
 10
191.489948
 20
148.7764489999999
 30
0.0
 11
192.295928
 21
148.7764489999999
 31
0.0
  0
LINE
  5
41
330
A
100
AcDbEntity
  8
0
 62
     7
100
AcDbLine
 10
191.489948
 20
152.806521
 30
0.0
 11
192.295928
 21
152.806521
 31
0.0
  0
LINE
  5
40
330
A
100
AcDbEntity
  8
0
 62
     7
100
AcDbLine
 10
192.295928
 20
148.7764489999999
 30
0.0
 11
192.325728
 21
148.786095
 31
0.0
  0
LINE
  5
3F
330
A
100
AcDbEntity
  8
0
 62
     7
100
AcDbLine
 10
192.295928
 20
152.806521
 30
0.0
 11
192.325728
 21
152.796703
 31
0.0
  0
LINE
  5
3E
330
A
100
AcDbEntity
  8
0
 62
     7
100
AcDbLine
 10
192.325728
 20
148.786095
 30
0.0
 11
192.3438149999999
 21
148.8109
 31
0.0
  0
LINE
  5
3D
330
A
100
AcDbEntity
  8
0
 62
     7
100
AcDbLine
 10
192.325728
 20
152.796703
 30
0.0
 11
192.3438149999999
 21
152.77207
 31
0.0
  0
LINE
  5
3C
330
A
100
AcDbEntity
  8
0
 62
     7
100
AcDbLine
 10
192.3438149999999
 20
152.621347
 30
0.0
 11
192.3438149999999
 21
152.77207
 31
0.0
  0
LINE
  5
3B
330
A
100
AcDbEntity
  8
0
 62
     7
100
AcDbLine
 10
192.3438149999999
 20
152.191916
 30
0.0
 11
192.3438149999999
 21
152.621347
 31
0.0
  0
LINE
  5
3A
330
A
100
AcDbEntity
  8
0
 62
     7
100
AcDbLine
 10
192.3438149999999
 20
152.621347
 30
0.0
 11
192.3438149999999
 21
148.808488
 31
0.0
  0
LINE
  5
39
330
A
100
AcDbEntity
  8
0
 62
     7
100
AcDbLine
 10
191.23415
 20
154.054679
 30
0.0
 11
191.092729
 21
154.113935
 31
0.0
  0
LINE
  5
38
330
A
100
AcDbEntity
  8
0
 62
     7
100
AcDbLine
 10
191.292716
 20
153.911363
 30
0.0
 11
191.23415
 21
154.054679
 31
0.0
  0
LINE
  5
37
330
A
100
AcDbEntity
  8
0
 62
     7
100
AcDbLine
 10
191.092729
 20
147.473858
 30
0.0
 11
191.23415
 21
147.5331139999999
 31
0.0
  0
LINE
  5
36
330
A
100
AcDbEntity
  8
0
 62
     7
100
AcDbLine
 10
191.23415
 20
147.5331139999999
 30
0.0
 11
191.292716
 21
147.67643
 31
0.0
  0
LINE
  5
35
330
A
100
AcDbEntity
  8
0
 62
     7
100
AcDbLine
 10
191.092729
 20
154.113935
 30
0.0
 11
189.172605
 21
154.113935
 31
0.0
  0
LINE
  5
34
330
A
100
AcDbEntity
  8
0
 62
     7
100
AcDbLine
 10
189.172605
 20
147.473858
 30
0.0
 11
191.092729
 21
147.473858
 31
0.0
  0
LINE
  5
33
330
A
100
AcDbEntity
  8
0
 62
     7
100
AcDbLine
 10
189.172605
 20
147.469035
 30
0.0
 11
189.172605
 21
154.106528
 31
0.0
  0
LINE
  5
32
330
A
100
AcDbEntity
  8
0
 62
     7
100
AcDbLine
 10
191.292716
 20
147.829047
 30
0.0
 11
191.292716
 21
147.67643
 31
0.0
  0
LINE
  5
31
330
A
100
AcDbEntity
  8
0
 62
     7
100
AcDbLine
 10
191.292716
 20
148.271742
 30
0.0
 11
191.292716
 21
147.829047
 31
0.0
  0
LINE
  5
30
330
A
100
AcDbEntity
  8
0
 62
     7
100
AcDbLine
 10
191.292716
 20
148.96145
 30
0.0
 11
191.292716
 21
148.271742
 31
0.0
  0
LINE
  5
2F
330
A
100
AcDbEntity
  8
0
 62
     7
100
AcDbLine
 10
191.292716
 20
149.830648
 30
0.0
 11
191.292716
 21
148.96145
 31
0.0
  0
LINE
  5
2E
330
A
100
AcDbEntity
  8
0
 62
     7
100
AcDbLine
 10
191.292716
 20
150.793896
 30
0.0
 11
191.292716
 21
149.830648
 31
0.0
  0
LINE
  5
2D
330
A
100
AcDbEntity
  8
0
 62
     7
100
AcDbLine
 10
191.292716
 20
151.757317
 30
0.0
 11
191.292716
 21
150.793896
 31
0.0
  0
LINE
  5
2C
330
A
100
AcDbEntity
  8
0
 62
     7
100
AcDbLine
 10
191.292716
 20
152.626343
 30
0.0
 11
191.292716
 21
151.757317
 31
0.0
  0
LINE
  5
2B
330
A
100
AcDbEntity
  8
0
 62
     7
100
AcDbLine
 10
191.292716
 20
153.316051
 30
0.0
 11
191.292716
 21
152.626343
 31
0.0
  0
LINE
  5
2A
330
A
100
AcDbEntity
  8
0
 62
     7
100
AcDbLine
 10
191.292716
 20
153.758918
 30
0.0
 11
191.292716
 21
153.316051
 31
0.0
  0
LINE
  5
29
330
A
100
AcDbEntity
  8
0
 62
     7
100
AcDbLine
 10
191.292716
 20
153.911363
 30
0.0
 11
191.292716
 21
153.758918
 31
0.0
  0
DIMENSION
  5
194
330
A
100
AcDbEntity
  8
Cotation-JacobDelafon
  6
Continuous
370
     0
100
AcDbDimension
  2
*D3
 10
210.827441
 20
169.3359394257601
 30
0.0
 11
200.000023
 21
171.7676583889252
 31
0.0
 70
    32
 71
     5
 42
21.65483600000002
 73
     0
 74
     0
 75
     0
  3
Cotation-Jacob-Delafon
100
AcDbAlignedDimension
 13
189.172605
 23
154.106528
 33
0.0
 14
210.827441
 24
148.802976
 34
0.0
100
AcDbRotatedDimension
  0
DIMENSION
  5
1A1
330
A
100
AcDbEntity
  8
Cotation-JacobDelafon
  6
Continuous
370
     0
100
AcDbDimension
  2
*D4
 10
172.6994376181659
 20
154.106528
 30
0.0
 11
170.2677186550008
 21
149.9962705
 31
0.0
 70
    32
  1
8.2
 71
     5
 42
8.220514999999977
 73
     0
 74
     0
 75
     0
  3
Cotation-Jacob-Delafon
100
AcDbAlignedDimension
 13
197.037758
 23
145.886013
 33
0.0
 14
189.172605
 24
154.106528
 34
0.0
 50
90.0
100
AcDbRotatedDimension
  0
ENDSEC
  0
SECTION
  2
OBJECTS
  0
DICTIONARY
  5
19
330
0
100
AcDbDictionary
281
     1
  3
ACAD_COLOR
350
160
  3
ACAD_GROUP
350
1A
  3
ACAD_LAYOUT
350
1E
  3
ACAD_MATERIAL
350
136
  3
ACAD_MLEADERSTYLE
350
175
  3
ACAD_MLINESTYLE
350
1B
  3
ACAD_PLOTSETTINGS
350
22
  3
ACAD_PLOTSTYLENAME
350
1F
  3
ACAD_SCALELIST
350
163
  3
ACAD_TABLESTYLE
350
161
  3
ACAD_VISUALSTYLE
350
14F
  3
ACAD_WIPEOUT_VARS
350
23
  3
ACDB_RECOMPOSE_DATA
350
1C4
  3
AcDbVariableDictionary
350
1BA
  3
AEC_PROPERTY_SET_DEFS
350
188
  0
DICTIONARY
  5
1B7
330
14
100
AcDbDictionary
280
     1
281
     1
  3
ADSK_XREC_LAYER_RECONCILED
360
1B8
  0
DICTIONARY
  5
18E
330
18D
100
AcDbDictionary
280
     1
281
     1
  3
ADSK_XREC_LAYER_RECONCILED
360
1B9
  0
DICTIONARY
  5
160
102
{ACAD_REACTORS
330
19
102
}
330
19
100
AcDbDictionary
281
     1
  0
DICTIONARY
  5
1A
102
{ACAD_REACTORS
330
19
102
}
330
19
100
AcDbDictionary
281
     1
  0
DICTIONARY
  5
1E
102
{ACAD_REACTORS
330
19
102
}
330
19
100
AcDbDictionary
281
     1
  3
Layout1
350
21
  3
Model
350
20
  0
DICTIONARY
  5
136
102
{ACAD_REACTORS
330
19
102
}
330
19
100
AcDbDictionary
281
     1
  3
ByBlock
350
13F
  3
ByLayer
350
137
  3
Global
350
147
  0
DICTIONARY
  5
175
102
{ACAD_REACTORS
330
19
102
}
330
19
100
AcDbDictionary
281
     1
  3
Standard
350
176
  0
DICTIONARY
  5
1B
102
{ACAD_REACTORS
330
19
102
}
330
19
100
AcDbDictionary
281
     1
  3
Standard
350
1C
  0
DICTIONARY
  5
22
102
{ACAD_REACTORS
330
19
102
}
330
19
100
AcDbDictionary
281
     1
  0
ACDBDICTIONARYWDFLT
  5
1F
102
{ACAD_REACTORS
330
19
102
}
330
19
100
AcDbDictionary
281
     1
  3
Normal
350
1D
100
AcDbDictionaryWithDefault
340
1D
  0
DICTIONARY
  5
163
102
{ACAD_REACTORS
330
19
102
}
330
19
100
AcDbDictionary
281
     1
  3
A0
350
164
  3
A1
350
165
  3
A2
350
166
  3
A3
350
167
  3
A4
350
168
  3
A5
350
169
  3
A6
350
16A
  3
A7
350
16B
  3
A8
350
16C
  3
A9
350
16D
  3
B0
350
16E
  3
B1
350
16F
  3
B2
350
170
  3
B3
350
171
  3
B4
350
172
  3
B5
350
173
  3
B6
350
174
  0
DICTIONARY
  5
161
102
{ACAD_REACTORS
330
19
102
}
330
19
100
AcDbDictionary
281
     1
  3
Standard
350
162
  0
DICTIONARY
  5
14F
102
{ACAD_REACTORS
330
19
102
}
330
19
100
AcDbDictionary
281
     1
  3
2dWireframe
350
155
  3
3D Hidden
350
157
  3
3dWireframe
350
156
  3
Basic
350
154
  3
Brighten
350
15B
  3
ColorChange
350
15F
  3
Conceptual
350
158
  3
Dim
350
15A
  3
Facepattern
350
15E
  3
Flat
350
150
  3
FlatWithEdges
350
151
  3
Gouraud
350
152
  3
GouraudWithEdges
350
153
  3
Linepattern
350
15D
  3
Realistic
350
159
  3
Thicken
350
15C
  0
WIPEOUTVARIABLES
  5
23
330
19
100
AcDbWipeoutVariables
 70
     1
  0
XRECORD
  5
1C4
102
{ACAD_REACTORS
330
19
102
}
330
19
100
AcDbXrecord
280
     1
 90
        1
330
162
  0
DICTIONARY
  5
1BA
102
{ACAD_REACTORS
330
19
102
}
330
19
100
AcDbDictionary
281
     1
  3
CANNOSCALE
350
1BE
  3
CMLEADERSTYLE
350
1BC
  3
CTABLESTYLE
350
1BB
  3
LAYEREVAL
350
1C0
  3
LAYERNOTIFY
350
1C1
  3
LIGHTINGUNITS
350
1BF
  3
MSLTSCALE
350
1BD
  0
DICTIONARY
  5
188
102
{ACAD_REACTORS
330
19
102
}
330
19
100
AcDbDictionary
281
     1
  0
XRECORD
  5
1B8
102
{ACAD_REACTORS
330
1B7
102
}
330
1B7
100
AcDbXrecord
280
     1
290
     1
  0
XRECORD
  5
1B9
102
{ACAD_REACTORS
330
18E
102
}
330
18E
100
AcDbXrecord
280
     1
290
     1
  0
LAYOUT
  5
21
102
{ACAD_REACTORS
330
1E
102
}
330
1E
100
AcDbPlotSettings
  1

  2

  4

  6

 40
0.0
 41
0.0
 42
0.0
 43
0.0
 44
0.0
 45
0.0
 46
0.0
 47
0.0
 48
0.0
 49
0.0
140
0.0
141
0.0
142
1.0
143
1.0
 70
     0
 72
     0
 73
     0
 74
     0
  7

 75
     0
147
1.0
 76
     0
 77
     2
 78
   300
148
0.0
149
0.0
100
AcDbLayout
  1
Layout1
 70
     0
 71
     1
 10
0.0
 20
0.0
 11
12.0
 21
9.0
 12
0.0
 22
0.0
 32
0.0
 14
1.000000000000000E+20
 24
1.000000000000000E+20
 34
1.000000000000000E+20
 15
-1.000000000000000E+20
 25
-1.000000000000000E+20
 35
-1.000000000000000E+20
146
0.0
 13
0.0
 23
0.0
 33
0.0
 16
1.0
 26
0.0
 36
0.0
 17
0.0
 27
1.0
 37
0.0
 76
     0
330
B
  0
LAYOUT
  5
20
102
{ACAD_REACTORS
330
1E
102
}
330
1E
100
AcDbPlotSettings
  1

  2

  4

  6

 40
0.0
 41
0.0
 42
0.0
 43
0.0
 44
0.0
 45
0.0
 46
0.0
 47
0.0
 48
0.0
 49
0.0
140
0.0
141
0.0
142
1.0
143
1.0
 70
  1024
 72
     0
 73
     0
 74
     0
  7

 75
     0
147
1.0
 76
     0
 77
     2
 78
   300
148
0.0
149
0.0
100
AcDbLayout
  1
Model
 70
     0
 71
     0
 10
0.0
 20
0.0
 11
0.0
 21
0.0
 12
0.0
 22
0.0
 32
0.0
 14
0.0
 24
0.0
 34
0.0
 15
0.0
 25
0.0
 35
0.0
146
0.0
 13
0.0
 23
0.0
 33
0.0
 16
0.0
 26
0.0
 36
0.0
 17
0.0
 27
0.0
 37
0.0
 76
     0
330
A
331
15
  0
MATERIAL
  5
13F
102
{ACAD_XDICTIONARY
360
140
102
}
102
{ACAD_REACTORS
330
136
102
}
330
136
100
AcDbMaterial
  1
ByBlock
 72
     0
 43
0.0208333333333333
 43
0.0
 43
0.0
 43
0.0
 43
0.0
 43
0.0208333333333333
 43
0.0
 43
0.0
 43
0.0
 43
0.0
 43
1.0
 43
0.0
 43
0.0
 43
0.0
 43
0.0
 43
1.0
 77
     0
 47
0.0208333333333333
 47
0.0
 47
0.0
 47
0.0
 47
0.0
 47
0.0208333333333333
 47
0.0
 47
0.0
 47
0.0
 47
0.0
 47
1.0
 47
0.0
 47
0.0
 47
0.0
 47
0.0
 47
1.0
171
     0
 49
0.0208333333333333
 49
0.0
 49
0.0
 49
0.0
 49
0.0
 49
0.0208333333333333
 49
0.0
 49
0.0
 49
0.0
 49
0.0
 49
1.0
 49
0.0
 49
0.0
 49
0.0
 49
0.0
 49
1.0
175
     0
142
0.0208333333333333
142
0.0
142
0.0
142
0.0
142
0.0
142
0.0208333333333333
142
0.0
142
0.0
142
0.0
142
0.0
142
1.0
142
0.0
142
0.0
142
0.0
142
0.0
142
1.0
179
     0
144
0.0208333333333333
144
0.0
144
0.0
144
0.0
144
0.0
144
0.0208333333333333
144
0.0
144
0.0
144
0.0
144
0.0
144
1.0
144
0.0
144
0.0
144
0.0
144
0.0
144
1.0
147
0.0208333333333333
147
0.0
147
0.0
147
0.0
147
0.0
147
0.0208333333333333
147
0.0
147
0.0
147
0.0
147
0.0
147
1.0
147
0.0
147
0.0
147
0.0
147
0.0
147
1.0
  0
MATERIAL
  5
137
102
{ACAD_XDICTIONARY
360
138
102
}
102
{ACAD_REACTORS
330
136
102
}
330
136
100
AcDbMaterial
  1
ByLayer
 72
     0
 43
0.0208333333333333
 43
0.0
 43
0.0
 43
0.0
 43
0.0
 43
0.0208333333333333
 43
0.0
 43
0.0
 43
0.0
 43
0.0
 43
1.0
 43
0.0
 43
0.0
 43
0.0
 43
0.0
 43
1.0
 77
     0
 47
0.0208333333333333
 47
0.0
 47
0.0
 47
0.0
 47
0.0
 47
0.0208333333333333
 47
0.0
 47
0.0
 47
0.0
 47
0.0
 47
1.0
 47
0.0
 47
0.0
 47
0.0
 47
0.0
 47
1.0
171
     0
 49
0.0208333333333333
 49
0.0
 49
0.0
 49
0.0
 49
0.0
 49
0.0208333333333333
 49
0.0
 49
0.0
 49
0.0
 49
0.0
 49
1.0
 49
0.0
 49
0.0
 49
0.0
 49
0.0
 49
1.0
175
     0
142
0.0208333333333333
142
0.0
142
0.0
142
0.0
142
0.0
142
0.0208333333333333
142
0.0
142
0.0
142
0.0
142
0.0
142
1.0
142
0.0
142
0.0
142
0.0
142
0.0
142
1.0
179
     0
144
0.0208333333333333
144
0.0
144
0.0
144
0.0
144
0.0
144
0.0208333333333333
144
0.0
144
0.0
144
0.0
144
0.0
144
1.0
144
0.0
144
0.0
144
0.0
144
0.0
144
1.0
147
0.0208333333333333
147
0.0
147
0.0
147
0.0
147
0.0
147
0.0208333333333333
147
0.0
147
0.0
147
0.0
147
0.0
147
1.0
147
0.0
147
0.0
147
0.0
147
0.0
147
1.0
  0
MATERIAL
  5
147
102
{ACAD_XDICTIONARY
360
148
102
}
102
{ACAD_REACTORS
330
136
102
}
330
136
100
AcDbMaterial
  1
Global
 72
     0
 43
0.0208333333333333
 43
0.0
 43
0.0
 43
0.0
 43
0.0
 43
0.0208333333333333
 43
0.0
 43
0.0
 43
0.0
 43
0.0
 43
1.0
 43
0.0
 43
0.0
 43
0.0
 43
0.0
 43
1.0
 77
     0
 47
0.0208333333333333
 47
0.0
 47
0.0
 47
0.0
 47
0.0
 47
0.0208333333333333
 47
0.0
 47
0.0
 47
0.0
 47
0.0
 47
1.0
 47
0.0
 47
0.0
 47
0.0
 47
0.0
 47
1.0
171
     0
 49
0.0208333333333333
 49
0.0
 49
0.0
 49
0.0
 49
0.0
 49
0.0208333333333333
 49
0.0
 49
0.0
 49
0.0
 49
0.0
 49
1.0
 49
0.0
 49
0.0
 49
0.0
 49
0.0
 49
1.0
175
     0
142
0.0208333333333333
142
0.0
142
0.0
142
0.0
142
0.0
142
0.0208333333333333
142
0.0
142
0.0
142
0.0
142
0.0
142
1.0
142
0.0
142
0.0
142
0.0
142
0.0
142
1.0
179
     0
144
0.0208333333333333
144
0.0
144
0.0
144
0.0
144
0.0
144
0.0208333333333333
144
0.0
144
0.0
144
0.0
144
0.0
144
1.0
144
0.0
144
0.0
144
0.0
144
0.0
144
1.0
147
0.0208333333333333
147
0.0
147
0.0
147
0.0
147
0.0
147
0.0208333333333333
147
0.0
147
0.0
147
0.0
147
0.0
147
1.0
147
0.0
147
0.0
147
0.0
147
0.0
147
1.0
  0
MLEADERSTYLE
  5
176
102
{ACAD_REACTORS
330
175
102
}
330
175
100
AcDbMLeaderStyle
170
     2
171
     1
172
     0
 90
        2
 40
0.0
 41
0.0
173
     1
 91
-1056964608
340
11
 92
       -2
290
     1
 42
2.0
291
     1
 43
0.36
  3
Standard
 44
4.0
300

342
17
174
     1
178
     6
175
     1
176
     0
 93
-1056964608
 45
4.0
292
     0
297
     0
 46
4.0
 94
-1056964608
 47
1.0
 49
1.0
140
1.0
293
     1
141
0.0
294
     1
177
     0
142
1.0
295
     0
296
     0
143
0.125
1001
ACAD_MLEADERVER
1070
     2
  0
MLINESTYLE
  5
1C
102
{ACAD_REACTORS
330
1B
102
}
330
1B
100
AcDbMlineStyle
  2
STANDARD
 70
     0
  3

 62
     0
 51
90.0
 52
90.0
 71
     2
 49
0.5
 62
   256
  6
BYLAYER
 49
-0.5
 62
   256
  6
BYLAYER
  0
ACDBPLACEHOLDER
  5
1D
102
{ACAD_REACTORS
330
1F
102
}
330
1F
  0
SCALE
  5
164
102
{ACAD_REACTORS
330
163
102
}
330
163
100
AcDbScale
 70
     0
300
1:1
140
1.0
141
1.0
290
     1
  0
SCALE
  5
165
102
{ACAD_REACTORS
330
163
102
}
330
163
100
AcDbScale
 70
     0
300
1:2
140
1.0
141
2.0
290
     0
  0
SCALE
  5
166
102
{ACAD_REACTORS
330
163
102
}
330
163
100
AcDbScale
 70
     0
300
1:4
140
1.0
141
4.0
290
     0
  0
SCALE
  5
167
102
{ACAD_REACTORS
330
163
102
}
330
163
100
AcDbScale
 70
     0
300
1:5
140
1.0
141
5.0
290
     0
  0
SCALE
  5
168
102
{ACAD_REACTORS
330
163
102
}
330
163
100
AcDbScale
 70
     0
300
1:8
140
1.0
141
8.0
290
     0
  0
SCALE
  5
169
102
{ACAD_REACTORS
330
163
102
}
330
163
100
AcDbScale
 70
     0
300
1:10
140
1.0
141
10.0
290
     0
  0
SCALE
  5
16A
102
{ACAD_REACTORS
330
163
102
}
330
163
100
AcDbScale
 70
     0
300
1:16
140
1.0
141
16.0
290
     0
  0
SCALE
  5
16B
102
{ACAD_REACTORS
330
163
102
}
330
163
100
AcDbScale
 70
     0
300
1:20
140
1.0
141
20.0
290
     0
  0
SCALE
  5
16C
102
{ACAD_REACTORS
330
163
102
}
330
163
100
AcDbScale
 70
     0
300
1:30
140
1.0
141
30.0
290
     0
  0
SCALE
  5
16D
102
{ACAD_REACTORS
330
163
102
}
330
163
100
AcDbScale
 70
     0
300
1:40
140
1.0
141
40.0
290
     0
  0
SCALE
  5
16E
102
{ACAD_REACTORS
330
163
102
}
330
163
100
AcDbScale
 70
     0
300
1:50
140
1.0
141
50.0
290
     0
  0
SCALE
  5
16F
102
{ACAD_REACTORS
330
163
102
}
330
163
100
AcDbScale
 70
     0
300
1:100
140
1.0
141
100.0
290
     0
  0
SCALE
  5
170
102
{ACAD_REACTORS
330
163
102
}
330
163
100
AcDbScale
 70
     0
300
2:1
140
2.0
141
1.0
290
     0
  0
SCALE
  5
171
102
{ACAD_REACTORS
330
163
102
}
330
163
100
AcDbScale
 70
     0
300
4:1
140
4.0
141
1.0
290
     0
  0
SCALE
  5
172
102
{ACAD_REACTORS
330
163
102
}
330
163
100
AcDbScale
 70
     0
300
8:1
140
8.0
141
1.0
290
     0
  0
SCALE
  5
173
102
{ACAD_REACTORS
330
163
102
}
330
163
100
AcDbScale
 70
     0
300
10:1
140
10.0
141
1.0
290
     0
  0
SCALE
  5
174
102
{ACAD_REACTORS
330
163
102
}
330
163
100
AcDbScale
 70
     0
300
100:1
140
100.0
141
1.0
290
     0
  0
TABLESTYLE
  5
162
102
{ACAD_XDICTIONARY
360
1C2
102
}
102
{ACAD_REACTORS
330
161
102
}
330
161
100
AcDbTableStyle
  3
Standard
 70
     0
 71
     0
 40
1.5
 41
1.5
280
     0
281
     0
  7
Standard
140
4.5
170
     2
 62
     0
 63
     7
283
     0
 90
      512
 91
        0
  1

274
    -2
284
     1
 64
     0
275
    -2
285
     1
 65
     0
276
    -2
286
     1
 66
     0
277
    -2
287
     1
 67
     0
278
    -2
288
     1
 68
     0
279
    -2
289
     1
 69
     0
  7
Standard
140
6.0
170
     5
 62
     0
 63
     7
283
     0
 90
      512
 91
        0
  1

274
    -2
284
     1
 64
     0
275
    -2
285
     1
 65
     0
276
    -2
286
     1
 66
     0
277
    -2
287
     1
 67
     0
278
    -2
288
     1
 68
     0
279
    -2
289
     1
 69
     0
  7
Standard
140
4.5
170
     5
 62
     0
 63
     7
283
     0
 90
      512
 91
        0
  1

274
    -2
284
     1
 64
     0
275
    -2
285
     1
 65
     0
276
    -2
286
     1
 66
     0
277
    -2
287
     1
 67
     0
278
    -2
288
     1
 68
     0
279
    -2
289
     1
 69
     0
  0
VISUALSTYLE
  5
155
102
{ACAD_REACTORS
330
14F
102
}
330
14F
100
AcDbVisualStyle
  2
2dWireframe
 70
     4
 71
     0
 72
     2
 73
     0
 90
        0
 40
-0.6
 41
-30.0
 62
     5
 63
     7
421
 16777215
 74
     1
 91
        4
 64
     7
 65
   257
 75
     1
175
     1
 42
1.0
 92
        0
 66
   257
 43
1.0
 76
     1
 77
     6
 78
     2
 67
     7
 79
     5
170
     0
171
     0
290
     0
174
     0
 93
        1
 44
0.0
173
     0
291
     0
 45
0.0
  0
VISUALSTYLE
  5
157
102
{ACAD_REACTORS
330
14F
102
}
330
14F
100
AcDbVisualStyle
  2
3D Hidden
 70
     6
 71
     1
 72
     2
 73
     2
 90
        0
 40
-0.6
 41
-30.0
 62
     5
 63
     7
421
 16777215
 74
     2
 91
        2
 64
     7
 65
   257
 75
     2
175
     1
 42
40.0
 92
        0
 66
   257
 43
1.0
 76
     1
 77
     6
 78
     2
 67
     7
 79
     3
170
     0
171
     0
290
     0
174
     0
 93
        1
 44
0.0
173
     0
291
     0
 45
0.0
  0
VISUALSTYLE
  5
156
102
{ACAD_REACTORS
330
14F
102
}
330
14F
100
AcDbVisualStyle
  2
3dWireframe
 70
     5
 71
     0
 72
     2
 73
     0
 90
        0
 40
-0.6
 41
-30.0
 62
     5
 63
     7
421
 16777215
 74
     1
 91
        4
 64
     7
 65
   257
 75
     1
175
     1
 42
1.0
 92
        0
 66
   257
 43
1.0
 76
     1
 77
     6
 78
     2
 67
     7
 79
     5
170
     0
171
     0
290
     0
174
     0
 93
        1
 44
0.0
173
     0
291
     0
 45
0.0
  0
VISUALSTYLE
  5
154
102
{ACAD_REACTORS
330
14F
102
}
330
14F
100
AcDbVisualStyle
  2
Basic
 70
     7
 71
     1
 72
     0
 73
     1
 90
        0
 40
-0.6
 41
-30.0
 62
     5
 63
     7
421
 16777215
 74
     0
 91
        4
 64
     7
 65
   257
 75
     1
175
     1
 42
1.0
 92
        8
 66
     7
 43
1.0
 76
     1
 77
     6
 78
     2
 67
     7
 79
     5
170
     0
171
     0
290
     0
174
     0
 93
        1
 44
0.0
173
     0
291
     1
 45
0.0
  0
VISUALSTYLE
  5
15B
102
{ACAD_REACTORS
330
14F
102
}
330
14F
100
AcDbVisualStyle
  2
Brighten
 70
    12
 71
     2
 72
     2
 73
     0
 90
        0
 40
-0.6
 41
-30.0
 62
     5
 63
     7
421
 16777215
 74
     1
 91
        4
 64
     7
 65
   257
 75
     1
175
     1
 42
1.0
 92
        8
 66
     7
 43
1.0
 76
     1
 77
     6
 78
     2
 67
     7
 79
     5
170
     0
171
     0
290
     0
174
     0
 93
        1
 44
50.0
173
     0
291
     1
 45
0.0
  0
VISUALSTYLE
  5
15F
102
{ACAD_REACTORS
330
14F
102
}
330
14F
100
AcDbVisualStyle
  2
ColorChange
 70
    16
 71
     2
 72
     2
 73
     3
 90
        0
 40
-0.6
 41
-30.0
 62
     5
 63
     8
421
  8421504
 74
     1
 91
        4
 64
     7
 65
   257
 75
     1
175
     1
 42
1.0
 92
        8
 66
     8
424
  8421504
 43
1.0
 76
     1
 77
     6
 78
     2
 67
     7
 79
     5
170
     0
171
     0
290
     0
174
     0
 93
        1
 44
0.0
173
     0
291
     1
 45
0.0
  0
VISUALSTYLE
  5
158
102
{ACAD_REACTORS
330
14F
102
}
330
14F
100
AcDbVisualStyle
  2
Conceptual
 70
     9
 71
     3
 72
     2
 73
     0
 90
        0
 40
-0.6
 41
-30.0
 62
     5
 63
     7
421
 16777215
 74
     2
 91
        2
 64
     7
 65
   257
 75
     1
175
     1
 42
40.0
 92
        8
 66
     7
 43
1.0
 76
     1
 77
     6
 78
     2
 67
     7
 79
     3
170
     0
171
     0
290
     0
174
     0
 93
        1
 44
0.0
173
     0
291
     0
 45
0.0
  0
VISUALSTYLE
  5
15A
102
{ACAD_REACTORS
330
14F
102
}
330
14F
100
AcDbVisualStyle
  2
Dim
 70
    11
 71
     2
 72
     2
 73
     0
 90
        0
 40
-0.6
 41
-30.0
 62
     5
 63
     7
421
 16777215
 74
     1
 91
        4
 64
     7
 65
   257
 75
     1
175
     1
 42
1.0
 92
        8
 66
     7
 43
1.0
 76
     1
 77
     6
 78
     2
 67
     7
 79
     5
170
     0
171
     0
290
     0
174
     0
 93
        1
 44
-50.0
173
     0
291
     1
 45
0.0
  0
VISUALSTYLE
  5
15E
102
{ACAD_REACTORS
330
14F
102
}
330
14F
100
AcDbVisualStyle
  2
Facepattern
 70
    15
 71
     2
 72
     2
 73
     0
 90
        0
 40
-0.6
 41
-30.0
 62
     5
 63
     7
421
 16777215
 74
     1
 91
        4
 64
     7
 65
   257
 75
     1
175
     1
 42
1.0
 92
        8
 66
     7
 43
1.0
 76
     1
 77
     6
 78
     2
 67
     7
 79
     5
170
     0
171
     0
290
     0
174
     0
 93
        1
 44
0.0
173
     0
291
     1
 45
0.0
  0
VISUALSTYLE
  5
150
102
{ACAD_REACTORS
330
14F
102
}
330
14F
100
AcDbVisualStyle
  2
Flat
 70
     0
 71
     2
 72
     1
 73
     1
 90
        2
 40
-0.6
 41
30.0
 62
     5
 63
     7
421
 16777215
 74
     0
 91
        4
 64
     7
 65
   257
 75
     1
175
     1
 42
1.0
 92
        8
 66
     7
 43
1.0
 76
     1
 77
     6
 78
     2
 67
     7
 79
     5
170
     0
171
     0
290
     0
174
     0
 93
       13
 44
0.0
173
     0
291
     1
 45
0.0
  0
VISUALSTYLE
  5
151
102
{ACAD_REACTORS
330
14F
102
}
330
14F
100
AcDbVisualStyle
  2
FlatWithEdges
 70
     1
 71
     2
 72
     1
 73
     1
 90
        2
 40
-0.6
 41
30.0
 62
     5
 63
     7
421
 16777215
 74
     1
 91
        4
 64
     7
 65
   257
 75
     1
175
     1
 42
1.0
 92
        0
 66
   257
 43
1.0
 76
     1
 77
     6
 78
     2
 67
     7
 79
     5
170
     0
171
     0
290
     0
174
     0
 93
       13
 44
0.0
173
     0
291
     1
 45
0.0
  0
VISUALSTYLE
  5
152
102
{ACAD_REACTORS
330
14F
102
}
330
14F
100
AcDbVisualStyle
  2
Gouraud
 70
     2
 71
     2
 72
     2
 73
     1
 90
        2
 40
-0.6
 41
30.0
 62
     5
 63
     7
421
 16777215
 74
     0
 91
        4
 64
     7
 65
   257
 75
     1
175
     1
 42
1.0
 92
        0
 66
     7
 43
1.0
 76
     1
 77
     6
 78
     2
 67
     7
 79
     5
170
     0
171
     0
290
     0
174
     0
 93
       13
 44
0.0
173
     0
291
     1
 45
0.0
  0
VISUALSTYLE
  5
153
102
{ACAD_REACTORS
330
14F
102
}
330
14F
100
AcDbVisualStyle
  2
GouraudWithEdges
 70
     3
 71
     2
 72
     2
 73
     1
 90
        2
 40
-0.6
 41
30.0
 62
     5
 63
     7
421
 16777215
 74
     1
 91
        4
 64
     7
 65
   257
 75
     1
175
     1
 42
1.0
 92
        0
 66
   257
 43
1.0
 76
     1
 77
     6
 78
     2
 67
     7
 79
     5
170
     0
171
     0
290
     0
174
     0
 93
       13
 44
0.0
173
     0
291
     1
 45
0.0
  0
VISUALSTYLE
  5
15D
102
{ACAD_REACTORS
330
14F
102
}
330
14F
100
AcDbVisualStyle
  2
Linepattern
 70
    14
 71
     2
 72
     2
 73
     0
 90
        0
 40
-0.6
 41
-30.0
 62
     5
 63
     7
421
 16777215
 74
     1
 91
        4
 64
     7
 65
   257
 75
     7
175
     7
 42
1.0
 92
        8
 66
     7
 43
1.0
 76
     1
 77
     6
 78
     2
 67
     7
 79
     5
170
     0
171
     0
290
     0
174
     0
 93
        1
 44
0.0
173
     0
291
     1
 45
0.0
  0
VISUALSTYLE
  5
159
102
{ACAD_REACTORS
330
14F
102
}
330
14F
100
AcDbVisualStyle
  2
Realistic
 70
     8
 71
     2
 72
     2
 73
     0
 90
        0
 40
-0.6
 41
-30.0
 62
     5
 63
     7
421
 16777215
 74
     1
 91
        0
 64
     7
 65
   257
 75
     1
175
     1
 42
1.0
 92
        8
 66
     8
424
  7895160
 43
1.0
 76
     1
 77
     6
 78
     2
 67
     7
 79
     5
170
     0
171
     0
290
     0
174
     0
 93
       13
 44
0.0
173
     0
291
     0
 45
0.0
  0
VISUALSTYLE
  5
15C
102
{ACAD_REACTORS
330
14F
102
}
330
14F
100
AcDbVisualStyle
  2
Thicken
 70
    13
 71
     2
 72
     2
 73
     0
 90
        0
 40
-0.6
 41
-30.0
 62
     5
 63
     7
421
 16777215
 74
     1
 91
        4
 64
     7
 65
   257
 75
     1
175
     1
 42
1.0
 92
       12
 66
     7
 43
1.0
 76
     1
 77
     6
 78
     2
 67
     7
 79
     5
170
     0
171
     0
290
     0
174
     0
 93
        1
 44
0.0
173
     0
291
     1
 45
0.0
  0
DICTIONARYVAR
  5
1BE
102
{ACAD_REACTORS
330
1BA
102
}
330
1BA
100
DictionaryVariables
280
     0
  1
1:1
  0
DICTIONARYVAR
  5
1BC
102
{ACAD_REACTORS
330
1BA
102
}
330
1BA
100
DictionaryVariables
280
     0
  1
STANDARD
  0
DICTIONARYVAR
  5
1BB
102
{ACAD_REACTORS
330
1BA
102
}
330
1BA
100
DictionaryVariables
280
     0
  1
STANDARD
  0
DICTIONARYVAR
  5
1C0
102
{ACAD_REACTORS
330
1BA
102
}
330
1BA
100
DictionaryVariables
280
     0
  1
1
  0
DICTIONARYVAR
  5
1C1
102
{ACAD_REACTORS
330
1BA
102
}
330
1BA
100
DictionaryVariables
280
     0
  1
15
  0
DICTIONARYVAR
  5
1BF
102
{ACAD_REACTORS
330
1BA
102
}
330
1BA
100
DictionaryVariables
280
     0
  1
0
  0
DICTIONARYVAR
  5
1BD
102
{ACAD_REACTORS
330
1BA
102
}
330
1BA
100
DictionaryVariables
280
     0
  1
0
  0
DICTIONARY
  5
140
330
13F
100
AcDbDictionary
280
     1
281
     1
  3
BUMPTILE
360
142
  3
DIFFUSETILE
360
141
  3
OPACITYTILE
360
145
  3
REFLECTIONTILE
360
144
  3
REFRACTIONTILE
360
146
  3
SPECULARTILE
360
143
  0
DICTIONARY
  5
138
330
137
100
AcDbDictionary
280
     1
281
     1
  3
BUMPTILE
360
13A
  3
DIFFUSETILE
360
139
  3
OPACITYTILE
360
13D
  3
REFLECTIONTILE
360
13C
  3
REFRACTIONTILE
360
13E
  3
SPECULARTILE
360
13B
  0
DICTIONARY
  5
148
330
147
100
AcDbDictionary
280
     1
281
     1
  3
BUMPTILE
360
14A
  3
DIFFUSETILE
360
149
  3
OPACITYTILE
360
14D
  3
REFLECTIONTILE
360
14C
  3
REFRACTIONTILE
360
14E
  3
SPECULARTILE
360
14B
  0
DICTIONARY
  5
1C2
330
162
100
AcDbDictionary
280
     1
281
     1
  3
ACAD_ROUNDTRIP_2008_TABLESTYLE_CELLSTYLEMAP
360
1C3
  0
XRECORD
  5
142
102
{ACAD_REACTORS
330
140
102
}
330
140
100
AcDbXrecord
280
     1
270
     1
271
     1
  0
XRECORD
  5
141
102
{ACAD_REACTORS
330
140
102
}
330
140
100
AcDbXrecord
280
     1
270
     1
271
     1
  0
XRECORD
  5
145
102
{ACAD_REACTORS
330
140
102
}
330
140
100
AcDbXrecord
280
     1
270
     1
271
     1
  0
XRECORD
  5
144
102
{ACAD_REACTORS
330
140
102
}
330
140
100
AcDbXrecord
280
     1
270
     1
271
     1
  0
XRECORD
  5
146
102
{ACAD_REACTORS
330
140
102
}
330
140
100
AcDbXrecord
280
     1
270
     1
271
     1
  0
XRECORD
  5
143
102
{ACAD_REACTORS
330
140
102
}
330
140
100
AcDbXrecord
280
     1
270
     1
271
     1
  0
XRECORD
  5
13A
102
{ACAD_REACTORS
330
138
102
}
330
138
100
AcDbXrecord
280
     1
270
     1
271
     1
  0
XRECORD
  5
139
102
{ACAD_REACTORS
330
138
102
}
330
138
100
AcDbXrecord
280
     1
270
     1
271
     1
  0
XRECORD
  5
13D
102
{ACAD_REACTORS
330
138
102
}
330
138
100
AcDbXrecord
280
     1
270
     1
271
     1
  0
XRECORD
  5
13C
102
{ACAD_REACTORS
330
138
102
}
330
138
100
AcDbXrecord
280
     1
270
     1
271
     1
  0
XRECORD
  5
13E
102
{ACAD_REACTORS
330
138
102
}
330
138
100
AcDbXrecord
280
     1
270
     1
271
     1
  0
XRECORD
  5
13B
102
{ACAD_REACTORS
330
138
102
}
330
138
100
AcDbXrecord
280
     1
270
     1
271
     1
  0
XRECORD
  5
14A
102
{ACAD_REACTORS
330
148
102
}
330
148
100
AcDbXrecord
280
     1
270
     1
271
     1
  0
XRECORD
  5
149
102
{ACAD_REACTORS
330
148
102
}
330
148
100
AcDbXrecord
280
     1
270
     1
271
     1
  0
XRECORD
  5
14D
102
{ACAD_REACTORS
330
148
102
}
330
148
100
AcDbXrecord
280
     1
270
     1
271
     1
  0
XRECORD
  5
14C
102
{ACAD_REACTORS
330
148
102
}
330
148
100
AcDbXrecord
280
     1
270
     1
271
     1
  0
XRECORD
  5
14E
102
{ACAD_REACTORS
330
148
102
}
330
148
100
AcDbXrecord
280
     1
270
     1
271
     1
  0
XRECORD
  5
14B
102
{ACAD_REACTORS
330
148
102
}
330
148
100
AcDbXrecord
280
     1
270
     1
271
     1
  0
CELLSTYLEMAP
  5
1C3
102
{ACAD_REACTORS
330
1C2
102
}
330
1C2
100
AcDbCellStyleMap
 90
        3
300
CELLSTYLE
  1
TABLEFORMAT_BEGIN
 90
        5
170
     1
 91
        0
 92
    32768
 62
   257
 93
        1
300
CONTENTFORMAT
  1
CONTENTFORMAT_BEGIN
 90
        0
 91
        0
 92
      512
 93
        0
300

 40
0.0
140
1.0
 94
        5
 62
     0
340
17
144
6.0
309
CONTENTFORMAT_END
171
     1
301
MARGIN
  1
CELLMARGIN_BEGIN
 40
1.5
 40
1.5
 40
1.5
 40
1.5
 40
4.5
 40
4.5
309
CELLMARGIN_END
 94
        6
 95
        1
302
GRIDFORMAT
  1
GRIDFORMAT_BEGIN
 90
        0
 91
        1
 62
     0
 92
       -2
340
0
 93
        0
 40
1.125
309
GRIDFORMAT_END
 95
        2
302
GRIDFORMAT
  1
GRIDFORMAT_BEGIN
 90
        0
 91
        1
 62
     0
 92
       -2
340
0
 93
        0
 40
1.125
309
GRIDFORMAT_END
 95
        4
302
GRIDFORMAT
  1
GRIDFORMAT_BEGIN
 90
        0
 91
        1
 62
     0
 92
       -2
340
0
 93
        0
 40
1.125
309
GRIDFORMAT_END
 95
        8
302
GRIDFORMAT
  1
GRIDFORMAT_BEGIN
 90
        0
 91
        1
 62
     0
 92
       -2
340
0
 93
        0
 40
1.125
309
GRIDFORMAT_END
 95
       16
302
GRIDFORMAT
  1
GRIDFORMAT_BEGIN
 90
        0
 91
        1
 62
     0
 92
       -2
340
0
 93
        0
 40
1.125
309
GRIDFORMAT_END
 95
       32
302
GRIDFORMAT
  1
GRIDFORMAT_BEGIN
 90
        0
 91
        1
 62
     0
 92
       -2
340
0
 93
        0
 40
1.125
309
GRIDFORMAT_END
309
TABLEFORMAT_END
  1
CELLSTYLE_BEGIN
 90
        1
 91
        1
300
_TITLE
309
CELLSTYLE_END
300
CELLSTYLE
  1
TABLEFORMAT_BEGIN
 90
        5
170
     1
 91
        0
 92
        0
 62
   257
 93
        1
300
CONTENTFORMAT
  1
CONTENTFORMAT_BEGIN
 90
        0
 91
        0
 92
      512
 93
        0
300

 40
0.0
140
1.0
 94
        5
 62
     0
340
17
144
4.5
309
CONTENTFORMAT_END
171
     1
301
MARGIN
  1
CELLMARGIN_BEGIN
 40
1.5
 40
1.5
 40
1.5
 40
1.5
 40
4.5
 40
4.5
309
CELLMARGIN_END
 94
        6
 95
        1
302
GRIDFORMAT
  1
GRIDFORMAT_BEGIN
 90
        0
 91
        1
 62
     0
 92
       -2
340
0
 93
        0
 40
1.125
309
GRIDFORMAT_END
 95
        2
302
GRIDFORMAT
  1
GRIDFORMAT_BEGIN
 90
        0
 91
        1
 62
     0
 92
       -2
340
0
 93
        0
 40
1.125
309
GRIDFORMAT_END
 95
        4
302
GRIDFORMAT
  1
GRIDFORMAT_BEGIN
 90
        0
 91
        1
 62
     0
 92
       -2
340
0
 93
        0
 40
1.125
309
GRIDFORMAT_END
 95
        8
302
GRIDFORMAT
  1
GRIDFORMAT_BEGIN
 90
        0
 91
        1
 62
     0
 92
       -2
340
0
 93
        0
 40
1.125
309
GRIDFORMAT_END
 95
       16
302
GRIDFORMAT
  1
GRIDFORMAT_BEGIN
 90
        0
 91
        1
 62
     0
 92
       -2
340
0
 93
        0
 40
1.125
309
GRIDFORMAT_END
 95
       32
302
GRIDFORMAT
  1
GRIDFORMAT_BEGIN
 90
        0
 91
        1
 62
     0
 92
       -2
340
0
 93
        0
 40
1.125
309
GRIDFORMAT_END
309
TABLEFORMAT_END
  1
CELLSTYLE_BEGIN
 90
        2
 91
        1
300
_HEADER
309
CELLSTYLE_END
300
CELLSTYLE
  1
TABLEFORMAT_BEGIN
 90
        5
170
     1
 91
        0
 92
        0
 62
   257
 93
        1
300
CONTENTFORMAT
  1
CONTENTFORMAT_BEGIN
 90
        0
 91
        0
 92
      512
 93
        0
300

 40
0.0
140
1.0
 94
        2
 62
     0
340
17
144
4.5
309
CONTENTFORMAT_END
171
     1
301
MARGIN
  1
CELLMARGIN_BEGIN
 40
1.5
 40
1.5
 40
1.5
 40
1.5
 40
4.5
 40
4.5
309
CELLMARGIN_END
 94
        6
 95
        1
302
GRIDFORMAT
  1
GRIDFORMAT_BEGIN
 90
        0
 91
        1
 62
     0
 92
       -2
340
0
 93
        0
 40
1.125
309
GRIDFORMAT_END
 95
        2
302
GRIDFORMAT
  1
GRIDFORMAT_BEGIN
 90
        0
 91
        1
 62
     0
 92
       -2
340
0
 93
        0
 40
1.125
309
GRIDFORMAT_END
 95
        4
302
GRIDFORMAT
  1
GRIDFORMAT_BEGIN
 90
        0
 91
        1
 62
     0
 92
       -2
340
0
 93
        0
 40
1.125
309
GRIDFORMAT_END
 95
        8
302
GRIDFORMAT
  1
GRIDFORMAT_BEGIN
 90
        0
 91
        1
 62
     0
 92
       -2
340
0
 93
        0
 40
1.125
309
GRIDFORMAT_END
 95
       16
302
GRIDFORMAT
  1
GRIDFORMAT_BEGIN
 90
        0
 91
        1
 62
     0
 92
       -2
340
0
 93
        0
 40
1.125
309
GRIDFORMAT_END
 95
       32
302
GRIDFORMAT
  1
GRIDFORMAT_BEGIN
 90
        0
 91
        1
 62
     0
 92
       -2
340
0
 93
        0
 40
1.125
309
GRIDFORMAT_END
309
TABLEFORMAT_END
  1
CELLSTYLE_BEGIN
 90
        3
 91
        2
300
_DATA
309
CELLSTYLE_END
  0
ENDSEC
  0
EOF
