  0
SECTION
  2
HEADER
  9
$ACADVER
  1
AC1009
  9
$INSBASE
 10
0.0
 20
0.0
 30
0.0
  9
$EXTMIN
 10
-18.71108206844103
 20
-4.2584924328418232
 30
0.0
  9
$EXTMAX
 10
10.874591832414851
 20
10.040206800713671
 30
0.0
  9
$LIMMIN
 10
0.0
 20
0.0
  9
$LIMMAX
 10
12.0
 20
9.0
  9
$ORTHOMODE
 70
     1
  9
$REGENMODE
 70
     1
  9
$FILLMODE
 70
     1
  9
$QTEXTMODE
 70
     0
  9
$MIRRTEXT
 70
     1
  9
$DRAGMODE
 70
     2
  9
$LTSCALE
 40
1.0
  9
$OSMODE
 70
     1
  9
$ATTMODE
 70
     1
  9
$TEXTSIZE
 40
0.2
  9
$TRACEWID
 40
0.05
  9
$TEXTSTYLE
  7
STANDARD
  9
$CLAYER
  8
0
  9
$CELTYPE
  6
CONTINUOUS
  9
$CECOLOR
 62
   256
  9
$DIMSCALE
 40
1.0
  9
$DIMASZ
 40
0.18
  9
$DIMEXO
 40
0.0625
  9
$DIMDLI
 40
0.38
  9
$DIMRND
 40
0.0
  9
$DIMDLE
 40
0.0
  9
$DIMEXE
 40
0.18
  9
$DIMTP
 40
0.0
  9
$DIMTM
 40
0.0
  9
$DIMTXT
 40
0.18
  9
$DIMCEN
 40
0.09
  9
$DIMTSZ
 40
0.0
  9
$DIMTOL
 70
     0
  9
$DIMLIM
 70
     0
  9
$DIMTIH
 70
     1
  9
$DIMTOH
 70
     1
  9
$DIMSE1
 70
     0
  9
$DIMSE2
 70
     0
  9
$DIMTAD
 70
     0
  9
$DIMZIN
 70
     0
  9
$DIMBLK
  1

  9
$DIMASO
 70
     1
  9
$DIMSHO
 70
     1
  9
$DIMPOST
  1

  9
$DIMAPOST
  1

  9
$DIMALT
 70
     0
  9
$DIMALTD
 70
     2
  9
$DIMALTF
 40
25.399999999999999
  9
$DIMLFAC
 40
1.0
  9
$DIMTOFL
 70
     0
  9
$DIMTVP
 40
0.0
  9
$DIMTIX
 70
     0
  9
$DIMSOXD
 70
     0
  9
$DIMSAH
 70
     0
  9
$DIMBLK1
  1

  9
$DIMBLK2
  1

  9
$DIMSTYLE
  2
STANDARD
  9
$DIMCLRD
 70
     0
  9
$DIMCLRE
 70
     0
  9
$DIMCLRT
 70
     0
  9
$DIMTFAC
 40
1.0
  9
$DIMGAP
 40
0.09
  9
$LUNITS
 70
     2
  9
$LUPREC
 70
     4
  9
$SKETCHINC
 40
0.1
  9
$FILLETRAD
 40
0.0
  9
$AUNITS
 70
     0
  9
$AUPREC
 70
     2
  9
$MENU
  1
.
  9
$ELEVATION
 40
0.0
  9
$PELEVATION
 40
0.0
  9
$THICKNESS
 40
0.0
  9
$LIMCHECK
 70
     0
  9
$BLIPMODE
 70
     0
  9
$CHAMFERA
 40
0.0
  9
$CHAMFERB
 40
0.0
  9
$SKPOLY
 70
     0
  9
$TDCREATE
 40
2453067.5968662729
  9
$TDUPDATE
 40
2453077.7108255322
  9
$TDINDWG
 40
0.0298756597
  9
$TDUSRTIMER
 40
0.0298753125
  9
$USRTIMER
 70
     1
  9
$ANGBASE
 50
0.0
  9
$ANGDIR
 70
     0
  9
$PDMODE
 70
     0
  9
$PDSIZE
 40
0.0
  9
$PLINEWID
 40
0.0
  9
$COORDS
 70
     1
  9
$SPLFRAME
 70
     0
  9
$SPLINETYPE
 70
     6
  9
$SPLINESEGS
 70
     8
  9
$ATTDIA
 70
     1
  9
$ATTREQ
 70
     1
  9
$HANDLING
 70
 22529
  9
$HANDSEED
  5
8F0
  9
$SURFTAB1
 70
     6
  9
$SURFTAB2
 70
     6
  9
$SURFTYPE
 70
     6
  9
$SURFU
 70
     6
  9
$SURFV
 70
     6
  9
$UCSNAME
  2

  9
$UCSORG
 10
0.0
 20
0.0
 30
0.0
  9
$UCSXDIR
 10
1.0
 20
0.0
 30
0.0
  9
$UCSYDIR
 10
0.0
 20
1.0
 30
0.0
  9
$PUCSNAME
  2

  9
$PUCSORG
 10
0.0
 20
0.0
 30
0.0
  9
$PUCSXDIR
 10
1.0
 20
0.0
 30
0.0
  9
$PUCSYDIR
 10
0.0
 20
1.0
 30
0.0
  9
$USERI1
 70
     0
  9
$USERI2
 70
     0
  9
$USERI3
 70
     0
  9
$USERI4
 70
     0
  9
$USERI5
 70
     0
  9
$USERR1
 40
0.0
  9
$USERR2
 40
0.0
  9
$USERR3
 40
0.0
  9
$USERR4
 40
0.0
  9
$USERR5
 40
0.0
  9
$WORLDVIEW
 70
     1
  9
$SHADEDGE
 70
     3
  9
$SHADEDIF
 70
    70
  9
$TILEMODE
 70
     1
  9
$MAXACTVP
 70
    64
  9
$PLIMCHECK
 70
     0
  9
$PEXTMIN
 10
-3.3056395283165401
 20
-2.1824138773907329
 30
0.0
  9
$PEXTMAX
 10
293.69436047168341
 20
397.32777628613673
 30
0.0
  9
$PLIMMIN
 10
-0.1979161059762549
 20
-0.2679166643638311
  9
$PLIMMAX
 10
11.493750144177531
 20
7.9987497780266699
  9
$UNITMODE
 70
     0
  9
$VISRETAIN
 70
     1
  9
$PLINEGEN
 70
     0
  9
$PSLTSCALE
 70
     1
  0
ENDSEC
  0
SECTION
  2
TABLES
  0
TABLE
  2
VPORT
 70
     2
  0
VPORT
  2
*ACTIVE
 70
     0
 10
0.0
 20
0.0
 11
1.0
 21
1.0
 12
-3.0729520388995288
 22
3.2878082455001589
 13
0.0
 23
0.0
 14
1.0
 24
1.0
 15
0.0
 25
0.0
 16
0.0
 26
0.0
 36
1.0
 17
0.0
 27
0.0
 37
0.0
 40
17.139604627321798
 41
1.928853754940711
 42
50.0
 43
0.0
 44
0.0
 50
0.0
 51
0.0
 71
     0
 72
   100
 73
     1
 74
     1
 75
     0
 76
     0
 77
     0
 78
     0
  0
ENDTAB
  0
TABLE
  2
LTYPE
 70
     1
  0
LTYPE
  2
CONTINUOUS
 70
     0
  3
Solid line
 72
    65
 73
     0
 40
0.0
  0
ENDTAB
  0
TABLE
  2
LAYER
 70
     3
  0
LAYER
  2
0
 70
     0
 62
     7
  6
CONTINUOUS
  0
LAYER
  2
DEFPOINTS
 70
     0
 62
     7
  6
CONTINUOUS
  0
LAYER
  2
COTATION-JACOBDELAFON
 70
     0
 62
     8
  6
CONTINUOUS
  0
ENDTAB
  0
TABLE
  2
STYLE
 70
     2
  0
STYLE
  2
STANDARD
 70
     0
 40
0.0
 41
1.0
 50
0.0
 71
     0
 42
0.2
  3
txt
  4

  0
STYLE
  2
JACOB-DELAFON
 70
     0
 40
0.0
 41
1.0
 50
0.0
 71
     0
 42
2.5
  3
txt
  4

  0
ENDTAB
  0
TABLE
  2
VIEW
 70
     0
  0
ENDTAB
  0
TABLE
  2
UCS
 70
     0
  0
ENDTAB
  0
TABLE
  2
APPID
 70
     9
  0
APPID
  2
ACAD
 70
     0
  0
APPID
  2
ADCADD_ZZ
 70
     0
  0
APPID
  2
SDSK_PMN
 70
     0
  0
APPID
  2
ACAECLAYERSTANDARD
 70
     0
  0
APPID
  2
AECBASE
 70
     0
  0
APPID
  2
AEC_DWGVARSSETUP_DATA
 70
     0
  0
APPID
  2
AEC_DISPREPCONFIG_DATA
 70
     0
  0
APPID
  2
AEC_DISPREPSET_DATA
 70
     0
  0
APPID
  2
DCO15
 70
     0
  0
ENDTAB
  0
TABLE
  2
DIMSTYLE
 70
     2
  0
DIMSTYLE
  2
STANDARD
 70
     0
  3

  4

  5

  6

  7

 40
1.0
 41
0.18
 42
0.0625
 43
0.38
 44
0.18
 45
0.0
 46
0.0
 47
0.0
 48
0.0
140
0.18
141
0.09
142
0.0
143
25.399999999999999
144
1.0
145
0.0
146
1.0
147
0.09
 71
     0
 72
     0
 73
     1
 74
     1
 75
     0
 76
     0
 77
     0
 78
     0
170
     0
171
     2
172
     0
173
     0
174
     0
175
     0
176
     0
177
     0
178
     0
  0
DIMSTYLE
  2
COTATION-JACOB-DELAFON
 70
     0
  3

  4

  5

  6

  7

 40
1.0
 41
1.8
 42
0.625
 43
3.7999999999999989
 44
1.8
 45
0.0
 46
0.0
 47
0.0
 48
0.0
140
3.0
141
0.9
142
0.0
143
25.399999999999999
144
1.0
145
0.0
146
1.0
147
0.9
 71
     0
 72
     0
 73
     0
 74
     0
 75
     0
 76
     0
 77
     1
 78
    12
170
     0
171
     2
172
     0
173
     0
174
     0
175
     0
176
     0
177
     0
178
     0
  0
ENDTAB
  0
ENDSEC
  0
SECTION
  2
BLOCKS
  0
BLOCK
  8
0
  2
$MODEL_SPACE
 70
     0
 10
0.0
 20
0.0
 30
0.0
  3
$MODEL_SPACE
  1

  0
ENDBLK
  5
49B
  8
0
  0
BLOCK
 67
     1
  8
0
  2
$PAPER_SPACE
 70
     0
 10
0.0
 20
0.0
 30
0.0
  3
$PAPER_SPACE
  1

  0
ENDBLK
  5
497
 67
     1
  8
0
  0
BLOCK
  8
0
  2
*D2
 70
     1
 10
0.0
 20
0.0
 30
0.0
  3
*D2
  1

  0
LINE
  5
4B4
  8
COTATION-JACOBDELAFON
 62
     0
 10
-7.4903639815653662
 20
3.4480976404514441
 30
0.0
 11
-7.4903639815653662
 21
7.8829080285445041
 31
0.0
  0
LINE
  5
4B5
  8
COTATION-JACOBDELAFON
 62
     0
 10
7.5096360184346329
 20
3.4480976404514441
 30
0.0
 11
7.5096360184346329
 21
7.8829080285445041
 31
0.0
  0
LINE
  5
4B6
  8
COTATION-JACOBDELAFON
 62
     0
 10
-7.4903639815653662
 20
6.0829080285445043
 30
0.0
 11
7.5096360184346329
 21
6.0829080285445043
 31
0.0
  0
INSERT
  5
4B8
  8
COTATION-JACOBDELAFON
 62
     0
  2
_OBLIQUE
 10
-7.4903639815653662
 20
6.0829080285445043
 30
0.0
 41
1.8
 42
1.8
 43
1.8
 50
180.0
  0
INSERT
  5
4B9
  8
COTATION-JACOBDELAFON
 62
     0
  2
_OBLIQUE
 10
7.5096360184346329
 20
6.0829080285445043
 30
0.0
 41
1.8
 42
1.8
 43
1.8
  0
TEXT
  5
4BA
  8
0
  6
CONTINUOUS
 62
     0
 10
-2.4654663008013831
 20
7.0402068007136709
 30
0.0
 40
3.0
  1
15
  7
JACOB-DELAFON
  0
POINT
  5
4BB
  8
DEFPOINTS
 62
     0
 10
-7.4903639815653662
 20
2.823097640451445
 30
0.0
  0
POINT
  5
4BC
  8
DEFPOINTS
 62
     0
 10
7.5096360184346329
 20
2.823097640451445
 30
0.0
  0
POINT
  5
4BD
  8
DEFPOINTS
 62
     0
 10
7.5096360184346329
 20
6.0829080285445043
 30
0.0
  0
ENDBLK
  5
4BE
  8
0
  0
BLOCK
  8
0
  2
_OBLIQUE
 70
     0
 10
0.0
 20
0.0
 30
0.0
  3
_OBLIQUE
  1

  0
LINE
  5
4C0
  8
0
  6
BYBLOCK
 62
     0
 10
-0.5
 20
-0.5
 30
0.0
 11
0.5
 21
0.5
 31
0.0
  0
ENDBLK
  5
4C1
  8
0
  0
BLOCK
  8
0
  2
*D4
 70
     1
 10
0.0
 20
0.0
 30
0.0
  3
*D4
  1

  0
LINE
  5
4C4
  8
COTATION-JACOBDELAFON
 62
     0
 10
-8.1153639815653698
 20
3.3451268176606641
 30
0.0
 11
-14.30378329627187
 21
3.345126817660665
 31
0.0
  0
LINE
  5
4C5
  8
COTATION-JACOBDELAFON
 62
     0
 10
-8.1153639815653662
 20
-3.3584924328418242
 30
0.0
 11
-14.30378329627187
 21
-3.358492432841822
 31
0.0
  0
LINE
  5
4C6
  8
COTATION-JACOBDELAFON
 62
     0
 10
-12.50378329627187
 20
3.345126817660665
 30
0.0
 11
-12.50378329627187
 21
-3.358492432841822
 31
0.0
  0
TEXT
  5
4C7
  8
0
  6
CONTINUOUS
 62
     0
 10
-15.711082068441041
 20
-2.9033403792140442
 30
0.0
 40
3.0
  1
6.7
 50
90.0
  7
JACOB-DELAFON
  0
INSERT
  5
4C8
  8
COTATION-JACOBDELAFON
 62
     0
  2
_OBLIQUE
 10
-12.50378329627187
 20
3.345126817660665
 30
0.0
 41
1.8
 42
1.8
 43
1.8
 50
90.0
  0
INSERT
  5
4C9
  8
COTATION-JACOBDELAFON
 62
     0
  2
_OBLIQUE
 10
-12.50378329627187
 20
-3.358492432841822
 30
0.0
 41
1.8
 42
1.8
 43
1.8
 50
270.0
  0
POINT
  5
4CA
  8
DEFPOINTS
 62
     0
 10
-7.4903639815653662
 20
3.3451268176606641
 30
0.0
  0
POINT
  5
4CB
  8
DEFPOINTS
 62
     0
 10
-7.4903639815653662
 20
-3.3584924328418242
 30
0.0
  0
POINT
  5
4CC
  8
DEFPOINTS
 62
     0
 10
-12.50378329627187
 20
-3.358492432841822
 30
0.0
  0
ENDBLK
  5
4CD
  8
0
  0
BLOCK
  8
0
  2
ADCADD_ZZ
 70
     0
 10
0.0
 20
0.0
 30
0.0
  3
ADCADD_ZZ
  1

  0
ENDBLK
  5
4D0
  8
0
  0
ENDSEC
  0
SECTION
  2
ENTITIES
  0
POLYLINE
  5
4D1
  8
0
  6
CONTINUOUS
 66
     1
 10
0.0
 20
0.0
 30
0.0
  0
VERTEX
  5
708
  8
0
  6
CONTINUOUS
 10
-5.5148341270048551
 20
-0.3628711146940644
 30
0.0
  0
VERTEX
  5
709
  8
0
  6
CONTINUOUS
 10
-5.5581206383409212
 20
-0.6355854249228699
 30
0.0
  0
VERTEX
  5
70A
  8
0
  6
CONTINUOUS
 10
-5.8466844984075843
 20
-1.2016394974145721
 30
0.0
  0
VERTEX
  5
70B
  8
0
  6
CONTINUOUS
 10
-6.2960534777835822
 20
-1.6500521027487951
 30
0.0
  0
VERTEX
  5
70C
  8
0
  6
CONTINUOUS
 10
-6.8623693968343371
 20
-1.938044525595465
 30
0.0
  0
VERTEX
  5
70D
  8
0
  6
CONTINUOUS
 10
-7.1353149675568712
 20
-1.9812273629657691
 30
0.0
  0
SEQEND
  5
70E
  8
0
  6
CONTINUOUS
  0
POLYLINE
  5
4D9
  8
0
  6
CONTINUOUS
 66
     1
 10
0.0
 20
0.0
 30
0.0
  0
VERTEX
  5
70F
  8
0
  6
CONTINUOUS
 10
-6.0773361013577798
 20
-0.3628711146940644
 30
0.0
  0
VERTEX
  5
710
  8
0
  6
CONTINUOUS
 10
-6.0930962844820646
 20
-0.4621788467101293
 30
0.0
  0
VERTEX
  5
711
  8
0
  6
CONTINUOUS
 10
-6.3017603899675052
 20
-0.8708683592378863
 30
0.0
  0
VERTEX
  5
712
  8
0
  6
CONTINUOUS
 10
-6.6266709396321692
 20
-1.1955282523674431
 30
0.0
  0
VERTEX
  5
713
  8
0
  6
CONTINUOUS
 10
-7.0361892599293867
 20
-1.404074489601238
 30
0.0
  0
VERTEX
  5
714
  8
0
  6
CONTINUOUS
 10
-7.1353149675568712
 20
-1.4197571046075641
 30
0.0
  0
SEQEND
  5
715
  8
0
  6
CONTINUOUS
  0
POLYLINE
  5
4E1
  8
0
  6
CONTINUOUS
 66
     1
 10
0.0
 20
0.0
 30
0.0
  0
VERTEX
  5
716
  8
0
  6
CONTINUOUS
 10
-6.0423958040484553
 20
-0.3628711146940644
 30
0.0
  0
VERTEX
  5
717
  8
0
  6
CONTINUOUS
 10
-6.0598544535127363
 20
-0.4728735255426403
 30
0.0
  0
VERTEX
  5
718
  8
0
  6
CONTINUOUS
 10
-6.2735257216881664
 20
-0.8914938112720351
 30
0.0
  0
VERTEX
  5
719
  8
0
  6
CONTINUOUS
 10
-6.606145451811483
 20
-1.2237927607104671
 30
0.0
  0
VERTEX
  5
71A
  8
0
  6
CONTINUOUS
 10
-7.0253759668436588
 20
-1.4376863373605191
 30
0.0
  0
VERTEX
  5
71B
  8
0
  6
CONTINUOUS
 10
-7.1353149675568712
 20
-1.4550364322806131
 30
0.0
  0
SEQEND
  5
71C
  8
0
  6
CONTINUOUS
  0
POLYLINE
  5
4E9
  8
0
  6
CONTINUOUS
 66
     1
 10
0.0
 20
0.0
 30
0.0
  0
VERTEX
  5
71D
  8
0
  6
CONTINUOUS
 10
-6.2648752488292052
 20
-0.3628711146940644
 30
0.0
  0
VERTEX
  5
71E
  8
0
  6
CONTINUOUS
 10
-6.2714219971968381
 20
-0.4041220187622768
 30
0.0
  0
VERTEX
  5
71F
  8
0
  6
CONTINUOUS
 10
-6.4534523538208086
 20
-0.7608659483893107
 30
0.0
  0
VERTEX
  5
720
  8
0
  6
CONTINUOUS
 10
-6.7369113249888279
 20
-1.044274937450627
 30
0.0
  0
VERTEX
  5
721
  8
0
  6
CONTINUOUS
 10
-7.0941632817004763
 20
-1.2260844776031721
 30
0.0
  0
VERTEX
  5
722
  8
0
  6
CONTINUOUS
 10
-7.1353149675568712
 20
-1.232595596507374
 30
0.0
  0
SEQEND
  5
723
  8
0
  6
CONTINUOUS
  0
POLYLINE
  5
4F1
  8
0
  6
CONTINUOUS
 66
     1
 10
0.0
 20
0.0
 30
0.0
  0
VERTEX
  5
724
  8
0
  6
CONTINUOUS
 10
-6.3175824189643324
 20
-0.3628711146940644
 30
0.0
  0
VERTEX
  5
725
  8
0
  6
CONTINUOUS
 10
-6.3215861282942729
 20
-0.3880800005135101
 30
0.0
  0
VERTEX
  5
726
  8
0
  6
CONTINUOUS
 10
-6.4961072328864331
 20
-0.7303097231535808
 30
0.0
  0
VERTEX
  5
727
  8
0
  6
CONTINUOUS
 10
-6.7678502490415884
 20
-1.0014962221206101
 30
0.0
  0
VERTEX
  5
728
  8
0
  6
CONTINUOUS
 10
-7.1103835943298757
 20
-1.175666705964225
 30
0.0
  0
VERTEX
  5
729
  8
0
  6
CONTINUOUS
 10
-7.1353149675568712
 20
-1.1796294458804311
 30
0.0
  0
SEQEND
  5
72A
  8
0
  6
CONTINUOUS
  0
POLYLINE
  5
4F9
  8
0
  6
CONTINUOUS
 66
     1
 10
0.0
 20
0.0
 30
0.0
  0
VERTEX
  5
72B
  8
0
  6
CONTINUOUS
 10
-7.8454129955738674
 20
-1.1795339862881351
 30
0.0
  0
VERTEX
  5
72C
  8
0
  6
CONTINUOUS
 10
-7.869743837518766
 20
-1.175666705964225
 30
0.0
  0
VERTEX
  5
72D
  8
0
  6
CONTINUOUS
 10
-8.2122771828070551
 20
-1.0014962221206101
 30
0.0
  0
VERTEX
  5
72E
  8
0
  6
CONTINUOUS
 10
-8.4841209091772196
 20
-0.7303097231535808
 30
0.0
  0
VERTEX
  5
72F
  8
0
  6
CONTINUOUS
 10
-8.6586420137693771
 20
-0.3880800005135101
 30
0.0
  0
VERTEX
  5
730
  8
0
  6
CONTINUOUS
 10
-8.6626456238329812
 20
-0.3628711146940644
 30
0.0
  0
SEQEND
  5
731
  8
0
  6
CONTINUOUS
  0
POLYLINE
  5
501
  8
0
  6
CONTINUOUS
 66
     1
 10
0.0
 20
0.0
 30
0.0
  0
VERTEX
  5
732
  8
0
  6
CONTINUOUS
 10
-7.8454129955738674
 20
-1.9811412533874011
 30
0.0
  0
VERTEX
  5
733
  8
0
  6
CONTINUOUS
 10
-8.1178579992277218
 20
-1.938044525595465
 30
0.0
  0
VERTEX
  5
734
  8
0
  6
CONTINUOUS
 10
-8.6840739540650596
 20
-1.6500521027487951
 30
0.0
  0
VERTEX
  5
735
  8
0
  6
CONTINUOUS
 10
-9.1335421516528932
 20
-1.2016394974145721
 30
0.0
  0
VERTEX
  5
736
  8
0
  6
CONTINUOUS
 10
-9.4221075037227209
 20
-0.6355854249228699
 30
0.0
  0
VERTEX
  5
737
  8
0
  6
CONTINUOUS
 10
-9.4653940150588003
 20
-0.3628711146940644
 30
0.0
  0
SEQEND
  5
738
  8
0
  6
CONTINUOUS
  0
POLYLINE
  5
509
  8
0
  6
CONTINUOUS
 66
     1
 10
0.0
 20
0.0
 30
0.0
  0
VERTEX
  5
739
  8
0
  6
CONTINUOUS
 10
-7.8454129955738674
 20
-1.4549416313443111
 30
0.0
  0
VERTEX
  5
73A
  8
0
  6
CONTINUOUS
 10
-7.9547514650049891
 20
-1.4376863373605191
 30
0.0
  0
VERTEX
  5
73B
  8
0
  6
CONTINUOUS
 10
-8.3739819800371578
 20
-1.2237927607104671
 30
0.0
  0
VERTEX
  5
73C
  8
0
  6
CONTINUOUS
 10
-8.7067024203754908
 20
-0.8914938112720351
 30
0.0
  0
VERTEX
  5
73D
  8
0
  6
CONTINUOUS
 10
-8.9202722323343178
 20
-0.4728735255426403
 30
0.0
  0
VERTEX
  5
73E
  8
0
  6
CONTINUOUS
 10
-8.9377308817985952
 20
-0.3628711146940644
 30
0.0
  0
SEQEND
  5
73F
  8
0
  6
CONTINUOUS
  0
POLYLINE
  5
511
  8
0
  6
CONTINUOUS
 66
     1
 10
0.0
 20
0.0
 30
0.0
  0
VERTEX
  5
740
  8
0
  6
CONTINUOUS
 10
-7.8454129955738674
 20
-1.419674448732569
 30
0.0
  0
VERTEX
  5
741
  8
0
  6
CONTINUOUS
 10
-7.9440381361326704
 20
-1.404074489601238
 30
0.0
  0
VERTEX
  5
742
  8
0
  6
CONTINUOUS
 10
-8.3534557462148822
 20
-1.1955282523674431
 30
0.0
  0
VERTEX
  5
743
  8
0
  6
CONTINUOUS
 10
-8.6784670060945555
 20
-0.8708683592378863
 30
0.0
  0
VERTEX
  5
744
  8
0
  6
CONTINUOUS
 10
-8.8870304013649886
 20
-0.4621788467101293
 30
0.0
  0
VERTEX
  5
745
  8
0
  6
CONTINUOUS
 10
-8.9027905844892761
 20
-0.3628711146940644
 30
0.0
  0
SEQEND
  5
746
  8
0
  6
CONTINUOUS
  0
POLYLINE
  5
519
  8
0
  6
CONTINUOUS
 66
     1
 10
0.0
 20
0.0
 30
0.0
  0
VERTEX
  5
747
  8
0
  6
CONTINUOUS
 10
-7.8454129955738674
 20
-1.232514865715854
 30
0.0
  0
VERTEX
  5
748
  8
0
  6
CONTINUOUS
 10
-7.8860648603631818
 20
-1.2260844776031721
 30
0.0
  0
VERTEX
  5
749
  8
0
  6
CONTINUOUS
 10
-8.2432161068598226
 20
-1.044274937450627
 30
0.0
  0
VERTEX
  5
74A
  8
0
  6
CONTINUOUS
 10
-8.5266750780278322
 20
-0.7608659483893107
 30
0.0
  0
VERTEX
  5
74B
  8
0
  6
CONTINUOUS
 10
-8.7087046886502062
 20
-0.4041220187622768
 30
0.0
  0
VERTEX
  5
74C
  8
0
  6
CONTINUOUS
 10
-8.7152515149367709
 20
-0.3628711146940644
 30
0.0
  0
SEQEND
  5
74D
  8
0
  6
CONTINUOUS
  0
POLYLINE
  5
521
  8
0
  6
CONTINUOUS
 66
     1
 10
0.0
 20
0.0
 30
0.0
  0
VERTEX
  5
74E
  8
0
  6
CONTINUOUS
 10
-7.1353149675568712
 20
-0.3628711146940644
 30
0.0
  0
VERTEX
  5
74F
  8
0
  6
CONTINUOUS
 10
-7.1353149675568712
 20
-3.2439065882078939
 30
0.0
  0
VERTEX
  5
750
  8
0
  6
CONTINUOUS
 10
-7.159445135073347
 20
-3.2836296810143031
 30
0.0
  0
VERTEX
  5
751
  8
0
  6
CONTINUOUS
 10
-7.2177190494846739
 20
-3.3287001132369962
 30
0.0
  0
VERTEX
  5
752
  8
0
  6
CONTINUOUS
 10
-7.3129394387745368
 20
-3.3584924328418242
 30
0.0
  0
VERTEX
  5
753
  8
0
  6
CONTINUOUS
 10
-7.6677885243561947
 20
-3.3584924328418242
 30
0.0
  0
VERTEX
  5
754
  8
0
  6
CONTINUOUS
 10
-7.763108877859481
 20
-3.3287001132369962
 30
0.0
  0
VERTEX
  5
755
  8
0
  6
CONTINUOUS
 10
-7.821382792270815
 20
-3.2836296810143031
 30
0.0
  0
VERTEX
  5
756
  8
0
  6
CONTINUOUS
 10
-7.8454129955738674
 20
-3.2439065882078939
 30
0.0
  0
VERTEX
  5
757
  8
0
  6
CONTINUOUS
 10
-7.8454129955738674
 20
-0.3628711146940644
 30
0.0
  0
SEQEND
  5
758
  8
0
  6
CONTINUOUS
  0
LINE
  5
52D
  8
0
  6
CONTINUOUS
 10
-7.8454129955738594
 20
-3.2439065882078681
 30
0.0
 11
-7.1353149675568721
 21
-3.2439065882078681
 31
0.0
  0
POLYLINE
  5
52E
  8
0
  6
CONTINUOUS
 66
     1
 10
0.0
 20
0.0
 30
0.0
  0
VERTEX
  5
759
  8
0
  6
CONTINUOUS
 10
-7.8454129955738674
 20
-0.3628711146940644
 30
0.0
  0
VERTEX
  5
75A
  8
0
  6
CONTINUOUS
 10
-10.740374378143979
 20
-0.3628711146940644
 30
0.0
  0
VERTEX
  5
75B
  8
0
  6
CONTINUOUS
 10
-10.78032500143617
 20
-0.3391900401363653
 30
0.0
  0
VERTEX
  5
75C
  8
0
  6
CONTINUOUS
 10
-10.825782608485451
 20
-0.2811332121884844
 30
0.0
  0
VERTEX
  5
75D
  8
0
  6
CONTINUOUS
 10
-10.85531979554559
 20
-0.1856450083268716
 30
0.0
  0
VERTEX
  5
75E
  8
0
  6
CONTINUOUS
 10
-10.85531979554559
 20
0.1680432987765835
 30
0.0
  0
VERTEX
  5
75F
  8
0
  6
CONTINUOUS
 10
-10.825782608485451
 20
0.2627675970073229
 30
0.0
  0
VERTEX
  5
760
  8
0
  6
CONTINUOUS
 10
-10.78032500143617
 20
0.3208244249552037
 30
0.0
  0
VERTEX
  5
761
  8
0
  6
CONTINUOUS
 10
-10.740374378143979
 20
0.3445054995128744
 30
0.0
  0
VERTEX
  5
762
  8
0
  6
CONTINUOUS
 10
-7.8454129955738674
 20
0.3445054995128744
 30
0.0
  0
SEQEND
  5
763
  8
0
  6
CONTINUOUS
  0
POLYLINE
  5
53A
  8
0
  6
CONTINUOUS
 66
     1
 10
0.0
 20
0.0
 30
0.0
  0
VERTEX
  5
764
  8
0
  6
CONTINUOUS
 10
-8.715359879750542
 20
0.3445054995128744
 30
0.0
  0
VERTEX
  5
765
  8
0
  6
CONTINUOUS
 10
-8.7087046886502062
 20
0.3865203092119885
 30
0.0
  0
VERTEX
  5
766
  8
0
  6
CONTINUOUS
 10
-8.5266750780278322
 20
0.7432642388390509
 30
0.0
  0
VERTEX
  5
767
  8
0
  6
CONTINUOUS
 10
-8.2432161068598226
 20
1.0259093222694651
 30
0.0
  0
VERTEX
  5
768
  8
0
  6
CONTINUOUS
 10
-7.8860648603631818
 20
1.2077188624220121
 30
0.0
  0
VERTEX
  5
769
  8
0
  6
CONTINUOUS
 10
-7.8454129955738674
 20
1.214149250534692
 30
0.0
  0
SEQEND
  5
76A
  8
0
  6
CONTINUOUS
  0
POLYLINE
  5
542
  8
0
  6
CONTINUOUS
 66
     1
 10
0.0
 20
0.0
 30
0.0
  0
VERTEX
  5
76B
  8
0
  6
CONTINUOUS
 10
-8.9028850802777502
 20
0.3445054995128744
 30
0.0
  0
VERTEX
  5
76C
  8
0
  6
CONTINUOUS
 10
-8.8870304013649886
 20
0.4445771371598694
 30
0.0
  0
VERTEX
  5
76D
  8
0
  6
CONTINUOUS
 10
-8.6784670060945555
 20
0.8532666496876551
 30
0.0
  0
VERTEX
  5
76E
  8
0
  6
CONTINUOUS
 10
-8.3534557462148822
 20
1.177926542817155
 30
0.0
  0
VERTEX
  5
76F
  8
0
  6
CONTINUOUS
 10
-7.9440381361326704
 20
1.3857088744200781
 30
0.0
  0
VERTEX
  5
770
  8
0
  6
CONTINUOUS
 10
-7.8454129955738674
 20
1.401308833551407
 30
0.0
  0
SEQEND
  5
771
  8
0
  6
CONTINUOUS
  0
POLYLINE
  5
54A
  8
0
  6
CONTINUOUS
 66
     1
 10
0.0
 20
0.0
 30
0.0
  0
VERTEX
  5
772
  8
0
  6
CONTINUOUS
 10
-8.9378232081269715
 20
0.3445054995128744
 30
0.0
  0
VERTEX
  5
773
  8
0
  6
CONTINUOUS
 10
-8.9202722323343178
 20
0.4552718159923805
 30
0.0
  0
VERTEX
  5
774
  8
0
  6
CONTINUOUS
 10
-8.7067024203754908
 20
0.8738921017217471
 30
0.0
  0
VERTEX
  5
775
  8
0
  6
CONTINUOUS
 10
-8.3739819800371578
 20
1.2061910511602081
 30
0.0
  0
VERTEX
  5
776
  8
0
  6
CONTINUOUS
 10
-7.9547514650049891
 20
1.419320722179358
 30
0.0
  0
VERTEX
  5
777
  8
0
  6
CONTINUOUS
 10
-7.8454129955738674
 20
1.436576016163148
 30
0.0
  0
SEQEND
  5
778
  8
0
  6
CONTINUOUS
  0
POLYLINE
  5
552
  8
0
  6
CONTINUOUS
 66
     1
 10
0.0
 20
0.0
 30
0.0
  0
VERTEX
  5
779
  8
0
  6
CONTINUOUS
 10
-7.8454129955738674
 20
1.9636256534154799
 30
0.0
  0
VERTEX
  5
77A
  8
0
  6
CONTINUOUS
 10
-8.1183585662964024
 20
1.9204428160451761
 30
0.0
  0
VERTEX
  5
77B
  8
0
  6
CONTINUOUS
 10
-8.6846744853471574
 20
1.6324503931985339
 30
0.0
  0
VERTEX
  5
77C
  8
0
  6
CONTINUOUS
 10
-9.1340434647231667
 20
1.183273882233411
 30
0.0
  0
VERTEX
  5
77D
  8
0
  6
CONTINUOUS
 10
-9.4226073247898121
 20
0.6179837153725817
 30
0.0
  0
VERTEX
  5
77E
  8
0
  6
CONTINUOUS
 10
-9.4659622150405465
 20
0.3445054995128744
 30
0.0
  0
SEQEND
  5
77F
  8
0
  6
CONTINUOUS
  0
POLYLINE
  5
55A
  8
0
  6
CONTINUOUS
 66
     1
 10
0.0
 20
0.0
 30
0.0
  0
VERTEX
  5
780
  8
0
  6
CONTINUOUS
 10
-10.740374378143979
 20
0.3445054995128744
 30
0.0
  0
VERTEX
  5
781
  8
0
  6
CONTINUOUS
 10
-10.740374378143979
 20
0.3276995756332628
 30
0.0
  0
VERTEX
  5
782
  8
0
  6
CONTINUOUS
 10
-10.740374378143979
 20
0.2772818039943145
 30
0.0
  0
VERTEX
  5
783
  8
0
  6
CONTINUOUS
 10
-10.740374378143979
 20
0.199363429643215
 30
0.0
  0
VERTEX
  5
784
  8
0
  6
CONTINUOUS
 10
-10.740374378143979
 20
0.1000556976271218
 30
0.0
  0
VERTEX
  5
785
  8
0
  6
CONTINUOUS
 10
-10.740374378143979
 20
-0.0091828075905807
 30
0.0
  0
VERTEX
  5
786
  8
0
  6
CONTINUOUS
 10
-10.740374378143979
 20
-0.1184213128082833
 30
0.0
  0
VERTEX
  5
787
  8
0
  6
CONTINUOUS
 10
-10.740374378143979
 20
-0.2169651391934747
 30
0.0
  0
VERTEX
  5
788
  8
0
  6
CONTINUOUS
 10
-10.740374378143979
 20
-0.2956474191754761
 30
0.0
  0
VERTEX
  5
789
  8
0
  6
CONTINUOUS
 10
-10.740374378143979
 20
-0.3453012851834941
 30
0.0
  0
VERTEX
  5
78A
  8
0
  6
CONTINUOUS
 10
-10.740374378143979
 20
-0.3628711146940644
 30
0.0
  0
SEQEND
  5
78B
  8
0
  6
CONTINUOUS
  0
POLYLINE
  5
567
  8
0
  6
CONTINUOUS
 66
     1
 10
0.0
 20
0.0
 30
0.0
  0
VERTEX
  5
78C
  8
0
  6
CONTINUOUS
 10
-10.740374378143979
 20
0.3445054995128744
 30
0.0
  0
VERTEX
  5
78D
  8
0
  6
CONTINUOUS
 10
-10.740374378143979
 20
0.3276995756332628
 30
0.0
  0
VERTEX
  5
78E
  8
0
  6
CONTINUOUS
 10
-10.740374378143979
 20
0.2772818039943145
 30
0.0
  0
VERTEX
  5
78F
  8
0
  6
CONTINUOUS
 10
-10.740374378143979
 20
0.199363429643215
 30
0.0
  0
VERTEX
  5
790
  8
0
  6
CONTINUOUS
 10
-10.740374378143979
 20
0.1000556976271218
 30
0.0
  0
VERTEX
  5
791
  8
0
  6
CONTINUOUS
 10
-10.740374378143979
 20
-0.0091828075905807
 30
0.0
  0
VERTEX
  5
792
  8
0
  6
CONTINUOUS
 10
-10.740374378143979
 20
-0.1184213128082833
 30
0.0
  0
VERTEX
  5
793
  8
0
  6
CONTINUOUS
 10
-10.740374378143979
 20
-0.2169651391934747
 30
0.0
  0
VERTEX
  5
794
  8
0
  6
CONTINUOUS
 10
-10.740374378143979
 20
-0.2956474191754761
 30
0.0
  0
VERTEX
  5
795
  8
0
  6
CONTINUOUS
 10
-10.740374378143979
 20
-0.3453012851834941
 30
0.0
  0
VERTEX
  5
796
  8
0
  6
CONTINUOUS
 10
-10.740374378143979
 20
-0.3628711146940644
 30
0.0
  0
SEQEND
  5
797
  8
0
  6
CONTINUOUS
  0
POLYLINE
  5
574
  8
0
  6
CONTINUOUS
 66
     1
 10
0.0
 20
0.0
 30
0.0
  0
VERTEX
  5
798
  8
0
  6
CONTINUOUS
 10
-7.1353149675568712
 20
1.9636256534154799
 30
0.0
  0
VERTEX
  5
799
  8
0
  6
CONTINUOUS
 10
-6.8623693968343371
 20
1.9204428160451761
 30
0.0
  0
VERTEX
  5
79A
  8
0
  6
CONTINUOUS
 10
-6.2960534777835822
 20
1.6324503931985339
 30
0.0
  0
VERTEX
  5
79B
  8
0
  6
CONTINUOUS
 10
-5.8466844984075843
 20
1.183273882233411
 30
0.0
  0
VERTEX
  5
79C
  8
0
  6
CONTINUOUS
 10
-5.5581206383409212
 20
0.6179837153725817
 30
0.0
  0
VERTEX
  5
79D
  8
0
  6
CONTINUOUS
 10
-5.5147657480901877
 20
0.3445054995128744
 30
0.0
  0
SEQEND
  5
79E
  8
0
  6
CONTINUOUS
  0
POLYLINE
  5
57C
  8
0
  6
CONTINUOUS
 66
     1
 10
0.0
 20
0.0
 30
0.0
  0
VERTEX
  5
79F
  8
0
  6
CONTINUOUS
 10
-7.1353149675568712
 20
1.161977575065394
 30
0.0
  0
VERTEX
  5
7A0
  8
0
  6
CONTINUOUS
 10
-7.1103835943298757
 20
1.1580649964139651
 30
0.0
  0
VERTEX
  5
7A1
  8
0
  6
CONTINUOUS
 10
-6.7678502490415884
 20
0.9838945125703515
 30
0.0
  0
VERTEX
  5
7A2
  8
0
  6
CONTINUOUS
 10
-6.4961072328864331
 20
0.7119441079724194
 30
0.0
  0
VERTEX
  5
7A3
  8
0
  6
CONTINUOUS
 10
-6.3215861282942729
 20
0.3704782909632503
 30
0.0
  0
VERTEX
  5
7A4
  8
0
  6
CONTINUOUS
 10
-6.31746939430609
 20
0.3445054995128744
 30
0.0
  0
SEQEND
  5
7A5
  8
0
  6
CONTINUOUS
  0
POLYLINE
  5
584
  8
0
  6
CONTINUOUS
 66
     1
 10
0.0
 20
0.0
 30
0.0
  0
VERTEX
  5
7A6
  8
0
  6
CONTINUOUS
 10
-7.1353149675568712
 20
1.4013914894264019
 30
0.0
  0
VERTEX
  5
7A7
  8
0
  6
CONTINUOUS
 10
-7.0361892599293867
 20
1.3857088744200781
 30
0.0
  0
VERTEX
  5
7A8
  8
0
  6
CONTINUOUS
 10
-6.6266709396321692
 20
1.177926542817155
 30
0.0
  0
VERTEX
  5
7A9
  8
0
  6
CONTINUOUS
 10
-6.3017603899675052
 20
0.8532666496876551
 30
0.0
  0
VERTEX
  5
7AA
  8
0
  6
CONTINUOUS
 10
-6.0930962844820646
 20
0.4445771371598694
 30
0.0
  0
VERTEX
  5
7AB
  8
0
  6
CONTINUOUS
 10
-6.0772416055693004
 20
0.3445054995128744
 30
0.0
  0
SEQEND
  5
7AC
  8
0
  6
CONTINUOUS
  0
POLYLINE
  5
58C
  8
0
  6
CONTINUOUS
 66
     1
 10
0.0
 20
0.0
 30
0.0
  0
VERTEX
  5
7AD
  8
0
  6
CONTINUOUS
 10
-7.1353149675568712
 20
1.2142299813262121
 30
0.0
  0
VERTEX
  5
7AE
  8
0
  6
CONTINUOUS
 10
-7.0941632817004763
 20
1.2077188624220121
 30
0.0
  0
VERTEX
  5
7AF
  8
0
  6
CONTINUOUS
 10
-6.7369113249888279
 20
1.0259093222694651
 30
0.0
  0
VERTEX
  5
7B0
  8
0
  6
CONTINUOUS
 10
-6.4534523538208086
 20
0.7432642388390509
 30
0.0
  0
VERTEX
  5
7B1
  8
0
  6
CONTINUOUS
 10
-6.2714219971968381
 20
0.3865203092119885
 30
0.0
  0
VERTEX
  5
7B2
  8
0
  6
CONTINUOUS
 10
-6.264766885305173
 20
0.3445054995128744
 30
0.0
  0
SEQEND
  5
7B3
  8
0
  6
CONTINUOUS
  0
POLYLINE
  5
594
  8
0
  6
CONTINUOUS
 66
     1
 10
0.0
 20
0.0
 30
0.0
  0
VERTEX
  5
7B4
  8
0
  6
CONTINUOUS
 10
-7.1353149675568712
 20
1.4366708170994511
 30
0.0
  0
VERTEX
  5
7B5
  8
0
  6
CONTINUOUS
 10
-7.0253759668436588
 20
1.419320722179358
 30
0.0
  0
VERTEX
  5
7B6
  8
0
  6
CONTINUOUS
 10
-6.606145451811483
 20
1.2061910511602081
 30
0.0
  0
VERTEX
  5
7B7
  8
0
  6
CONTINUOUS
 10
-6.2735257216881664
 20
0.8738921017217471
 30
0.0
  0
VERTEX
  5
7B8
  8
0
  6
CONTINUOUS
 10
-6.0598544535127363
 20
0.4552718159923805
 30
0.0
  0
VERTEX
  5
7B9
  8
0
  6
CONTINUOUS
 10
-6.0423034777200737
 20
0.3445054995128744
 30
0.0
  0
SEQEND
  5
7BA
  8
0
  6
CONTINUOUS
  0
POLYLINE
  5
59C
  8
0
  6
CONTINUOUS
 66
     1
 10
0.0
 20
0.0
 30
0.0
  0
VERTEX
  5
7BB
  8
0
  6
CONTINUOUS
 10
-7.1353149675568712
 20
0.3445054995128744
 30
0.0
  0
VERTEX
  5
7BC
  8
0
  6
CONTINUOUS
 10
-4.2398522719164804
 20
0.3445054995128744
 30
0.0
  0
VERTEX
  5
7BD
  8
0
  6
CONTINUOUS
 10
-4.2000023588392894
 20
0.3208244249552037
 30
0.0
  0
VERTEX
  5
7BE
  8
0
  6
CONTINUOUS
 10
-4.1547454262184402
 20
0.2627675970073229
 30
0.0
  0
VERTEX
  5
7BF
  8
0
  6
CONTINUOUS
 10
-4.1254081675851397
 20
0.1680432987765835
 30
0.0
  0
VERTEX
  5
7C0
  8
0
  6
CONTINUOUS
 10
-4.1254081675851397
 20
-0.1856450083268716
 30
0.0
  0
VERTEX
  5
7C1
  8
0
  6
CONTINUOUS
 10
-4.1547454262184402
 20
-0.2811332121884844
 30
0.0
  0
VERTEX
  5
7C2
  8
0
  6
CONTINUOUS
 10
-4.2000023588392894
 20
-0.3391900401363653
 30
0.0
  0
VERTEX
  5
7C3
  8
0
  6
CONTINUOUS
 10
-4.2398522719164804
 20
-0.3628711146940644
 30
0.0
  0
VERTEX
  5
7C4
  8
0
  6
CONTINUOUS
 10
-7.1353149675568712
 20
-0.3628711146940644
 30
0.0
  0
SEQEND
  5
7C5
  8
0
  6
CONTINUOUS
  0
POLYLINE
  5
5A8
  8
0
  6
CONTINUOUS
 66
     1
 10
0.0
 20
0.0
 30
0.0
  0
VERTEX
  5
7C6
  8
0
  6
CONTINUOUS
 10
-7.8454129955738674
 20
0.3445054995129029
 30
0.0
  0
VERTEX
  5
7C7
  8
0
  6
CONTINUOUS
 10
-7.8454129955738674
 20
3.2313048786576082
 30
0.0
  0
VERTEX
  5
7C8
  8
0
  6
CONTINUOUS
 10
-7.821382792270815
 20
3.271027971464044
 30
0.0
  0
VERTEX
  5
7C9
  8
0
  6
CONTINUOUS
 10
-7.763108877859481
 20
3.316098403686738
 30
0.0
  0
VERTEX
  5
7CA
  8
0
  6
CONTINUOUS
 10
-7.6677885243561947
 20
3.3451268176606641
 30
0.0
  0
VERTEX
  5
7CB
  8
0
  6
CONTINUOUS
 10
-7.3129394387745368
 20
3.3451268176606641
 30
0.0
  0
VERTEX
  5
7CC
  8
0
  6
CONTINUOUS
 10
-7.2177190494846739
 20
3.316098403686738
 30
0.0
  0
VERTEX
  5
7CD
  8
0
  6
CONTINUOUS
 10
-7.159445135073347
 20
3.271027971464044
 30
0.0
  0
VERTEX
  5
7CE
  8
0
  6
CONTINUOUS
 10
-7.1353149675568712
 20
3.2313048786576082
 30
0.0
  0
VERTEX
  5
7CF
  8
0
  6
CONTINUOUS
 10
-7.1353149675568712
 20
0.3445054995128744
 30
0.0
  0
SEQEND
  5
7D0
  8
0
  6
CONTINUOUS
  0
POLYLINE
  5
5B4
  8
0
  6
CONTINUOUS
 66
     1
 10
0.0
 20
0.0
 30
0.0
  0
VERTEX
  5
7D1
  8
0
  6
CONTINUOUS
 10
-8.6627586456889318
 20
0.3445054995128744
 30
0.0
  0
VERTEX
  5
7D2
  8
0
  6
CONTINUOUS
 10
-8.6586420137693771
 20
0.3704782909632503
 30
0.0
  0
VERTEX
  5
7D3
  8
0
  6
CONTINUOUS
 10
-8.4841209091772196
 20
0.7119441079724194
 30
0.0
  0
VERTEX
  5
7D4
  8
0
  6
CONTINUOUS
 10
-8.2122771828070551
 20
0.9838945125703515
 30
0.0
  0
VERTEX
  5
7D5
  8
0
  6
CONTINUOUS
 10
-7.869743837518766
 20
1.1580649964139651
 30
0.0
  0
VERTEX
  5
7D6
  8
0
  6
CONTINUOUS
 10
-7.8454129955738674
 20
1.16188332382237
 30
0.0
  0
SEQEND
  5
7D7
  8
0
  6
CONTINUOUS
  0
ARC
  5
5BC
  8
0
  6
CONTINUOUS
 10
-7.4903639815652943
 20
0.6473552153592311
 30
0.0
 40
0.4666666398369025
 50
220.46351585200449
 51
319.5364841479871
  0
ARC
  5
5BD
  8
0
  6
CONTINUOUS
 10
-7.4903639815652943
 20
-0.6657208305405356
 30
0.0
 40
0.4666666398369025
 50
40.46351585201274
 51
139.53648414799639
  0
ARC
  5
5BE
  8
0
  6
CONTINUOUS
 10
-8.1455412976102526
 20
-0.0105435144957342
 30
0.0
 40
0.4666666398369025
 50
310.46351585201262
 51
49.536484147996447
  0
ARC
  5
5BF
  8
0
  6
CONTINUOUS
 10
-6.832465251710456
 20
-0.0105435144957342
 30
0.0
 40
0.4666666398369025
 50
130.4635158520035
 51
229.5364841479873
  0
POLYLINE
  5
5C0
  8
0
  6
CONTINUOUS
 66
     1
 10
0.0
 20
0.0
 30
0.0
  0
VERTEX
  5
7D8
  8
0
  6
CONTINUOUS
 10
-7.8454129955738674
 20
3.2313048786576082
 30
0.0
  0
VERTEX
  5
7D9
  8
0
  6
CONTINUOUS
 10
-7.8279908743786821
 20
3.2313048786576082
 30
0.0
  0
VERTEX
  5
7DA
  8
0
  6
CONTINUOUS
 10
-7.777627560856005
 20
3.2313048786576082
 30
0.0
  0
VERTEX
  5
7DB
  8
0
  6
CONTINUOUS
 10
-7.6990280870508032
 20
3.2313048786576082
 30
0.0
  0
VERTEX
  5
7DC
  8
0
  6
CONTINUOUS
 10
-7.600103053851746
 20
3.2313048786576082
 30
0.0
  0
VERTEX
  5
7DD
  8
0
  6
CONTINUOUS
 10
-7.4903639815653689
 20
3.2313048786576082
 30
0.0
  0
VERTEX
  5
7DE
  8
0
  6
CONTINUOUS
 10
-7.3806249092789891
 20
3.2313048786576082
 30
0.0
  0
VERTEX
  5
7DF
  8
0
  6
CONTINUOUS
 10
-7.2816998760799381
 20
3.2313048786576082
 30
0.0
  0
VERTEX
  5
7E0
  8
0
  6
CONTINUOUS
 10
-7.2032011124897446
 20
3.2313048786576082
 30
0.0
  0
VERTEX
  5
7E1
  8
0
  6
CONTINUOUS
 10
-7.1527370887520689
 20
3.2313048786576082
 30
0.0
  0
VERTEX
  5
7E2
  8
0
  6
CONTINUOUS
 10
-7.1353149675568712
 20
3.2313048786576082
 30
0.0
  0
SEQEND
  5
7E3
  8
0
  6
CONTINUOUS
  0
POLYLINE
  5
5CD
  8
0
  6
CONTINUOUS
 66
     1
 10
0.0
 20
0.0
 30
0.0
  0
VERTEX
  5
7E4
  8
0
  6
CONTINUOUS
 10
-4.2398522719164804
 20
0.3445054995128744
 30
0.0
  0
VERTEX
  5
7E5
  8
0
  6
CONTINUOUS
 10
-4.2398522719164804
 20
0.3276995756332628
 30
0.0
  0
VERTEX
  5
7E6
  8
0
  6
CONTINUOUS
 10
-4.2398522719164804
 20
0.2772818039943145
 30
0.0
  0
VERTEX
  5
7E7
  8
0
  6
CONTINUOUS
 10
-4.2398522719164804
 20
0.199363429643215
 30
0.0
  0
VERTEX
  5
7E8
  8
0
  6
CONTINUOUS
 10
-4.2398522719164804
 20
0.1000556976271218
 30
0.0
  0
VERTEX
  5
7E9
  8
0
  6
CONTINUOUS
 10
-4.2398522719164804
 20
-0.0091828075905807
 30
0.0
  0
VERTEX
  5
7EA
  8
0
  6
CONTINUOUS
 10
-4.2398522719164804
 20
-0.1184213128082833
 30
0.0
  0
VERTEX
  5
7EB
  8
0
  6
CONTINUOUS
 10
-4.2398522719164804
 20
-0.2169651391934747
 30
0.0
  0
VERTEX
  5
7EC
  8
0
  6
CONTINUOUS
 10
-4.2398522719164804
 20
-0.2956474191754761
 30
0.0
  0
VERTEX
  5
7ED
  8
0
  6
CONTINUOUS
 10
-4.2398522719164804
 20
-0.3453012851834941
 30
0.0
  0
VERTEX
  5
7EE
  8
0
  6
CONTINUOUS
 10
-4.2398522719164804
 20
-0.3628711146940644
 30
0.0
  0
SEQEND
  5
7EF
  8
0
  6
CONTINUOUS
  0
POLYLINE
  5
5DA
  8
0
  6
CONTINUOUS
 66
     1
 10
0.0
 20
0.0
 30
0.0
  0
VERTEX
  5
7F0
  8
0
  6
CONTINUOUS
 10
-4.2398522719164804
 20
0.3445054995128744
 30
0.0
  0
VERTEX
  5
7F1
  8
0
  6
CONTINUOUS
 10
-4.2398522719164804
 20
0.3276995756332628
 30
0.0
  0
VERTEX
  5
7F2
  8
0
  6
CONTINUOUS
 10
-4.2398522719164804
 20
0.2772818039943145
 30
0.0
  0
VERTEX
  5
7F3
  8
0
  6
CONTINUOUS
 10
-4.2398522719164804
 20
0.199363429643215
 30
0.0
  0
VERTEX
  5
7F4
  8
0
  6
CONTINUOUS
 10
-4.2398522719164804
 20
0.1000556976271218
 30
0.0
  0
VERTEX
  5
7F5
  8
0
  6
CONTINUOUS
 10
-4.2398522719164804
 20
-0.0091828075905807
 30
0.0
  0
VERTEX
  5
7F6
  8
0
  6
CONTINUOUS
 10
-4.2398522719164804
 20
-0.1184213128082833
 30
0.0
  0
VERTEX
  5
7F7
  8
0
  6
CONTINUOUS
 10
-4.2398522719164804
 20
-0.2169651391934747
 30
0.0
  0
VERTEX
  5
7F8
  8
0
  6
CONTINUOUS
 10
-4.2398522719164804
 20
-0.2956474191754761
 30
0.0
  0
VERTEX
  5
7F9
  8
0
  6
CONTINUOUS
 10
-4.2398522719164804
 20
-0.3453012851834941
 30
0.0
  0
VERTEX
  5
7FA
  8
0
  6
CONTINUOUS
 10
-4.2398522719164804
 20
-0.3628711146940644
 30
0.0
  0
SEQEND
  5
7FB
  8
0
  6
CONTINUOUS
  0
POLYLINE
  5
5E7
  8
0
  6
CONTINUOUS
 66
     1
 10
0.0
 20
0.0
 30
0.0
  0
VERTEX
  5
7FC
  8
0
  6
CONTINUOUS
 10
8.6824175810356703
 20
-0.3628711146940644
 30
0.0
  0
VERTEX
  5
7FD
  8
0
  6
CONTINUOUS
 10
8.6784138717057306
 20
-0.3880800005135101
 30
0.0
  0
VERTEX
  5
7FE
  8
0
  6
CONTINUOUS
 10
8.5038927671135731
 20
-0.7303097231535808
 30
0.0
  0
VERTEX
  5
7FF
  8
0
  6
CONTINUOUS
 10
8.2321497509584152
 20
-1.0014962221206101
 30
0.0
  0
VERTEX
  5
800
  8
0
  6
CONTINUOUS
 10
7.889616405670127
 20
-1.175666705964225
 30
0.0
  0
VERTEX
  5
801
  8
0
  6
CONTINUOUS
 10
7.8646850324431314
 20
-1.1796294458804311
 30
0.0
  0
SEQEND
  5
802
  8
0
  6
CONTINUOUS
  0
POLYLINE
  5
5EF
  8
0
  6
CONTINUOUS
 66
     1
 10
0.0
 20
0.0
 30
0.0
  0
VERTEX
  5
803
  8
0
  6
CONTINUOUS
 10
7.1545870044261353
 20
-1.9811412533874011
 30
0.0
  0
VERTEX
  5
804
  8
0
  6
CONTINUOUS
 10
6.88214200077228
 20
-1.938044525595465
 30
0.0
  0
VERTEX
  5
805
  8
0
  6
CONTINUOUS
 10
6.3159260459349484
 20
-1.6500521027487951
 30
0.0
  0
VERTEX
  5
806
  8
0
  6
CONTINUOUS
 10
5.8664578483471113
 20
-1.2016394974145721
 30
0.0
  0
VERTEX
  5
807
  8
0
  6
CONTINUOUS
 10
5.5778924962772862
 20
-0.6355854249228699
 30
0.0
  0
VERTEX
  5
808
  8
0
  6
CONTINUOUS
 10
5.534605984941205
 20
-0.3628711146940644
 30
0.0
  0
SEQEND
  5
809
  8
0
  6
CONTINUOUS
  0
POLYLINE
  5
5F7
  8
0
  6
CONTINUOUS
 66
     1
 10
0.0
 20
0.0
 30
0.0
  0
VERTEX
  5
80A
  8
0
  6
CONTINUOUS
 10
7.1545870044261353
 20
-1.4549416313443111
 30
0.0
  0
VERTEX
  5
80B
  8
0
  6
CONTINUOUS
 10
7.0452485349950109
 20
-1.4376863373605191
 30
0.0
  0
VERTEX
  5
80C
  8
0
  6
CONTINUOUS
 10
6.6260180199628449
 20
-1.2237927607104671
 30
0.0
  0
VERTEX
  5
80D
  8
0
  6
CONTINUOUS
 10
6.2932975796245101
 20
-0.8914938112720351
 30
0.0
  0
VERTEX
  5
80E
  8
0
  6
CONTINUOUS
 10
6.0797277676656867
 20
-0.4728735255426403
 30
0.0
  0
VERTEX
  5
80F
  8
0
  6
CONTINUOUS
 10
6.062269118201411
 20
-0.3628711146940644
 30
0.0
  0
SEQEND
  5
810
  8
0
  6
CONTINUOUS
  0
POLYLINE
  5
5FF
  8
0
  6
CONTINUOUS
 66
     1
 10
0.0
 20
0.0
 30
0.0
  0
VERTEX
  5
811
  8
0
  6
CONTINUOUS
 10
7.1545870044261353
 20
-1.419674448732569
 30
0.0
  0
VERTEX
  5
812
  8
0
  6
CONTINUOUS
 10
7.055961863867334
 20
-1.404074489601238
 30
0.0
  0
VERTEX
  5
813
  8
0
  6
CONTINUOUS
 10
6.6465442537851267
 20
-1.1955282523674431
 30
0.0
  0
VERTEX
  5
814
  8
0
  6
CONTINUOUS
 10
6.3215329939054428
 20
-0.8708683592378863
 30
0.0
  0
VERTEX
  5
815
  8
0
  6
CONTINUOUS
 10
6.1129695986350221
 20
-0.4621788467101293
 30
0.0
  0
VERTEX
  5
816
  8
0
  6
CONTINUOUS
 10
6.0972094155107284
 20
-0.3628711146940644
 30
0.0
  0
SEQEND
  5
817
  8
0
  6
CONTINUOUS
  0
POLYLINE
  5
607
  8
0
  6
CONTINUOUS
 66
     1
 10
0.0
 20
0.0
 30
0.0
  0
VERTEX
  5
818
  8
0
  6
CONTINUOUS
 10
7.1545870044261353
 20
-1.232514865715854
 30
0.0
  0
VERTEX
  5
819
  8
0
  6
CONTINUOUS
 10
7.1139351396368271
 20
-1.2260844776031721
 30
0.0
  0
VERTEX
  5
81A
  8
0
  6
CONTINUOUS
 10
6.75678389314018
 20
-1.044274937450627
 30
0.0
  0
VERTEX
  5
81B
  8
0
  6
CONTINUOUS
 10
6.4733249219721749
 20
-0.7608659483893107
 30
0.0
  0
VERTEX
  5
81C
  8
0
  6
CONTINUOUS
 10
6.291295311349792
 20
-0.4041220187622768
 30
0.0
  0
VERTEX
  5
81D
  8
0
  6
CONTINUOUS
 10
6.2847484850632371
 20
-0.3628711146940644
 30
0.0
  0
SEQEND
  5
81E
  8
0
  6
CONTINUOUS
  0
POLYLINE
  5
60F
  8
0
  6
CONTINUOUS
 66
     1
 10
0.0
 20
0.0
 30
0.0
  0
VERTEX
  5
81F
  8
0
  6
CONTINUOUS
 10
7.1545870044261353
 20
-1.1795339862881351
 30
0.0
  0
VERTEX
  5
820
  8
0
  6
CONTINUOUS
 10
7.1302561624812411
 20
-1.175666705964225
 30
0.0
  0
VERTEX
  5
821
  8
0
  6
CONTINUOUS
 10
6.7877228171929511
 20
-1.0014962221206101
 30
0.0
  0
VERTEX
  5
822
  8
0
  6
CONTINUOUS
 10
6.5158790908227884
 20
-0.7303097231535808
 30
0.0
  0
VERTEX
  5
823
  8
0
  6
CONTINUOUS
 10
6.3413579862306291
 20
-0.3880800005135101
 30
0.0
  0
VERTEX
  5
824
  8
0
  6
CONTINUOUS
 10
6.3373543761670224
 20
-0.3628711146940644
 30
0.0
  0
SEQEND
  5
825
  8
0
  6
CONTINUOUS
  0
POLYLINE
  5
617
  8
0
  6
CONTINUOUS
 66
     1
 10
0.0
 20
0.0
 30
0.0
  0
VERTEX
  5
826
  8
0
  6
CONTINUOUS
 10
7.8646850324431314
 20
-0.3628711146940644
 30
0.0
  0
VERTEX
  5
827
  8
0
  6
CONTINUOUS
 10
7.8646850324431314
 20
-3.2439065882078939
 30
0.0
  0
VERTEX
  5
828
  8
0
  6
CONTINUOUS
 10
7.8405548649266592
 20
-3.2836296810143031
 30
0.0
  0
VERTEX
  5
829
  8
0
  6
CONTINUOUS
 10
7.7822809505153252
 20
-3.3287001132369962
 30
0.0
  0
VERTEX
  5
82A
  8
0
  6
CONTINUOUS
 10
7.6870605612254641
 20
-3.3584924328418242
 30
0.0
  0
VERTEX
  5
82B
  8
0
  6
CONTINUOUS
 10
7.3322114756438008
 20
-3.3584924328418242
 30
0.0
  0
VERTEX
  5
82C
  8
0
  6
CONTINUOUS
 10
7.236891122140527
 20
-3.3287001132369962
 30
0.0
  0
VERTEX
  5
82D
  8
0
  6
CONTINUOUS
 10
7.178617207729193
 20
-3.2836296810143031
 30
0.0
  0
VERTEX
  5
82E
  8
0
  6
CONTINUOUS
 10
7.1545870044261353
 20
-3.2439065882078939
 30
0.0
  0
VERTEX
  5
82F
  8
0
  6
CONTINUOUS
 10
7.1545870044261353
 20
-0.3628711146940644
 30
0.0
  0
SEQEND
  5
830
  8
0
  6
CONTINUOUS
  0
POLYLINE
  5
623
  8
0
  6
CONTINUOUS
 66
     1
 10
0.0
 20
0.0
 30
0.0
  0
VERTEX
  5
831
  8
0
  6
CONTINUOUS
 10
9.485165872995152
 20
-0.3628711146940644
 30
0.0
  0
VERTEX
  5
832
  8
0
  6
CONTINUOUS
 10
9.4418793616590886
 20
-0.6355854249228699
 30
0.0
  0
VERTEX
  5
833
  8
0
  6
CONTINUOUS
 10
9.153315501592429
 20
-1.2016394974145721
 30
0.0
  0
VERTEX
  5
834
  8
0
  6
CONTINUOUS
 10
8.7039465222164214
 20
-1.6500521027487951
 30
0.0
  0
VERTEX
  5
835
  8
0
  6
CONTINUOUS
 10
8.1376306031656664
 20
-1.938044525595465
 30
0.0
  0
VERTEX
  5
836
  8
0
  6
CONTINUOUS
 10
7.8646850324431314
 20
-1.9812273629657691
 30
0.0
  0
SEQEND
  5
837
  8
0
  6
CONTINUOUS
  0
POLYLINE
  5
62B
  8
0
  6
CONTINUOUS
 66
     1
 10
0.0
 20
0.0
 30
0.0
  0
VERTEX
  5
838
  8
0
  6
CONTINUOUS
 10
8.7351247511707975
 20
-0.3628711146940644
 30
0.0
  0
VERTEX
  5
839
  8
0
  6
CONTINUOUS
 10
8.7285780028031645
 20
-0.4041220187622768
 30
0.0
  0
VERTEX
  5
83A
  8
0
  6
CONTINUOUS
 10
8.5465476461791923
 20
-0.7608659483893107
 30
0.0
  0
VERTEX
  5
83B
  8
0
  6
CONTINUOUS
 10
8.2630886750111738
 20
-1.044274937450627
 30
0.0
  0
VERTEX
  5
83C
  8
0
  6
CONTINUOUS
 10
7.9058367182995317
 20
-1.2260844776031721
 30
0.0
  0
VERTEX
  5
83D
  8
0
  6
CONTINUOUS
 10
7.8646850324431314
 20
-1.232595596507374
 30
0.0
  0
SEQEND
  5
83E
  8
0
  6
CONTINUOUS
  0
POLYLINE
  5
633
  8
0
  6
CONTINUOUS
 66
     1
 10
0.0
 20
0.0
 30
0.0
  0
VERTEX
  5
83F
  8
0
  6
CONTINUOUS
 10
8.9226638986422202
 20
-0.3628711146940644
 30
0.0
  0
VERTEX
  5
840
  8
0
  6
CONTINUOUS
 10
8.9069037155179362
 20
-0.4621788467101293
 30
0.0
  0
VERTEX
  5
841
  8
0
  6
CONTINUOUS
 10
8.6982396100325055
 20
-0.8708683592378863
 30
0.0
  0
VERTEX
  5
842
  8
0
  6
CONTINUOUS
 10
8.3733290603678299
 20
-1.1955282523674431
 30
0.0
  0
VERTEX
  5
843
  8
0
  6
CONTINUOUS
 10
7.9638107400706142
 20
-1.404074489601238
 30
0.0
  0
VERTEX
  5
844
  8
0
  6
CONTINUOUS
 10
7.8646850324431314
 20
-1.4197571046075641
 30
0.0
  0
SEQEND
  5
845
  8
0
  6
CONTINUOUS
  0
POLYLINE
  5
63B
  8
0
  6
CONTINUOUS
 66
     1
 10
0.0
 20
0.0
 30
0.0
  0
VERTEX
  5
846
  8
0
  6
CONTINUOUS
 10
8.9576041959515553
 20
-0.3628711146940644
 30
0.0
  0
VERTEX
  5
847
  8
0
  6
CONTINUOUS
 10
8.9401455464872708
 20
-0.4728735255426403
 30
0.0
  0
VERTEX
  5
848
  8
0
  6
CONTINUOUS
 10
8.7264742783118372
 20
-0.8914938112720351
 30
0.0
  0
VERTEX
  5
849
  8
0
  6
CONTINUOUS
 10
8.3938545481885161
 20
-1.2237927607104671
 30
0.0
  0
VERTEX
  5
84A
  8
0
  6
CONTINUOUS
 10
7.9746240331563421
 20
-1.4376863373605191
 30
0.0
  0
VERTEX
  5
84B
  8
0
  6
CONTINUOUS
 10
7.8646850324431314
 20
-1.4550364322806131
 30
0.0
  0
SEQEND
  5
84C
  8
0
  6
CONTINUOUS
  0
LINE
  5
643
  8
0
  6
CONTINUOUS
 10
7.1545870044261353
 20
-3.2439065882078681
 30
0.0
 11
7.864685032443135
 21
-3.2439065882078681
 31
0.0
  0
POLYLINE
  5
644
  8
0
  6
CONTINUOUS
 66
     1
 10
0.0
 20
0.0
 30
0.0
  0
VERTEX
  5
84D
  8
0
  6
CONTINUOUS
 10
7.8646850324431314
 20
0.3445054995128744
 30
0.0
  0
VERTEX
  5
84E
  8
0
  6
CONTINUOUS
 10
10.76014772808352
 20
0.3445054995128744
 30
0.0
  0
VERTEX
  5
84F
  8
0
  6
CONTINUOUS
 10
10.79999764116071
 20
0.3208244249552037
 30
0.0
  0
VERTEX
  5
850
  8
0
  6
CONTINUOUS
 10
10.845254573781549
 20
0.2627675970073229
 30
0.0
  0
VERTEX
  5
851
  8
0
  6
CONTINUOUS
 10
10.874591832414851
 20
0.1680432987765835
 30
0.0
  0
VERTEX
  5
852
  8
0
  6
CONTINUOUS
 10
10.874591832414851
 20
-0.1856450083268716
 30
0.0
  0
VERTEX
  5
853
  8
0
  6
CONTINUOUS
 10
10.845254573781549
 20
-0.2811332121884844
 30
0.0
  0
VERTEX
  5
854
  8
0
  6
CONTINUOUS
 10
10.79999764116071
 20
-0.3391900401363653
 30
0.0
  0
VERTEX
  5
855
  8
0
  6
CONTINUOUS
 10
10.76014772808352
 20
-0.3628711146940644
 30
0.0
  0
VERTEX
  5
856
  8
0
  6
CONTINUOUS
 10
7.8646850324431314
 20
-0.3628711146940644
 30
0.0
  0
SEQEND
  5
857
  8
0
  6
CONTINUOUS
  0
POLYLINE
  5
650
  8
0
  6
CONTINUOUS
 66
     1
 10
0.0
 20
0.0
 30
0.0
  0
VERTEX
  5
858
  8
0
  6
CONTINUOUS
 10
7.8646850324431314
 20
1.9636256534154799
 30
0.0
  0
VERTEX
  5
859
  8
0
  6
CONTINUOUS
 10
8.1376306031656664
 20
1.9204428160451761
 30
0.0
  0
VERTEX
  5
85A
  8
0
  6
CONTINUOUS
 10
8.7039465222164214
 20
1.6324503931985339
 30
0.0
  0
VERTEX
  5
85B
  8
0
  6
CONTINUOUS
 10
9.153315501592429
 20
1.183273882233411
 30
0.0
  0
VERTEX
  5
85C
  8
0
  6
CONTINUOUS
 10
9.4418793616590886
 20
0.6179837153725817
 30
0.0
  0
VERTEX
  5
85D
  8
0
  6
CONTINUOUS
 10
9.4852342519098212
 20
0.3445054995128744
 30
0.0
  0
SEQEND
  5
85E
  8
0
  6
CONTINUOUS
  0
POLYLINE
  5
658
  8
0
  6
CONTINUOUS
 66
     1
 10
0.0
 20
0.0
 30
0.0
  0
VERTEX
  5
85F
  8
0
  6
CONTINUOUS
 10
7.8646850324431314
 20
1.4013914894264019
 30
0.0
  0
VERTEX
  5
860
  8
0
  6
CONTINUOUS
 10
7.9638107400706142
 20
1.3857088744200781
 30
0.0
  0
VERTEX
  5
861
  8
0
  6
CONTINUOUS
 10
8.3733290603678299
 20
1.177926542817155
 30
0.0
  0
VERTEX
  5
862
  8
0
  6
CONTINUOUS
 10
8.6982396100325055
 20
0.8532666496876551
 30
0.0
  0
VERTEX
  5
863
  8
0
  6
CONTINUOUS
 10
8.9069037155179362
 20
0.4445771371598694
 30
0.0
  0
VERTEX
  5
864
  8
0
  6
CONTINUOUS
 10
8.9227583944307032
 20
0.3445054995128744
 30
0.0
  0
SEQEND
  5
865
  8
0
  6
CONTINUOUS
  0
POLYLINE
  5
660
  8
0
  6
CONTINUOUS
 66
     1
 10
0.0
 20
0.0
 30
0.0
  0
VERTEX
  5
866
  8
0
  6
CONTINUOUS
 10
7.8646850324431314
 20
1.2142299813262121
 30
0.0
  0
VERTEX
  5
867
  8
0
  6
CONTINUOUS
 10
7.9058367182995317
 20
1.2077188624220121
 30
0.0
  0
VERTEX
  5
868
  8
0
  6
CONTINUOUS
 10
8.2630886750111738
 20
1.0259093222694651
 30
0.0
  0
VERTEX
  5
869
  8
0
  6
CONTINUOUS
 10
8.5465476461791923
 20
0.7432642388390509
 30
0.0
  0
VERTEX
  5
86A
  8
0
  6
CONTINUOUS
 10
8.7285780028031645
 20
0.3865203092119885
 30
0.0
  0
VERTEX
  5
86B
  8
0
  6
CONTINUOUS
 10
8.7352331146948377
 20
0.3445054995128744
 30
0.0
  0
SEQEND
  5
86C
  8
0
  6
CONTINUOUS
  0
POLYLINE
  5
668
  8
0
  6
CONTINUOUS
 66
     1
 10
0.0
 20
0.0
 30
0.0
  0
VERTEX
  5
86D
  8
0
  6
CONTINUOUS
 10
7.8646850324431314
 20
1.4366708170994511
 30
0.0
  0
VERTEX
  5
86E
  8
0
  6
CONTINUOUS
 10
7.9746240331563421
 20
1.419320722179358
 30
0.0
  0
VERTEX
  5
86F
  8
0
  6
CONTINUOUS
 10
8.3938545481885161
 20
1.2061910511602081
 30
0.0
  0
VERTEX
  5
870
  8
0
  6
CONTINUOUS
 10
8.7264742783118372
 20
0.8738921017217471
 30
0.0
  0
VERTEX
  5
871
  8
0
  6
CONTINUOUS
 10
8.9401455464872708
 20
0.4552718159923805
 30
0.0
  0
VERTEX
  5
872
  8
0
  6
CONTINUOUS
 10
8.9576965222799316
 20
0.3445054995128744
 30
0.0
  0
SEQEND
  5
873
  8
0
  6
CONTINUOUS
  0
POLYLINE
  5
670
  8
0
  6
CONTINUOUS
 66
     1
 10
0.0
 20
0.0
 30
0.0
  0
VERTEX
  5
874
  8
0
  6
CONTINUOUS
 10
7.8646850324431314
 20
1.161977575065394
 30
0.0
  0
VERTEX
  5
875
  8
0
  6
CONTINUOUS
 10
7.889616405670127
 20
1.1580649964139651
 30
0.0
  0
VERTEX
  5
876
  8
0
  6
CONTINUOUS
 10
8.2321497509584152
 20
0.9838945125703515
 30
0.0
  0
VERTEX
  5
877
  8
0
  6
CONTINUOUS
 10
8.5038927671135731
 20
0.7119441079724194
 30
0.0
  0
VERTEX
  5
878
  8
0
  6
CONTINUOUS
 10
8.6784138717057306
 20
0.3704782909632503
 30
0.0
  0
VERTEX
  5
879
  8
0
  6
CONTINUOUS
 10
8.6825306056939127
 20
0.3445054995128744
 30
0.0
  0
SEQEND
  5
87A
  8
0
  6
CONTINUOUS
  0
POLYLINE
  5
678
  8
0
  6
CONTINUOUS
 66
     1
 10
0.0
 20
0.0
 30
0.0
  0
VERTEX
  5
87B
  8
0
  6
CONTINUOUS
 10
7.1545870044261353
 20
-0.3628711146940644
 30
0.0
  0
VERTEX
  5
87C
  8
0
  6
CONTINUOUS
 10
4.2596256218560171
 20
-0.3628711146940644
 30
0.0
  0
VERTEX
  5
87D
  8
0
  6
CONTINUOUS
 10
4.2196749985638258
 20
-0.3391900401363653
 30
0.0
  0
VERTEX
  5
87E
  8
0
  6
CONTINUOUS
 10
4.1742173915145404
 20
-0.2811332121884844
 30
0.0
  0
VERTEX
  5
87F
  8
0
  6
CONTINUOUS
 10
4.1446802044544038
 20
-0.1856450083268716
 30
0.0
  0
VERTEX
  5
880
  8
0
  6
CONTINUOUS
 10
4.1446802044544038
 20
0.1680432987765835
 30
0.0
  0
VERTEX
  5
881
  8
0
  6
CONTINUOUS
 10
4.1742173915145404
 20
0.2627675970073229
 30
0.0
  0
VERTEX
  5
882
  8
0
  6
CONTINUOUS
 10
4.2196749985638258
 20
0.3208244249552037
 30
0.0
  0
VERTEX
  5
883
  8
0
  6
CONTINUOUS
 10
4.2596256218560171
 20
0.3445054995128744
 30
0.0
  0
VERTEX
  5
884
  8
0
  6
CONTINUOUS
 10
7.1545870044261353
 20
0.3445054995128744
 30
0.0
  0
SEQEND
  5
885
  8
0
  6
CONTINUOUS
  0
POLYLINE
  5
684
  8
0
  6
CONTINUOUS
 66
     1
 10
0.0
 20
0.0
 30
0.0
  0
VERTEX
  5
886
  8
0
  6
CONTINUOUS
 10
4.2596256218560171
 20
0.3445054995128744
 30
0.0
  0
VERTEX
  5
887
  8
0
  6
CONTINUOUS
 10
4.2596256218560171
 20
0.3276995756332628
 30
0.0
  0
VERTEX
  5
888
  8
0
  6
CONTINUOUS
 10
4.2596256218560171
 20
0.2772818039943145
 30
0.0
  0
VERTEX
  5
889
  8
0
  6
CONTINUOUS
 10
4.2596256218560171
 20
0.199363429643215
 30
0.0
  0
VERTEX
  5
88A
  8
0
  6
CONTINUOUS
 10
4.2596256218560171
 20
0.1000556976271218
 30
0.0
  0
VERTEX
  5
88B
  8
0
  6
CONTINUOUS
 10
4.2596256218560171
 20
-0.0091828075905807
 30
0.0
  0
VERTEX
  5
88C
  8
0
  6
CONTINUOUS
 10
4.2596256218560171
 20
-0.1184213128082833
 30
0.0
  0
VERTEX
  5
88D
  8
0
  6
CONTINUOUS
 10
4.2596256218560171
 20
-0.2169651391934747
 30
0.0
  0
VERTEX
  5
88E
  8
0
  6
CONTINUOUS
 10
4.2596256218560171
 20
-0.2956474191754761
 30
0.0
  0
VERTEX
  5
88F
  8
0
  6
CONTINUOUS
 10
4.2596256218560171
 20
-0.3453012851834941
 30
0.0
  0
VERTEX
  5
890
  8
0
  6
CONTINUOUS
 10
4.2596256218560171
 20
-0.3628711146940644
 30
0.0
  0
SEQEND
  5
891
  8
0
  6
CONTINUOUS
  0
POLYLINE
  5
691
  8
0
  6
CONTINUOUS
 66
     1
 10
0.0
 20
0.0
 30
0.0
  0
VERTEX
  5
892
  8
0
  6
CONTINUOUS
 10
4.2596256218560171
 20
0.3445054995128744
 30
0.0
  0
VERTEX
  5
893
  8
0
  6
CONTINUOUS
 10
4.2596256218560171
 20
0.3276995756332628
 30
0.0
  0
VERTEX
  5
894
  8
0
  6
CONTINUOUS
 10
4.2596256218560171
 20
0.2772818039943145
 30
0.0
  0
VERTEX
  5
895
  8
0
  6
CONTINUOUS
 10
4.2596256218560171
 20
0.199363429643215
 30
0.0
  0
VERTEX
  5
896
  8
0
  6
CONTINUOUS
 10
4.2596256218560171
 20
0.1000556976271218
 30
0.0
  0
VERTEX
  5
897
  8
0
  6
CONTINUOUS
 10
4.2596256218560171
 20
-0.0091828075905807
 30
0.0
  0
VERTEX
  5
898
  8
0
  6
CONTINUOUS
 10
4.2596256218560171
 20
-0.1184213128082833
 30
0.0
  0
VERTEX
  5
899
  8
0
  6
CONTINUOUS
 10
4.2596256218560171
 20
-0.2169651391934747
 30
0.0
  0
VERTEX
  5
89A
  8
0
  6
CONTINUOUS
 10
4.2596256218560171
 20
-0.2956474191754761
 30
0.0
  0
VERTEX
  5
89B
  8
0
  6
CONTINUOUS
 10
4.2596256218560171
 20
-0.3453012851834941
 30
0.0
  0
VERTEX
  5
89C
  8
0
  6
CONTINUOUS
 10
4.2596256218560171
 20
-0.3628711146940644
 30
0.0
  0
SEQEND
  5
89D
  8
0
  6
CONTINUOUS
  0
POLYLINE
  5
69E
  8
0
  6
CONTINUOUS
 66
     1
 10
0.0
 20
0.0
 30
0.0
  0
VERTEX
  5
89E
  8
0
  6
CONTINUOUS
 10
7.1545870044261353
 20
0.3445054995129029
 30
0.0
  0
VERTEX
  5
89F
  8
0
  6
CONTINUOUS
 10
7.1545870044261353
 20
3.2313048786576082
 30
0.0
  0
VERTEX
  5
8A0
  8
0
  6
CONTINUOUS
 10
7.178617207729193
 20
3.271027971464044
 30
0.0
  0
VERTEX
  5
8A1
  8
0
  6
CONTINUOUS
 10
7.236891122140527
 20
3.316098403686738
 30
0.0
  0
VERTEX
  5
8A2
  8
0
  6
CONTINUOUS
 10
7.3322114756438008
 20
3.3451268176606641
 30
0.0
  0
VERTEX
  5
8A3
  8
0
  6
CONTINUOUS
 10
7.6870605612254641
 20
3.3451268176606641
 30
0.0
  0
VERTEX
  5
8A4
  8
0
  6
CONTINUOUS
 10
7.7822809505153252
 20
3.316098403686738
 30
0.0
  0
VERTEX
  5
8A5
  8
0
  6
CONTINUOUS
 10
7.8405548649266592
 20
3.271027971464044
 30
0.0
  0
VERTEX
  5
8A6
  8
0
  6
CONTINUOUS
 10
7.8646850324431314
 20
3.2313048786576082
 30
0.0
  0
VERTEX
  5
8A7
  8
0
  6
CONTINUOUS
 10
7.8646850324431314
 20
0.3445054995128744
 30
0.0
  0
SEQEND
  5
8A8
  8
0
  6
CONTINUOUS
  0
POLYLINE
  5
6AA
  8
0
  6
CONTINUOUS
 66
     1
 10
0.0
 20
0.0
 30
0.0
  0
VERTEX
  5
8A9
  8
0
  6
CONTINUOUS
 10
6.3372413543110726
 20
0.3445054995128744
 30
0.0
  0
VERTEX
  5
8AA
  8
0
  6
CONTINUOUS
 10
6.3413579862306291
 20
0.3704782909632503
 30
0.0
  0
VERTEX
  5
8AB
  8
0
  6
CONTINUOUS
 10
6.5158790908227884
 20
0.7119441079724194
 30
0.0
  0
VERTEX
  5
8AC
  8
0
  6
CONTINUOUS
 10
6.7877228171929511
 20
0.9838945125703515
 30
0.0
  0
VERTEX
  5
8AD
  8
0
  6
CONTINUOUS
 10
7.1302561624812411
 20
1.1580649964139651
 30
0.0
  0
VERTEX
  5
8AE
  8
0
  6
CONTINUOUS
 10
7.1545870044261353
 20
1.16188332382237
 30
0.0
  0
SEQEND
  5
8AF
  8
0
  6
CONTINUOUS
  0
POLYLINE
  5
6B2
  8
0
  6
CONTINUOUS
 66
     1
 10
0.0
 20
0.0
 30
0.0
  0
VERTEX
  5
8B0
  8
0
  6
CONTINUOUS
 10
6.2846401202494651
 20
0.3445054995128744
 30
0.0
  0
VERTEX
  5
8B1
  8
0
  6
CONTINUOUS
 10
6.291295311349792
 20
0.3865203092119885
 30
0.0
  0
VERTEX
  5
8B2
  8
0
  6
CONTINUOUS
 10
6.4733249219721749
 20
0.7432642388390509
 30
0.0
  0
VERTEX
  5
8B3
  8
0
  6
CONTINUOUS
 10
6.75678389314018
 20
1.0259093222694651
 30
0.0
  0
VERTEX
  5
8B4
  8
0
  6
CONTINUOUS
 10
7.1139351396368271
 20
1.2077188624220121
 30
0.0
  0
VERTEX
  5
8B5
  8
0
  6
CONTINUOUS
 10
7.1545870044261353
 20
1.214149250534692
 30
0.0
  0
SEQEND
  5
8B6
  8
0
  6
CONTINUOUS
  0
POLYLINE
  5
6BA
  8
0
  6
CONTINUOUS
 66
     1
 10
0.0
 20
0.0
 30
0.0
  0
VERTEX
  5
8B7
  8
0
  6
CONTINUOUS
 10
6.0971149197222516
 20
0.3445054995128744
 30
0.0
  0
VERTEX
  5
8B8
  8
0
  6
CONTINUOUS
 10
6.1129695986350221
 20
0.4445771371598694
 30
0.0
  0
VERTEX
  5
8B9
  8
0
  6
CONTINUOUS
 10
6.3215329939054428
 20
0.8532666496876551
 30
0.0
  0
VERTEX
  5
8BA
  8
0
  6
CONTINUOUS
 10
6.6465442537851267
 20
1.177926542817155
 30
0.0
  0
VERTEX
  5
8BB
  8
0
  6
CONTINUOUS
 10
7.055961863867334
 20
1.3857088744200781
 30
0.0
  0
VERTEX
  5
8BC
  8
0
  6
CONTINUOUS
 10
7.1545870044261353
 20
1.401308833551407
 30
0.0
  0
SEQEND
  5
8BD
  8
0
  6
CONTINUOUS
  0
POLYLINE
  5
6C2
  8
0
  6
CONTINUOUS
 66
     1
 10
0.0
 20
0.0
 30
0.0
  0
VERTEX
  5
8BE
  8
0
  6
CONTINUOUS
 10
6.0621767918730329
 20
0.3445054995128744
 30
0.0
  0
VERTEX
  5
8BF
  8
0
  6
CONTINUOUS
 10
6.0797277676656867
 20
0.4552718159923805
 30
0.0
  0
VERTEX
  5
8C0
  8
0
  6
CONTINUOUS
 10
6.2932975796245101
 20
0.8738921017217471
 30
0.0
  0
VERTEX
  5
8C1
  8
0
  6
CONTINUOUS
 10
6.6260180199628449
 20
1.2061910511602081
 30
0.0
  0
VERTEX
  5
8C2
  8
0
  6
CONTINUOUS
 10
7.0452485349950109
 20
1.419320722179358
 30
0.0
  0
VERTEX
  5
8C3
  8
0
  6
CONTINUOUS
 10
7.1545870044261353
 20
1.436576016163148
 30
0.0
  0
SEQEND
  5
8C4
  8
0
  6
CONTINUOUS
  0
POLYLINE
  5
6CA
  8
0
  6
CONTINUOUS
 66
     1
 10
0.0
 20
0.0
 30
0.0
  0
VERTEX
  5
8C5
  8
0
  6
CONTINUOUS
 10
7.1545870044261353
 20
1.9636256534154799
 30
0.0
  0
VERTEX
  5
8C6
  8
0
  6
CONTINUOUS
 10
6.8816414337036038
 20
1.9204428160451761
 30
0.0
  0
VERTEX
  5
8C7
  8
0
  6
CONTINUOUS
 10
6.3153255146528524
 20
1.6324503931985339
 30
0.0
  0
VERTEX
  5
8C8
  8
0
  6
CONTINUOUS
 10
5.8659565352768404
 20
1.183273882233411
 30
0.0
  0
VERTEX
  5
8C9
  8
0
  6
CONTINUOUS
 10
5.5773926752101923
 20
0.6179837153725817
 30
0.0
  0
VERTEX
  5
8CA
  8
0
  6
CONTINUOUS
 10
5.5340377849594589
 20
0.3445054995128744
 30
0.0
  0
SEQEND
  5
8CB
  8
0
  6
CONTINUOUS
  0
ARC
  5
6D2
  8
0
  6
CONTINUOUS
 10
7.5096360184347066
 20
0.6473552153592311
 30
0.0
 40
0.4666666398369025
 50
220.46351585200449
 51
319.5364841479871
  0
ARC
  5
6D3
  8
0
  6
CONTINUOUS
 10
7.5096360184347066
 20
-0.6657208305405356
 30
0.0
 40
0.4666666398369025
 50
40.46351585201274
 51
139.53648414799639
  0
ARC
  5
6D4
  8
0
  6
CONTINUOUS
 10
6.8544587023897581
 20
-0.0105435144957342
 30
0.0
 40
0.4666666398369025
 50
310.46351585201262
 51
49.536484147996447
  0
ARC
  5
6D5
  8
0
  6
CONTINUOUS
 10
8.1675347482895369
 20
-0.0105435144957342
 30
0.0
 40
0.4666666398369025
 50
130.4635158520035
 51
229.5364841479873
  0
POLYLINE
  5
6D6
  8
0
  6
CONTINUOUS
 66
     1
 10
0.0
 20
0.0
 30
0.0
  0
VERTEX
  5
8CC
  8
0
  6
CONTINUOUS
 10
7.1545870044261353
 20
3.2313048786576082
 30
0.0
  0
VERTEX
  5
8CD
  8
0
  6
CONTINUOUS
 10
7.1720091256213188
 20
3.2313048786576082
 30
0.0
  0
VERTEX
  5
8CE
  8
0
  6
CONTINUOUS
 10
7.2223724391440021
 20
3.2313048786576082
 30
0.0
  0
VERTEX
  5
8CF
  8
0
  6
CONTINUOUS
 10
7.3009719129491959
 20
3.2313048786576082
 30
0.0
  0
VERTEX
  5
8D0
  8
0
  6
CONTINUOUS
 10
7.3998969461482593
 20
3.2313048786576082
 30
0.0
  0
VERTEX
  5
8D1
  8
0
  6
CONTINUOUS
 10
7.5096360184346356
 20
3.2313048786576082
 30
0.0
  0
VERTEX
  5
8D2
  8
0
  6
CONTINUOUS
 10
7.6193750907210198
 20
3.2313048786576082
 30
0.0
  0
VERTEX
  5
8D3
  8
0
  6
CONTINUOUS
 10
7.718300123920061
 20
3.2313048786576082
 30
0.0
  0
VERTEX
  5
8D4
  8
0
  6
CONTINUOUS
 10
7.7967988875102581
 20
3.2313048786576082
 30
0.0
  0
VERTEX
  5
8D5
  8
0
  6
CONTINUOUS
 10
7.8472629112479391
 20
3.2313048786576082
 30
0.0
  0
VERTEX
  5
8D6
  8
0
  6
CONTINUOUS
 10
7.8646850324431314
 20
3.2313048786576082
 30
0.0
  0
SEQEND
  5
8D7
  8
0
  6
CONTINUOUS
  0
POLYLINE
  5
6E3
  8
0
  6
CONTINUOUS
 66
     1
 10
0.0
 20
0.0
 30
0.0
  0
VERTEX
  5
8D8
  8
0
  6
CONTINUOUS
 10
10.76014772808352
 20
0.3445054995128744
 30
0.0
  0
VERTEX
  5
8D9
  8
0
  6
CONTINUOUS
 10
10.76014772808352
 20
0.3276995756332628
 30
0.0
  0
VERTEX
  5
8DA
  8
0
  6
CONTINUOUS
 10
10.76014772808352
 20
0.2772818039943145
 30
0.0
  0
VERTEX
  5
8DB
  8
0
  6
CONTINUOUS
 10
10.76014772808352
 20
0.199363429643215
 30
0.0
  0
VERTEX
  5
8DC
  8
0
  6
CONTINUOUS
 10
10.76014772808352
 20
0.1000556976271218
 30
0.0
  0
VERTEX
  5
8DD
  8
0
  6
CONTINUOUS
 10
10.76014772808352
 20
-0.0091828075905807
 30
0.0
  0
VERTEX
  5
8DE
  8
0
  6
CONTINUOUS
 10
10.76014772808352
 20
-0.1184213128082833
 30
0.0
  0
VERTEX
  5
8DF
  8
0
  6
CONTINUOUS
 10
10.76014772808352
 20
-0.2169651391934747
 30
0.0
  0
VERTEX
  5
8E0
  8
0
  6
CONTINUOUS
 10
10.76014772808352
 20
-0.2956474191754761
 30
0.0
  0
VERTEX
  5
8E1
  8
0
  6
CONTINUOUS
 10
10.76014772808352
 20
-0.3453012851834941
 30
0.0
  0
VERTEX
  5
8E2
  8
0
  6
CONTINUOUS
 10
10.76014772808352
 20
-0.3628711146940644
 30
0.0
  0
SEQEND
  5
8E3
  8
0
  6
CONTINUOUS
  0
POLYLINE
  5
6F0
  8
0
  6
CONTINUOUS
 66
     1
 10
0.0
 20
0.0
 30
0.0
  0
VERTEX
  5
8E4
  8
0
  6
CONTINUOUS
 10
10.76014772808352
 20
0.3445054995128744
 30
0.0
  0
VERTEX
  5
8E5
  8
0
  6
CONTINUOUS
 10
10.76014772808352
 20
0.3276995756332628
 30
0.0
  0
VERTEX
  5
8E6
  8
0
  6
CONTINUOUS
 10
10.76014772808352
 20
0.2772818039943145
 30
0.0
  0
VERTEX
  5
8E7
  8
0
  6
CONTINUOUS
 10
10.76014772808352
 20
0.199363429643215
 30
0.0
  0
VERTEX
  5
8E8
  8
0
  6
CONTINUOUS
 10
10.76014772808352
 20
0.1000556976271218
 30
0.0
  0
VERTEX
  5
8E9
  8
0
  6
CONTINUOUS
 10
10.76014772808352
 20
-0.0091828075905807
 30
0.0
  0
VERTEX
  5
8EA
  8
0
  6
CONTINUOUS
 10
10.76014772808352
 20
-0.1184213128082833
 30
0.0
  0
VERTEX
  5
8EB
  8
0
  6
CONTINUOUS
 10
10.76014772808352
 20
-0.2169651391934747
 30
0.0
  0
VERTEX
  5
8EC
  8
0
  6
CONTINUOUS
 10
10.76014772808352
 20
-0.2956474191754761
 30
0.0
  0
VERTEX
  5
8ED
  8
0
  6
CONTINUOUS
 10
10.76014772808352
 20
-0.3453012851834941
 30
0.0
  0
VERTEX
  5
8EE
  8
0
  6
CONTINUOUS
 10
10.76014772808352
 20
-0.3628711146940644
 30
0.0
  0
SEQEND
  5
8EF
  8
0
  6
CONTINUOUS
  0
DIMENSION
  5
6FD
  8
COTATION-JACOBDELAFON
  2
*D2
 10
7.5096360184346329
 20
6.0829080285445043
 30
0.0
 11
0.0096360184346331
 21
8.51462699170958
 31
0.0
 13
-7.4903639815653662
 23
2.823097640451445
 33
0.0
 14
7.5096360184346329
 24
2.823097640451445
 34
0.0
  0
DIMENSION
  5
6FE
  8
COTATION-JACOBDELAFON
  2
*D4
 10
-12.50378329627187
 20
-3.358492432841822
 30
0.0
 11
-17.185502259436952
 21
-0.0066828075905803
 31
0.0
 13
-7.4903639815653662
 23
3.3451268176606641
 33
0.0
 14
-7.4903639815653662
 24
-3.3584924328418242
 34
0.0
 50
90.0
  0
INSERT
  5
6FF
 67
     1
  8
0
  6
CONTINUOUS
  2
ADCADD_ZZ
 10
0.0
 20
0.0
 30
0.0
1001
ADCADD_ZZ
1070
   205
1070
    14
1070
   209
1070
     1
1070
   231
1070
     0
1070
   235
1070
     0
1070
   236
1070
     4
1070
   237
1070
     2
1070
   238
1070
     4
1070
   239
1070
     2
1070
   240
1070
     0
1070
   241
1070
  4096
1070
   242
1070
     2
1070
   244
1070
     0
1070
   245
1070
     1
1070
   303
1040
0.1
1070
   304
1040
4.0
1070
   305
1040
1.0
1070
   306
1040
1.0
1070
   337
1040
0.0
1070
   338
1040
0.3048
1070
   339
1040
0.0625
1070
   340
1040
96.0
1070
   341
1040
4.0
1070
   342
1040
1.0
1070
   530
1010
0.0
1020
0.0
1030
0.0
1070
   531
1010
0.0
1020
0.0
1030
0.0
1070
   107
1000

1070
   108
1000
Architectural Desktop
1070
   135
1000
L120
1070
   136
1000
'
1070
   137
1000
m
1001
SDSK_PMN
1070
   100
1000
ACADARCH
1070
   300
1040
2453077.637319861
  0
ENDSEC
  0
EOF
