  0
SECTION
  2
HEADER
  9
$ACADVER
  1
AC1009
  9
$INSBASE
 10
0.0
 20
0.0
 30
0.0
  9
$EXTMIN
 10
-20.28306665650296
 20
-13.64575017112735
 30
0.0
  9
$EXTMAX
 10
10.85481766152647
 20
0.900000000000001
 30
0.0
  9
$LIMMIN
 10
0.0
 20
0.0
  9
$LIMMAX
 10
12.0
 20
9.0
  9
$ORTHOMODE
 70
     1
  9
$REGENMODE
 70
     1
  9
$FILLMODE
 70
     1
  9
$QTEXTMODE
 70
     0
  9
$MIRRTEXT
 70
     1
  9
$DRAGMODE
 70
     2
  9
$LTSCALE
 40
1.0
  9
$OSMODE
 70
     1
  9
$ATTMODE
 70
     1
  9
$TEXTSIZE
 40
0.2
  9
$TRACEWID
 40
0.05
  9
$TEXTSTYLE
  7
STANDARD
  9
$CLAYER
  8
0
  9
$CELTYPE
  6
CONTINUOUS
  9
$CECOLOR
 62
   256
  9
$DIMSCALE
 40
1.0
  9
$DIMASZ
 40
0.18
  9
$DIMEXO
 40
0.0625
  9
$DIMDLI
 40
0.38
  9
$DIMRND
 40
0.0
  9
$DIMDLE
 40
0.0
  9
$DIMEXE
 40
0.18
  9
$DIMTP
 40
0.0
  9
$DIMTM
 40
0.0
  9
$DIMTXT
 40
0.18
  9
$DIMCEN
 40
0.09
  9
$DIMTSZ
 40
0.0
  9
$DIMTOL
 70
     0
  9
$DIMLIM
 70
     0
  9
$DIMTIH
 70
     1
  9
$DIMTOH
 70
     1
  9
$DIMSE1
 70
     0
  9
$DIMSE2
 70
     0
  9
$DIMTAD
 70
     0
  9
$DIMZIN
 70
     0
  9
$DIMBLK
  1

  9
$DIMASO
 70
     1
  9
$DIMSHO
 70
     1
  9
$DIMPOST
  1

  9
$DIMAPOST
  1

  9
$DIMALT
 70
     0
  9
$DIMALTD
 70
     2
  9
$DIMALTF
 40
25.399999999999999
  9
$DIMLFAC
 40
1.0
  9
$DIMTOFL
 70
     0
  9
$DIMTVP
 40
0.0
  9
$DIMTIX
 70
     0
  9
$DIMSOXD
 70
     0
  9
$DIMSAH
 70
     0
  9
$DIMBLK1
  1

  9
$DIMBLK2
  1

  9
$DIMSTYLE
  2
STANDARD
  9
$DIMCLRD
 70
     0
  9
$DIMCLRE
 70
     0
  9
$DIMCLRT
 70
     0
  9
$DIMTFAC
 40
1.0
  9
$DIMGAP
 40
0.09
  9
$LUNITS
 70
     2
  9
$LUPREC
 70
     4
  9
$SKETCHINC
 40
0.1
  9
$FILLETRAD
 40
0.0
  9
$AUNITS
 70
     0
  9
$AUPREC
 70
     2
  9
$MENU
  1
.
  9
$ELEVATION
 40
0.0
  9
$PELEVATION
 40
0.0
  9
$THICKNESS
 40
0.0
  9
$LIMCHECK
 70
     0
  9
$BLIPMODE
 70
     0
  9
$CHAMFERA
 40
0.0
  9
$CHAMFERB
 40
0.0
  9
$SKPOLY
 70
     0
  9
$TDCREATE
 40
2453067.5968662729
  9
$TDUPDATE
 40
2453077.6376625691
  9
$TDINDWG
 40
0.024961875
  9
$TDUSRTIMER
 40
0.024961875
  9
$USRTIMER
 70
     1
  9
$ANGBASE
 50
0.0
  9
$ANGDIR
 70
     0
  9
$PDMODE
 70
     0
  9
$PDSIZE
 40
0.0
  9
$PLINEWID
 40
0.0
  9
$COORDS
 70
     1
  9
$SPLFRAME
 70
     0
  9
$SPLINETYPE
 70
     6
  9
$SPLINESEGS
 70
     8
  9
$ATTDIA
 70
     1
  9
$ATTREQ
 70
     1
  9
$HANDLING
 70
 22529
  9
$HANDSEED
  5
398
  9
$SURFTAB1
 70
     6
  9
$SURFTAB2
 70
     6
  9
$SURFTYPE
 70
     6
  9
$SURFU
 70
     6
  9
$SURFV
 70
     6
  9
$UCSNAME
  2

  9
$UCSORG
 10
0.0
 20
0.0
 30
0.0
  9
$UCSXDIR
 10
1.0
 20
0.0
 30
0.0
  9
$UCSYDIR
 10
0.0
 20
1.0
 30
0.0
  9
$PUCSNAME
  2

  9
$PUCSORG
 10
0.0
 20
0.0
 30
0.0
  9
$PUCSXDIR
 10
1.0
 20
0.0
 30
0.0
  9
$PUCSYDIR
 10
0.0
 20
1.0
 30
0.0
  9
$USERI1
 70
     0
  9
$USERI2
 70
     0
  9
$USERI3
 70
     0
  9
$USERI4
 70
     0
  9
$USERI5
 70
     0
  9
$USERR1
 40
0.0
  9
$USERR2
 40
0.0
  9
$USERR3
 40
0.0
  9
$USERR4
 40
0.0
  9
$USERR5
 40
0.0
  9
$WORLDVIEW
 70
     1
  9
$SHADEDGE
 70
     3
  9
$SHADEDIF
 70
    70
  9
$TILEMODE
 70
     1
  9
$MAXACTVP
 70
    64
  9
$PLIMCHECK
 70
     0
  9
$PEXTMIN
 10
-3.3056395283165401
 20
-2.1824138773907338
 30
0.0
  9
$PEXTMAX
 10
293.69436047168341
 20
397.32777628613678
 30
0.0
  9
$PLIMMIN
 10
-0.1979161059762549
 20
-0.2679166643638311
  9
$PLIMMAX
 10
11.493750144177531
 20
7.9987497780266699
  9
$UNITMODE
 70
     0
  9
$VISRETAIN
 70
     1
  9
$PLINEGEN
 70
     0
  9
$PSLTSCALE
 70
     1
  0
ENDSEC
  0
SECTION
  2
TABLES
  0
TABLE
  2
VPORT
 70
     2
  0
VPORT
  2
*ACTIVE
 70
     0
 10
0.0
 20
0.0
 11
1.0
 21
1.0
 12
-3.4407944651384521
 22
-6.372909034365275
 13
0.0
 23
0.0
 14
1.0
 24
1.0
 15
0.0
 25
0.0
 16
0.0
 26
0.0
 36
1.0
 17
0.0
 27
0.0
 37
0.0
 40
17.583168058204159
 41
1.928853754940711
 42
50.0
 43
0.0
 44
0.0
 50
0.0
 51
0.0
 71
     0
 72
   100
 73
     1
 74
     1
 75
     0
 76
     0
 77
     0
 78
     0
  0
ENDTAB
  0
TABLE
  2
LTYPE
 70
     1
  0
LTYPE
  2
CONTINUOUS
 70
     0
  3
Solid line
 72
    65
 73
     0
 40
0.0
  0
ENDTAB
  0
TABLE
  2
LAYER
 70
     3
  0
LAYER
  2
0
 70
     0
 62
     7
  6
CONTINUOUS
  0
LAYER
  2
DEFPOINTS
 70
     0
 62
     7
  6
CONTINUOUS
  0
LAYER
  2
COTATION-JACOBDELAFON
 70
     0
 62
     8
  6
CONTINUOUS
  0
ENDTAB
  0
TABLE
  2
STYLE
 70
     2
  0
STYLE
  2
STANDARD
 70
     0
 40
0.0
 41
1.0
 50
0.0
 71
     0
 42
0.2
  3
txt
  4

  0
STYLE
  2
JACOB-DELAFON
 70
     0
 40
0.0
 41
1.0
 50
0.0
 71
     0
 42
2.5
  3
txt
  4

  0
ENDTAB
  0
TABLE
  2
VIEW
 70
     0
  0
ENDTAB
  0
TABLE
  2
UCS
 70
     0
  0
ENDTAB
  0
TABLE
  2
APPID
 70
     9
  0
APPID
  2
ACAD
 70
     0
  0
APPID
  2
ADCADD_ZZ
 70
     0
  0
APPID
  2
SDSK_PMN
 70
     0
  0
APPID
  2
ACAECLAYERSTANDARD
 70
     0
  0
APPID
  2
AECBASE
 70
     0
  0
APPID
  2
AEC_DWGVARSSETUP_DATA
 70
     0
  0
APPID
  2
AEC_DISPREPCONFIG_DATA
 70
     0
  0
APPID
  2
AEC_DISPREPSET_DATA
 70
     0
  0
APPID
  2
DCO15
 70
     0
  0
ENDTAB
  0
TABLE
  2
DIMSTYLE
 70
     2
  0
DIMSTYLE
  2
STANDARD
 70
     0
  3

  4

  5

  6

  7

 40
1.0
 41
0.18
 42
0.0625
 43
0.38
 44
0.18
 45
0.0
 46
0.0
 47
0.0
 48
0.0
140
0.18
141
0.09
142
0.0
143
25.399999999999999
144
1.0
145
0.0
146
1.0
147
0.09
 71
     0
 72
     0
 73
     1
 74
     1
 75
     0
 76
     0
 77
     0
 78
     0
170
     0
171
     2
172
     0
173
     0
174
     0
175
     0
176
     0
177
     0
178
     0
  0
DIMSTYLE
  2
COTATION-JACOB-DELAFON
 70
     0
  3

  4

  5
OBLIQUE
  6

  7

 40
1.0
 41
1.8
 42
0.625
 43
3.7999999999999989
 44
1.8
 45
0.0
 46
0.0
 47
0.0
 48
0.0
140
3.0
141
0.9
142
0.0
143
25.399999999999999
144
1.0
145
0.0
146
1.0
147
0.9
 71
     0
 72
     0
 73
     0
 74
     0
 75
     0
 76
     0
 77
     1
 78
    12
170
     0
171
     2
172
     0
173
     0
174
     0
175
     0
176
     0
177
     0
178
     0
  0
ENDTAB
  0
ENDSEC
  0
SECTION
  2
BLOCKS
  0
BLOCK
  8
0
  2
$MODEL_SPACE
 70
     0
 10
0.0
 20
0.0
 30
0.0
  3
$MODEL_SPACE
  1

  0
ENDBLK
  5
9
  8
0
  0
BLOCK
 67
     1
  8
0
  2
$PAPER_SPACE
 70
     0
 10
0.0
 20
0.0
 30
0.0
  3
$PAPER_SPACE
  1

  0
ENDBLK
  5
E
 67
     1
  8
0
  0
BLOCK
  8
0
  2
_OBLIQUE
 70
     0
 10
0.0
 20
0.0
 30
0.0
  3
_OBLIQUE
  1

  0
LINE
  5
5F
  8
0
  6
BYBLOCK
 62
     0
 10
-0.5
 20
-0.5
 30
0.0
 11
0.5
 21
0.5
 31
0.0
  0
ENDBLK
  5
61
  8
0
  0
BLOCK
  8
0
  2
*D1
 70
     1
 10
0.0
 20
0.0
 30
0.0
  3
*D1
  1

  0
LINE
  5
F1
  8
COTATION-JACOBDELAFON
 62
     0
 10
-7.4944045900373828
 20
-7.2636347065513291
 30
0.0
 11
-7.4944045900373828
 21
-13.64575017112735
 31
0.0
  0
LINE
  5
F2
  8
COTATION-JACOBDELAFON
 62
     0
 10
7.506322627078112
 20
-7.2636347065513291
 30
0.0
 11
7.506322627078112
 21
-13.64575017112735
 31
0.0
  0
LINE
  5
F3
  8
COTATION-JACOBDELAFON
 62
     0
 10
-7.4944045900373828
 20
-11.845750171127341
 30
0.0
 11
7.506322627078112
 21
-11.845750171127341
 31
0.0
  0
INSERT
  5
F4
  8
COTATION-JACOBDELAFON
 62
     0
  2
_OBLIQUE
 10
-7.4944045900373828
 20
-11.845750171127341
 30
0.0
 41
1.8
 42
1.8
 43
1.8
 50
180.0
  0
INSERT
  5
F5
  8
COTATION-JACOBDELAFON
 62
     0
  2
_OBLIQUE
 10
7.506322627078112
 20
-11.845750171127341
 30
0.0
 41
1.8
 42
1.8
 43
1.8
  0
TEXT
  5
F6
  8
0
  6
CONTINUOUS
 62
     0
 10
-2.4691433007156509
 20
-10.88845139895818
 30
0.0
 40
3.0
  1
15
  7
JACOB-DELAFON
  0
POINT
  5
F7
  8
DEFPOINTS
 62
     0
 10
-7.4944045900373828
 20
-6.6386347065513291
 30
0.0
  0
POINT
  5
F8
  8
DEFPOINTS
 62
     0
 10
7.506322627078112
 20
-6.6386347065513291
 30
0.0
  0
POINT
  5
F9
  8
DEFPOINTS
 62
     0
 10
7.506322627078112
 20
-11.845750171127341
 30
0.0
  0
ENDBLK
  5
98
  8
0
  0
BLOCK
  8
0
  2
*D2
 70
     1
 10
0.0
 20
0.0
 30
0.0
  3
*D2
  1

  0
LINE
  5
10C
  8
COTATION-JACOBDELAFON
 62
     0
 10
-9.4174448973606442
 20
-7.2034918265119643
 30
0.0
 11
-15.13293023085494
 21
-7.2034918265119616
 31
0.0
  0
LINE
  5
10D
  8
COTATION-JACOBDELAFON
 62
     0
 10
-10.63462844354712
 20
0.0000000000000002
 30
0.0
 11
-15.13293023085494
 21
0.0000000000000015
 31
0.0
  0
LINE
  5
10E
  8
COTATION-JACOBDELAFON
 62
     0
 10
-13.33293023085494
 20
-7.2034918265119634
 30
0.0
 11
-13.33293023085494
 21
0.0000000000000009
 31
0.0
  0
TEXT
  5
10F
  8
0
  6
CONTINUOUS
 62
     0
 10
-16.48906938501592
 20
-6.5035194466802659
 30
0.0
 40
3.0
  1
7.2
 50
90.0
  7
JACOB-DELAFON
  0
INSERT
  5
110
  8
COTATION-JACOBDELAFON
 62
     0
  2
_OBLIQUE
 10
-13.33293023085494
 20
-7.2034918265119634
 30
0.0
 41
1.8
 42
1.8
 43
1.8
 50
270.0
  0
INSERT
  5
111
  8
COTATION-JACOBDELAFON
 62
     0
  2
_OBLIQUE
 10
-13.33293023085494
 20
0.0000000000000009
 30
0.0
 41
1.8
 42
1.8
 43
1.8
 50
90.0
  0
POINT
  5
112
  8
DEFPOINTS
 62
     0
 10
-8.7924448973606442
 20
-7.2034918265119643
 30
0.0
  0
POINT
  5
113
  8
DEFPOINTS
 62
     0
 10
-10.00962844354712
 20
0.0
 30
0.0
  0
POINT
  5
114
  8
DEFPOINTS
 62
     0
 10
-13.33293023085494
 20
0.0000000000000009
 30
0.0
  0
ENDBLK
  5
D4
  8
0
  0
BLOCK
  8
0
  2
ADCADD_ZZ
 70
     0
 10
0.0
 20
0.0
 30
0.0
  3
ADCADD_ZZ
  1

  0
ENDBLK
  5
130
  8
0
  0
ENDSEC
  0
SECTION
  2
ENTITIES
  0
POLYLINE
  5
25
  8
0
  6
CONTINUOUS
 66
     1
 10
0.0
 20
0.0
 30
0.0
 70
     1
  0
VERTEX
  5
298
  8
0
  6
CONTINUOUS
 10
4.2605003339869754
 20
-0.7124323550708596
 30
0.0
  0
VERTEX
  5
299
  8
0
  6
CONTINUOUS
 10
4.2207755308090418
 20
-0.6882996565056488
 30
0.0
  0
VERTEX
  5
29A
  8
0
  6
CONTINUOUS
 10
4.1757031579725128
 20
-0.6298240419718582
 30
0.0
  0
VERTEX
  5
29B
  8
0
  6
CONTINUOUS
 10
4.1459095555890491
 20
-0.5341989326392423
 30
0.0
  0
VERTEX
  5
29C
  8
0
  6
CONTINUOUS
 10
4.1459095555890491
 20
-0.1782334224316173
 30
0.0
  0
VERTEX
  5
29D
  8
0
  6
CONTINUOUS
 10
4.1757031579725128
 20
-0.0826083130989446
 30
0.0
  0
VERTEX
  5
29E
  8
0
  6
CONTINUOUS
 10
4.2207755308090418
 20
-0.0241312064977706
 30
0.0
  0
VERTEX
  5
29F
  8
0
  6
CONTINUOUS
 10
4.2605003339869754
 20
0.0
 30
0.0
  0
VERTEX
  5
2A0
  8
0
  6
CONTINUOUS
 10
10.74022688312853
 20
0.0
 30
0.0
  0
VERTEX
  5
2A1
  8
0
  6
CONTINUOUS
 10
10.779951686306481
 20
-0.0241312064977706
 30
0.0
  0
VERTEX
  5
2A2
  8
0
  6
CONTINUOUS
 10
10.82578799766566
 20
-0.0826083130989446
 30
0.0
  0
VERTEX
  5
2A3
  8
0
  6
CONTINUOUS
 10
10.85481766152647
 20
-0.1782334224315605
 30
0.0
  0
VERTEX
  5
2A4
  8
0
  6
CONTINUOUS
 10
10.85481766152647
 20
-0.5341989326392423
 30
0.0
  0
VERTEX
  5
2A5
  8
0
  6
CONTINUOUS
 10
10.82578799766566
 20
-0.6298240419718582
 30
0.0
  0
VERTEX
  5
2A6
  8
0
  6
CONTINUOUS
 10
10.779951686306481
 20
-0.6882996565056488
 30
0.0
  0
VERTEX
  5
2A7
  8
0
  6
CONTINUOUS
 10
10.74022688312853
 20
-0.7124323550708596
 30
0.0
  0
SEQEND
  5
2A8
  8
0
  6
CONTINUOUS
  0
POLYLINE
  5
26
  8
0
  6
CONTINUOUS
 66
     1
 10
0.0
 20
0.0
 30
0.0
 70
     1
  0
VERTEX
  5
2A9
  8
0
  6
CONTINUOUS
 10
-10.740226883128519
 20
-0.7124323550708596
 30
0.0
  0
VERTEX
  5
2AA
  8
0
  6
CONTINUOUS
 10
-10.779951686306459
 20
-0.6882996565056488
 30
0.0
  0
VERTEX
  5
2AB
  8
0
  6
CONTINUOUS
 10
-10.825024059142979
 20
-0.6298240419718582
 30
0.0
  0
VERTEX
  5
2AC
  8
0
  6
CONTINUOUS
 10
-10.85481766152645
 20
-0.5341989326392423
 30
0.0
  0
VERTEX
  5
2AD
  8
0
  6
CONTINUOUS
 10
-10.85481766152645
 20
-0.1782334224316173
 30
0.0
  0
VERTEX
  5
2AE
  8
0
  6
CONTINUOUS
 10
-10.825024059142979
 20
-0.0826083130989446
 30
0.0
  0
VERTEX
  5
2AF
  8
0
  6
CONTINUOUS
 10
-10.779951686306459
 20
-0.0241312064977706
 30
0.0
  0
VERTEX
  5
2B0
  8
0
  6
CONTINUOUS
 10
-10.740226883128519
 20
0.0
 30
0.0
  0
VERTEX
  5
2B1
  8
0
  6
CONTINUOUS
 10
-4.2605003339869754
 20
0.0
 30
0.0
  0
VERTEX
  5
2B2
  8
0
  6
CONTINUOUS
 10
-4.2207755308090142
 20
-0.0241312064977706
 30
0.0
  0
VERTEX
  5
2B3
  8
0
  6
CONTINUOUS
 10
-4.1749392194498389
 20
-0.0826083130989446
 30
0.0
  0
VERTEX
  5
2B4
  8
0
  6
CONTINUOUS
 10
-4.1459095555890277
 20
-0.1782334224315605
 30
0.0
  0
VERTEX
  5
2B5
  8
0
  6
CONTINUOUS
 10
-4.1459095555890277
 20
-0.5341989326392423
 30
0.0
  0
VERTEX
  5
2B6
  8
0
  6
CONTINUOUS
 10
-4.1749392194498389
 20
-0.6298240419718582
 30
0.0
  0
VERTEX
  5
2B7
  8
0
  6
CONTINUOUS
 10
-4.2207755308090142
 20
-0.6882996565056488
 30
0.0
  0
VERTEX
  5
2B8
  8
0
  6
CONTINUOUS
 10
-4.2605003339869754
 20
-0.7124323550708596
 30
0.0
  0
SEQEND
  5
2B9
  8
0
  6
CONTINUOUS
  0
POLYLINE
  5
27
  8
0
  6
CONTINUOUS
 66
     1
 10
0.0
 20
0.0
 30
0.0
  0
VERTEX
  5
2BA
  8
0
  6
CONTINUOUS
 10
-7.8446704026737351
 20
-2.0981152987354501
 30
0.0
  0
VERTEX
  5
2BB
  8
0
  6
CONTINUOUS
 10
-7.1449027159237133
 20
-2.0981152987354501
 30
0.0
  0
SEQEND
  5
2BC
  8
0
  6
CONTINUOUS
  0
POLYLINE
  5
28
  8
0
  6
CONTINUOUS
 66
     1
 10
0.0
 20
0.0
 30
0.0
 70
     1
  0
VERTEX
  5
2BD
  8
0
  6
CONTINUOUS
 10
-7.5003636085577412
 20
-0.7124323550708596
 30
0.0
  0
VERTEX
  5
2BE
  8
0
  6
CONTINUOUS
 10
-7.6096068172970979
 20
-0.6950094837251301
 30
0.0
  0
VERTEX
  5
2BF
  8
0
  6
CONTINUOUS
 10
-7.7081548867193197
 20
-0.6443433501045776
 30
0.0
  0
VERTEX
  5
2C0
  8
0
  6
CONTINUOUS
 10
-7.7868405545525468
 20
-0.5655398089446067
 30
0.0
  0
VERTEX
  5
2C1
  8
0
  6
CONTINUOUS
 10
-7.8364965585249911
 20
-0.4663098647081938
 30
0.0
  0
VERTEX
  5
2C2
  8
0
  6
CONTINUOUS
 10
-7.8540671445460211
 20
-0.3562654157605039
 30
0.0
  0
VERTEX
  5
2C3
  8
0
  6
CONTINUOUS
 10
-7.8364965585249911
 20
-0.2461224903626658
 30
0.0
  0
VERTEX
  5
2C4
  8
0
  6
CONTINUOUS
 10
-7.7868405545525468
 20
-0.1468925461262529
 30
0.0
  0
VERTEX
  5
2C5
  8
0
  6
CONTINUOUS
 10
-7.7081548867193197
 20
-0.0680890049662821
 30
0.0
  0
VERTEX
  5
2C6
  8
0
  6
CONTINUOUS
 10
-7.6096068172970979
 20
-0.0175228398633181
 30
0.0
  0
VERTEX
  5
2C7
  8
0
  6
CONTINUOUS
 10
-7.5003636085577412
 20
0.0
 30
0.0
  0
VERTEX
  5
2C8
  8
0
  6
CONTINUOUS
 10
-7.3911203998183623
 20
-0.0175228398633181
 30
0.0
  0
VERTEX
  5
2C9
  8
0
  6
CONTINUOUS
 10
-7.2918083918734951
 20
-0.0680890049662821
 30
0.0
  0
VERTEX
  5
2CA
  8
0
  6
CONTINUOUS
 10
-7.2138866625629063
 20
-0.1468925461262529
 30
0.0
  0
VERTEX
  5
2CB
  8
0
  6
CONTINUOUS
 10
-7.163466720067837
 20
-0.2461224903626658
 30
0.0
  0
VERTEX
  5
2CC
  8
0
  6
CONTINUOUS
 10
-7.1466600725694667
 20
-0.3562654157605039
 30
0.0
  0
VERTEX
  5
2CD
  8
0
  6
CONTINUOUS
 10
-7.163466720067837
 20
-0.4663098647081938
 30
0.0
  0
VERTEX
  5
2CE
  8
0
  6
CONTINUOUS
 10
-7.2138866625629063
 20
-0.5655398089446067
 30
0.0
  0
VERTEX
  5
2CF
  8
0
  6
CONTINUOUS
 10
-7.2918083918734951
 20
-0.6443433501045776
 30
0.0
  0
VERTEX
  5
2D0
  8
0
  6
CONTINUOUS
 10
-7.3911203998183623
 20
-0.6950094837251301
 30
0.0
  0
SEQEND
  5
2D1
  8
0
  6
CONTINUOUS
  0
POLYLINE
  5
29
  8
0
  6
CONTINUOUS
 66
     1
 10
0.0
 20
0.0
 30
0.0
 70
     1
  0
VERTEX
  5
2D2
  8
0
  6
CONTINUOUS
 10
-7.6042592476385229
 20
-0.5002543986737466
 30
0.0
  0
VERTEX
  5
2D3
  8
0
  6
CONTINUOUS
 10
-7.6432201122938181
 20
-0.4608026438349384
 30
0.0
  0
VERTEX
  5
2D4
  8
0
  6
CONTINUOUS
 10
-7.6684300835413586
 20
-0.4112376559755262
 30
0.0
  0
VERTEX
  5
2D5
  8
0
  6
CONTINUOUS
 10
-7.6768334072905509
 20
-0.3562654157605039
 30
0.0
  0
VERTEX
  5
2D6
  8
0
  6
CONTINUOUS
 10
-7.6684300835413586
 20
-0.3011946990952765
 30
0.0
  0
VERTEX
  5
2D7
  8
0
  6
CONTINUOUS
 10
-7.6432201122938181
 20
-0.2516297112359211
 30
0.0
  0
VERTEX
  5
2D8
  8
0
  6
CONTINUOUS
 10
-7.6042592476385229
 20
-0.2121779563971131
 30
0.0
  0
VERTEX
  5
2D9
  8
0
  6
CONTINUOUS
 10
-7.5546032436660999
 20
-0.1869441120707051
 30
0.0
  0
VERTEX
  5
2DA
  8
0
  6
CONTINUOUS
 10
-7.5003636085577412
 20
-0.1782334224315605
 30
0.0
  0
VERTEX
  5
2DB
  8
0
  6
CONTINUOUS
 10
-7.445360034926729
 20
-0.1869441120707051
 30
0.0
  0
VERTEX
  5
2DC
  8
0
  6
CONTINUOUS
 10
-7.3964679694769373
 20
-0.2121779563971131
 30
0.0
  0
VERTEX
  5
2DD
  8
0
  6
CONTINUOUS
 10
-7.3567431662989833
 20
-0.2516297112359211
 30
0.0
  0
VERTEX
  5
2DE
  8
0
  6
CONTINUOUS
 10
-7.3322971335740936
 20
-0.3011946990952765
 30
0.0
  0
VERTEX
  5
2DF
  8
0
  6
CONTINUOUS
 10
-7.323129871302263
 20
-0.3562654157605039
 30
0.0
  0
VERTEX
  5
2E0
  8
0
  6
CONTINUOUS
 10
-7.3322971335740936
 20
-0.4112376559755262
 30
0.0
  0
VERTEX
  5
2E1
  8
0
  6
CONTINUOUS
 10
-7.3567431662989833
 20
-0.4608026438349384
 30
0.0
  0
VERTEX
  5
2E2
  8
0
  6
CONTINUOUS
 10
-7.3964679694769373
 20
-0.5002543986737466
 30
0.0
  0
VERTEX
  5
2E3
  8
0
  6
CONTINUOUS
 10
-7.445360034926729
 20
-0.5254867509327142
 30
0.0
  0
VERTEX
  5
2E4
  8
0
  6
CONTINUOUS
 10
-7.5003636085577412
 20
-0.5341989326392423
 30
0.0
  0
VERTEX
  5
2E5
  8
0
  6
CONTINUOUS
 10
-7.5546032436660999
 20
-0.5254867509327142
 30
0.0
  0
SEQEND
  5
2E6
  8
0
  6
CONTINUOUS
  0
POLYLINE
  5
2A
  8
0
  6
CONTINUOUS
 66
     1
 10
0.0
 20
0.0
 30
0.0
  0
VERTEX
  5
2E7
  8
0
  6
CONTINUOUS
 10
-8.9615485227921923
 20
-5.1897580871699063
 30
0.0
  0
VERTEX
  5
2E8
  8
0
  6
CONTINUOUS
 10
-6.0280245958052134
 20
-5.1897580871699063
 30
0.0
  0
SEQEND
  5
2E9
  8
0
  6
CONTINUOUS
  0
POLYLINE
  5
2B
  8
0
  6
CONTINUOUS
 66
     1
 10
0.0
 20
0.0
 30
0.0
  0
VERTEX
  5
2EA
  8
0
  6
CONTINUOUS
 10
-8.9615485227921923
 20
-6.3783128883830207
 30
0.0
  0
VERTEX
  5
2EB
  8
0
  6
CONTINUOUS
 10
-6.0280245958052134
 20
-6.3783128883830207
 30
0.0
  0
SEQEND
  5
2EC
  8
0
  6
CONTINUOUS
  0
POLYLINE
  5
2C
  8
0
  6
CONTINUOUS
 66
     1
 10
0.0
 20
0.0
 30
0.0
  0
VERTEX
  5
2ED
  8
0
  6
CONTINUOUS
 10
-5.4657658431327221
 20
-6.872358794492782
 30
0.0
  0
VERTEX
  5
2EE
  8
0
  6
CONTINUOUS
 10
-9.5230433369420453
 20
-6.872358794492782
 30
0.0
  0
SEQEND
  5
2EF
  8
0
  6
CONTINUOUS
  0
POLYLINE
  5
2D
  8
0
  6
CONTINUOUS
 66
     1
 10
0.0
 20
0.0
 30
0.0
 70
     1
  0
VERTEX
  5
2F0
  8
0
  6
CONTINUOUS
 10
-9.5230433369420453
 20
-7.2034918265119643
 30
0.0
  0
VERTEX
  5
2F1
  8
0
  6
CONTINUOUS
 10
-9.5230433369420453
 20
-6.872358794492782
 30
0.0
  0
VERTEX
  5
2F2
  8
0
  6
CONTINUOUS
 10
-9.4244952675198235
 20
-6.8590413466725693
 30
0.0
  0
VERTEX
  5
2F3
  8
0
  6
CONTINUOUS
 10
-9.2396221450378402
 20
-6.8026680551435268
 30
0.0
  0
VERTEX
  5
2F4
  8
0
  6
CONTINUOUS
 10
-9.0929459486885023
 20
-6.695527915442625
 30
0.0
  0
VERTEX
  5
2F5
  8
0
  6
CONTINUOUS
 10
-8.9966896948342239
 20
-6.5499371981464662
 30
0.0
  0
VERTEX
  5
2F6
  8
0
  6
CONTINUOUS
 10
-8.9615485227921923
 20
-6.3783128883830207
 30
0.0
  0
VERTEX
  5
2F7
  8
0
  6
CONTINUOUS
 10
-8.9615485227921923
 20
-5.1897580871699063
 30
0.0
  0
VERTEX
  5
2F8
  8
0
  6
CONTINUOUS
 10
-8.9615485227921923
 20
-2.493832469334762
 30
0.0
  0
VERTEX
  5
2F9
  8
0
  6
CONTINUOUS
 10
-6.0280245958052134
 20
-2.493832469334762
 30
0.0
  0
VERTEX
  5
2FA
  8
0
  6
CONTINUOUS
 10
-6.0280245958052134
 20
-5.1897580871699063
 30
0.0
  0
VERTEX
  5
2FB
  8
0
  6
CONTINUOUS
 10
-6.0280245958052134
 20
-6.3783128883830207
 30
0.0
  0
VERTEX
  5
2FC
  8
0
  6
CONTINUOUS
 10
-5.9928834237631881
 20
-6.5499371981464662
 30
0.0
  0
VERTEX
  5
2FD
  8
0
  6
CONTINUOUS
 10
-5.8958632313862651
 20
-6.695527915442625
 30
0.0
  0
VERTEX
  5
2FE
  8
0
  6
CONTINUOUS
 10
-5.7491870350369254
 20
-6.8026680551435268
 30
0.0
  0
VERTEX
  5
2FF
  8
0
  6
CONTINUOUS
 10
-5.5650778510775893
 20
-6.8590413466725693
 30
0.0
  0
VERTEX
  5
300
  8
0
  6
CONTINUOUS
 10
-5.4657658431327221
 20
-6.872358794492782
 30
0.0
  0
VERTEX
  5
301
  8
0
  6
CONTINUOUS
 10
-5.4657658431327221
 20
-7.2034918265119643
 30
0.0
  0
SEQEND
  5
302
  8
0
  6
CONTINUOUS
  0
POLYLINE
  5
2E
  8
0
  6
CONTINUOUS
 66
     1
 10
0.0
 20
0.0
 30
0.0
  0
VERTEX
  5
303
  8
0
  6
CONTINUOUS
 10
-8.7273438516632424
 20
-2.493832469334762
 30
0.0
  0
VERTEX
  5
304
  8
0
  6
CONTINUOUS
 10
-8.7216718266792181
 20
-2.4890265201522359
 30
0.0
  0
VERTEX
  5
305
  8
0
  6
CONTINUOUS
 10
-8.0341271562916461
 20
-2.315299141350379
 30
0.0
  0
VERTEX
  5
306
  8
0
  6
CONTINUOUS
 10
-7.9019657918726898
 20
-2.2392991948858301
 30
0.0
  0
VERTEX
  5
307
  8
0
  6
CONTINUOUS
 10
-7.8446704026737351
 20
-2.0981152987354501
 30
0.0
  0
VERTEX
  5
308
  8
0
  6
CONTINUOUS
 10
-7.8502474519327592
 20
-0.7124323550708596
 30
0.0
  0
SEQEND
  5
309
  8
0
  6
CONTINUOUS
  0
POLYLINE
  5
2F
  8
0
  6
CONTINUOUS
 66
     1
 10
0.0
 20
0.0
 30
0.0
  0
VERTEX
  5
30A
  8
0
  6
CONTINUOUS
 10
-10.740226883128519
 20
-0.7124323550708596
 30
0.0
  0
VERTEX
  5
30B
  8
0
  6
CONTINUOUS
 10
-10.740226883128519
 20
-0.6950094837251301
 30
0.0
  0
VERTEX
  5
30C
  8
0
  6
CONTINUOUS
 10
-10.740226883128519
 20
-0.6443433501045776
 30
0.0
  0
VERTEX
  5
30D
  8
0
  6
CONTINUOUS
 10
-10.740226883128519
 20
-0.5655398089446067
 30
0.0
  0
VERTEX
  5
30E
  8
0
  6
CONTINUOUS
 10
-10.740226883128519
 20
-0.4663098647081938
 30
0.0
  0
VERTEX
  5
30F
  8
0
  6
CONTINUOUS
 10
-10.740226883128519
 20
-0.3562654157605039
 30
0.0
  0
VERTEX
  5
310
  8
0
  6
CONTINUOUS
 10
-10.740226883128519
 20
-0.2461224903626658
 30
0.0
  0
VERTEX
  5
311
  8
0
  6
CONTINUOUS
 10
-10.740226883128519
 20
-0.1468925461262529
 30
0.0
  0
VERTEX
  5
312
  8
0
  6
CONTINUOUS
 10
-10.740226883128519
 20
-0.0680890049662821
 30
0.0
  0
VERTEX
  5
313
  8
0
  6
CONTINUOUS
 10
-10.740226883128519
 20
-0.0175228398633181
 30
0.0
  0
VERTEX
  5
314
  8
0
  6
CONTINUOUS
 10
-10.740226883128519
 20
0.0
 30
0.0
  0
SEQEND
  5
315
  8
0
  6
CONTINUOUS
  0
POLYLINE
  5
30
  8
0
  6
CONTINUOUS
 66
     1
 10
0.0
 20
0.0
 30
0.0
  0
VERTEX
  5
316
  8
0
  6
CONTINUOUS
 10
-7.1504797651827303
 20
-0.7124323550708596
 30
0.0
  0
VERTEX
  5
317
  8
0
  6
CONTINUOUS
 10
-7.1449027159237133
 20
-2.0981152987354501
 30
0.0
  0
VERTEX
  5
318
  8
0
  6
CONTINUOUS
 10
-7.08684338820209
 20
-2.2392991948858301
 30
0.0
  0
VERTEX
  5
319
  8
0
  6
CONTINUOUS
 10
-6.9554459623058023
 20
-2.315299141350379
 30
0.0
  0
VERTEX
  5
31A
  8
0
  6
CONTINUOUS
 10
-6.2679012919182284
 20
-2.4890265201522359
 30
0.0
  0
VERTEX
  5
31B
  8
0
  6
CONTINUOUS
 10
-6.2622292669341908
 20
-2.493832469334762
 30
0.0
  0
SEQEND
  5
31C
  8
0
  6
CONTINUOUS
  0
POLYLINE
  5
31
  8
0
  6
CONTINUOUS
 66
     1
 10
0.0
 20
0.0
 30
0.0
  0
VERTEX
  5
31D
  8
0
  6
CONTINUOUS
 10
-4.2605003339869754
 20
-0.7124323550708596
 30
0.0
  0
VERTEX
  5
31E
  8
0
  6
CONTINUOUS
 10
-4.2605003339869754
 20
-0.6950094837251301
 30
0.0
  0
VERTEX
  5
31F
  8
0
  6
CONTINUOUS
 10
-4.2605003339869754
 20
-0.6443433501045776
 30
0.0
  0
VERTEX
  5
320
  8
0
  6
CONTINUOUS
 10
-4.2605003339869754
 20
-0.5655398089446067
 30
0.0
  0
VERTEX
  5
321
  8
0
  6
CONTINUOUS
 10
-4.2605003339869754
 20
-0.4663098647081938
 30
0.0
  0
VERTEX
  5
322
  8
0
  6
CONTINUOUS
 10
-4.2605003339869754
 20
-0.3562654157605039
 30
0.0
  0
VERTEX
  5
323
  8
0
  6
CONTINUOUS
 10
-4.2605003339869754
 20
-0.2461224903626658
 30
0.0
  0
VERTEX
  5
324
  8
0
  6
CONTINUOUS
 10
-4.2605003339869754
 20
-0.1468925461262529
 30
0.0
  0
VERTEX
  5
325
  8
0
  6
CONTINUOUS
 10
-4.2605003339869754
 20
-0.0680890049662821
 30
0.0
  0
VERTEX
  5
326
  8
0
  6
CONTINUOUS
 10
-4.2605003339869754
 20
-0.0175228398633181
 30
0.0
  0
VERTEX
  5
327
  8
0
  6
CONTINUOUS
 10
-4.2605003339869754
 20
0.0
 30
0.0
  0
SEQEND
  5
328
  8
0
  6
CONTINUOUS
  0
POLYLINE
  5
32
  8
0
  6
CONTINUOUS
 66
     1
 10
0.0
 20
0.0
 30
0.0
  0
VERTEX
  5
329
  8
0
  6
CONTINUOUS
 10
7.8502474519327663
 20
-0.7124323550708596
 30
0.0
  0
VERTEX
  5
32A
  8
0
  6
CONTINUOUS
 10
7.8558245011917833
 20
-2.0981152987354501
 30
0.0
  0
VERTEX
  5
32B
  8
0
  6
CONTINUOUS
 10
7.9138838289134048
 20
-2.2392991948858301
 30
0.0
  0
VERTEX
  5
32C
  8
0
  6
CONTINUOUS
 10
8.0452812548097015
 20
-2.315299141350379
 30
0.0
  0
VERTEX
  5
32D
  8
0
  6
CONTINUOUS
 10
8.7328259251972682
 20
-2.4890265201522359
 30
0.0
  0
VERTEX
  5
32E
  8
0
  6
CONTINUOUS
 10
8.7384979501813032
 20
-2.493832469334762
 30
0.0
  0
SEQEND
  5
32F
  8
0
  6
CONTINUOUS
  0
POLYLINE
  5
33
  8
0
  6
CONTINUOUS
 66
     1
 10
0.0
 20
0.0
 30
0.0
  0
VERTEX
  5
330
  8
0
  6
CONTINUOUS
 10
6.2733833654522542
 20
-2.493832469334762
 30
0.0
  0
VERTEX
  5
331
  8
0
  6
CONTINUOUS
 10
6.2790553904362758
 20
-2.4890265201522359
 30
0.0
  0
VERTEX
  5
332
  8
0
  6
CONTINUOUS
 10
6.9666000608238567
 20
-2.315299141350379
 30
0.0
  0
VERTEX
  5
333
  8
0
  6
CONTINUOUS
 10
7.0987614252428051
 20
-2.2392991948858301
 30
0.0
  0
VERTEX
  5
334
  8
0
  6
CONTINUOUS
 10
7.1560568144417607
 20
-2.0981152987354501
 30
0.0
  0
VERTEX
  5
335
  8
0
  6
CONTINUOUS
 10
7.1504797651827436
 20
-0.7124323550708596
 30
0.0
  0
SEQEND
  5
336
  8
0
  6
CONTINUOUS
  0
POLYLINE
  5
34
  8
0
  6
CONTINUOUS
 66
     1
 10
0.0
 20
0.0
 30
0.0
  0
VERTEX
  5
337
  8
0
  6
CONTINUOUS
 10
7.1560568144417607
 20
-2.0981152987354501
 30
0.0
  0
VERTEX
  5
338
  8
0
  6
CONTINUOUS
 10
7.8558245011917833
 20
-2.0981152987354501
 30
0.0
  0
SEQEND
  5
339
  8
0
  6
CONTINUOUS
  0
POLYLINE
  5
35
  8
0
  6
CONTINUOUS
 66
     1
 10
0.0
 20
0.0
 30
0.0
  0
VERTEX
  5
33A
  8
0
  6
CONTINUOUS
 10
6.0391786943233043
 20
-6.3783128883830207
 30
0.0
  0
VERTEX
  5
33B
  8
0
  6
CONTINUOUS
 10
8.9727026213102832
 20
-6.3783128883830207
 30
0.0
  0
SEQEND
  5
33C
  8
0
  6
CONTINUOUS
  0
POLYLINE
  5
36
  8
0
  6
CONTINUOUS
 66
     1
 10
0.0
 20
0.0
 30
0.0
  0
VERTEX
  5
33D
  8
0
  6
CONTINUOUS
 10
9.5349613739827745
 20
-6.872358794492782
 30
0.0
  0
VERTEX
  5
33E
  8
0
  6
CONTINUOUS
 10
5.4776838801734513
 20
-6.872358794492782
 30
0.0
  0
SEQEND
  5
33F
  8
0
  6
CONTINUOUS
  0
POLYLINE
  5
37
  8
0
  6
CONTINUOUS
 66
     1
 10
0.0
 20
0.0
 30
0.0
  0
VERTEX
  5
340
  8
0
  6
CONTINUOUS
 10
6.0391786943233043
 20
-5.1897580871699063
 30
0.0
  0
VERTEX
  5
341
  8
0
  6
CONTINUOUS
 10
8.9727026213102832
 20
-5.1897580871699063
 30
0.0
  0
SEQEND
  5
342
  8
0
  6
CONTINUOUS
  0
POLYLINE
  5
38
  8
0
  6
CONTINUOUS
 66
     1
 10
0.0
 20
0.0
 30
0.0
 70
     1
  0
VERTEX
  5
343
  8
0
  6
CONTINUOUS
 10
5.4776838801734513
 20
-7.2034918265119643
 30
0.0
  0
VERTEX
  5
344
  8
0
  6
CONTINUOUS
 10
5.4776838801734513
 20
-6.872358794492782
 30
0.0
  0
VERTEX
  5
345
  8
0
  6
CONTINUOUS
 10
5.5762319495956731
 20
-6.8590413466725693
 30
0.0
  0
VERTEX
  5
346
  8
0
  6
CONTINUOUS
 10
5.7611050720776609
 20
-6.8026680551435268
 30
0.0
  0
VERTEX
  5
347
  8
0
  6
CONTINUOUS
 10
5.9077812684269944
 20
-6.695527915442625
 30
0.0
  0
VERTEX
  5
348
  8
0
  6
CONTINUOUS
 10
6.0040375222812719
 20
-6.5499371981464662
 30
0.0
  0
VERTEX
  5
349
  8
0
  6
CONTINUOUS
 10
6.0391786943233043
 20
-6.3783128883830207
 30
0.0
  0
VERTEX
  5
34A
  8
0
  6
CONTINUOUS
 10
6.0391786943233043
 20
-5.1897580871699063
 30
0.0
  0
VERTEX
  5
34B
  8
0
  6
CONTINUOUS
 10
6.0391786943233043
 20
-2.493832469334762
 30
0.0
  0
VERTEX
  5
34C
  8
0
  6
CONTINUOUS
 10
8.9727026213102832
 20
-2.493832469334762
 30
0.0
  0
VERTEX
  5
34D
  8
0
  6
CONTINUOUS
 10
8.9727026213102832
 20
-5.1897580871699063
 30
0.0
  0
VERTEX
  5
34E
  8
0
  6
CONTINUOUS
 10
8.9727026213102832
 20
-6.3783128883830207
 30
0.0
  0
VERTEX
  5
34F
  8
0
  6
CONTINUOUS
 10
9.0078437933523148
 20
-6.5499371981464662
 30
0.0
  0
VERTEX
  5
350
  8
0
  6
CONTINUOUS
 10
9.1048639857292315
 20
-6.695527915442625
 30
0.0
  0
VERTEX
  5
351
  8
0
  6
CONTINUOUS
 10
9.2515401820785783
 20
-6.8026680551435268
 30
0.0
  0
VERTEX
  5
352
  8
0
  6
CONTINUOUS
 10
9.4356493660379144
 20
-6.8590413466725693
 30
0.0
  0
VERTEX
  5
353
  8
0
  6
CONTINUOUS
 10
9.5349613739827745
 20
-6.872358794492782
 30
0.0
  0
VERTEX
  5
354
  8
0
  6
CONTINUOUS
 10
9.5349613739827745
 20
-7.2034918265119643
 30
0.0
  0
SEQEND
  5
355
  8
0
  6
CONTINUOUS
  0
POLYLINE
  5
39
  8
0
  6
CONTINUOUS
 66
     1
 10
0.0
 20
0.0
 30
0.0
  0
VERTEX
  5
356
  8
0
  6
CONTINUOUS
 10
4.2605003339869754
 20
-0.7124323550708596
 30
0.0
  0
VERTEX
  5
357
  8
0
  6
CONTINUOUS
 10
4.2605003339869754
 20
-0.6950094837251301
 30
0.0
  0
VERTEX
  5
358
  8
0
  6
CONTINUOUS
 10
4.2605003339869754
 20
-0.6443433501045776
 30
0.0
  0
VERTEX
  5
359
  8
0
  6
CONTINUOUS
 10
4.2605003339869754
 20
-0.5655398089446067
 30
0.0
  0
VERTEX
  5
35A
  8
0
  6
CONTINUOUS
 10
4.2605003339869754
 20
-0.4663098647081938
 30
0.0
  0
VERTEX
  5
35B
  8
0
  6
CONTINUOUS
 10
4.2605003339869754
 20
-0.3562654157605039
 30
0.0
  0
VERTEX
  5
35C
  8
0
  6
CONTINUOUS
 10
4.2605003339869754
 20
-0.2461224903626658
 30
0.0
  0
VERTEX
  5
35D
  8
0
  6
CONTINUOUS
 10
4.2605003339869754
 20
-0.1468925461262529
 30
0.0
  0
VERTEX
  5
35E
  8
0
  6
CONTINUOUS
 10
4.2605003339869754
 20
-0.0680890049662821
 30
0.0
  0
VERTEX
  5
35F
  8
0
  6
CONTINUOUS
 10
4.2605003339869754
 20
-0.0175228398633181
 30
0.0
  0
VERTEX
  5
360
  8
0
  6
CONTINUOUS
 10
4.2605003339869754
 20
0.0
 30
0.0
  0
SEQEND
  5
361
  8
0
  6
CONTINUOUS
  0
POLYLINE
  5
3A
  8
0
  6
CONTINUOUS
 66
     1
 10
0.0
 20
0.0
 30
0.0
 70
     1
  0
VERTEX
  5
362
  8
0
  6
CONTINUOUS
 10
7.5003636085577554
 20
-0.7124323550708596
 30
0.0
  0
VERTEX
  5
363
  8
0
  6
CONTINUOUS
 10
7.391120399818397
 20
-0.6950094837251301
 30
0.0
  0
VERTEX
  5
364
  8
0
  6
CONTINUOUS
 10
7.292572330396176
 20
-0.6443433501045776
 30
0.0
  0
VERTEX
  5
365
  8
0
  6
CONTINUOUS
 10
7.2138866625629481
 20
-0.5655398089446067
 30
0.0
  0
VERTEX
  5
366
  8
0
  6
CONTINUOUS
 10
7.1642306585905038
 20
-0.4663098647081938
 30
0.0
  0
VERTEX
  5
367
  8
0
  6
CONTINUOUS
 10
7.1466600725694809
 20
-0.3562654157605039
 30
0.0
  0
VERTEX
  5
368
  8
0
  6
CONTINUOUS
 10
7.1642306585905038
 20
-0.2461224903626658
 30
0.0
  0
VERTEX
  5
369
  8
0
  6
CONTINUOUS
 10
7.2138866625629481
 20
-0.1468925461262529
 30
0.0
  0
VERTEX
  5
36A
  8
0
  6
CONTINUOUS
 10
7.292572330396176
 20
-0.0680890049662821
 30
0.0
  0
VERTEX
  5
36B
  8
0
  6
CONTINUOUS
 10
7.391120399818397
 20
-0.0175228398633181
 30
0.0
  0
VERTEX
  5
36C
  8
0
  6
CONTINUOUS
 10
7.5003636085577554
 20
0.0
 30
0.0
  0
VERTEX
  5
36D
  8
0
  6
CONTINUOUS
 10
7.6096068172971414
 20
-0.0175228398633181
 30
0.0
  0
VERTEX
  5
36E
  8
0
  6
CONTINUOUS
 10
7.7089188252420007
 20
-0.0680890049662821
 30
0.0
  0
VERTEX
  5
36F
  8
0
  6
CONTINUOUS
 10
7.7868405545525903
 20
-0.1468925461262529
 30
0.0
  0
VERTEX
  5
370
  8
0
  6
CONTINUOUS
 10
7.8372604970476578
 20
-0.2461224903626658
 30
0.0
  0
VERTEX
  5
371
  8
0
  6
CONTINUOUS
 10
7.8540671445460291
 20
-0.3562654157605039
 30
0.0
  0
VERTEX
  5
372
  8
0
  6
CONTINUOUS
 10
7.8372604970476578
 20
-0.4663098647081938
 30
0.0
  0
VERTEX
  5
373
  8
0
  6
CONTINUOUS
 10
7.7868405545525903
 20
-0.5655398089446067
 30
0.0
  0
VERTEX
  5
374
  8
0
  6
CONTINUOUS
 10
7.7089188252420007
 20
-0.6443433501045776
 30
0.0
  0
VERTEX
  5
375
  8
0
  6
CONTINUOUS
 10
7.6096068172971414
 20
-0.6950094837251301
 30
0.0
  0
SEQEND
  5
376
  8
0
  6
CONTINUOUS
  0
POLYLINE
  5
3B
  8
0
  6
CONTINUOUS
 66
     1
 10
0.0
 20
0.0
 30
0.0
 70
     1
  0
VERTEX
  5
377
  8
0
  6
CONTINUOUS
 10
7.396467969476979
 20
-0.5002543986737466
 30
0.0
  0
VERTEX
  5
378
  8
0
  6
CONTINUOUS
 10
7.3575071048216847
 20
-0.4608026438349384
 30
0.0
  0
VERTEX
  5
379
  8
0
  6
CONTINUOUS
 10
7.3322971335741371
 20
-0.4112376559755262
 30
0.0
  0
VERTEX
  5
37A
  8
0
  6
CONTINUOUS
 10
7.323893809824944
 20
-0.3562654157605039
 30
0.0
  0
VERTEX
  5
37B
  8
0
  6
CONTINUOUS
 10
7.3322971335741371
 20
-0.3011946990952765
 30
0.0
  0
VERTEX
  5
37C
  8
0
  6
CONTINUOUS
 10
7.3575071048216847
 20
-0.2516297112359211
 30
0.0
  0
VERTEX
  5
37D
  8
0
  6
CONTINUOUS
 10
7.396467969476979
 20
-0.2121779563971131
 30
0.0
  0
VERTEX
  5
37E
  8
0
  6
CONTINUOUS
 10
7.4461239734493949
 20
-0.1869441120707051
 30
0.0
  0
VERTEX
  5
37F
  8
0
  6
CONTINUOUS
 10
7.5003636085577554
 20
-0.1782334224315605
 30
0.0
  0
VERTEX
  5
380
  8
0
  6
CONTINUOUS
 10
7.5553671821887667
 20
-0.1869441120707051
 30
0.0
  0
VERTEX
  5
381
  8
0
  6
CONTINUOUS
 10
7.6042592476385593
 20
-0.2121779563971131
 30
0.0
  0
VERTEX
  5
382
  8
0
  6
CONTINUOUS
 10
7.6439840508165204
 20
-0.2516297112359211
 30
0.0
  0
VERTEX
  5
383
  8
0
  6
CONTINUOUS
 10
7.6684300835414021
 20
-0.3011946990952765
 30
0.0
  0
VERTEX
  5
384
  8
0
  6
CONTINUOUS
 10
7.6775973458132318
 20
-0.3562654157605039
 30
0.0
  0
VERTEX
  5
385
  8
0
  6
CONTINUOUS
 10
7.6684300835414021
 20
-0.4112376559755262
 30
0.0
  0
VERTEX
  5
386
  8
0
  6
CONTINUOUS
 10
7.6439840508165204
 20
-0.4608026438349384
 30
0.0
  0
VERTEX
  5
387
  8
0
  6
CONTINUOUS
 10
7.6042592476385593
 20
-0.5002543986737466
 30
0.0
  0
VERTEX
  5
388
  8
0
  6
CONTINUOUS
 10
7.5553671821887667
 20
-0.5254867509327142
 30
0.0
  0
VERTEX
  5
389
  8
0
  6
CONTINUOUS
 10
7.5003636085577554
 20
-0.5341989326392423
 30
0.0
  0
VERTEX
  5
38A
  8
0
  6
CONTINUOUS
 10
7.4461239734493949
 20
-0.5254867509327142
 30
0.0
  0
SEQEND
  5
38B
  8
0
  6
CONTINUOUS
  0
POLYLINE
  5
3C
  8
0
  6
CONTINUOUS
 66
     1
 10
0.0
 20
0.0
 30
0.0
  0
VERTEX
  5
38C
  8
0
  6
CONTINUOUS
 10
10.74022688312853
 20
-0.7124323550708596
 30
0.0
  0
VERTEX
  5
38D
  8
0
  6
CONTINUOUS
 10
10.74022688312853
 20
-0.6950094837251301
 30
0.0
  0
VERTEX
  5
38E
  8
0
  6
CONTINUOUS
 10
10.74022688312853
 20
-0.6443433501045776
 30
0.0
  0
VERTEX
  5
38F
  8
0
  6
CONTINUOUS
 10
10.74022688312853
 20
-0.5655398089446067
 30
0.0
  0
VERTEX
  5
390
  8
0
  6
CONTINUOUS
 10
10.74022688312853
 20
-0.4663098647081938
 30
0.0
  0
VERTEX
  5
391
  8
0
  6
CONTINUOUS
 10
10.74022688312853
 20
-0.3562654157605039
 30
0.0
  0
VERTEX
  5
392
  8
0
  6
CONTINUOUS
 10
10.74022688312853
 20
-0.2461224903626658
 30
0.0
  0
VERTEX
  5
393
  8
0
  6
CONTINUOUS
 10
10.74022688312853
 20
-0.1468925461262529
 30
0.0
  0
VERTEX
  5
394
  8
0
  6
CONTINUOUS
 10
10.74022688312853
 20
-0.0680890049662821
 30
0.0
  0
VERTEX
  5
395
  8
0
  6
CONTINUOUS
 10
10.74022688312853
 20
-0.0175228398633181
 30
0.0
  0
VERTEX
  5
396
  8
0
  6
CONTINUOUS
 10
10.74022688312853
 20
0.0
 30
0.0
  0
SEQEND
  5
397
  8
0
  6
CONTINUOUS
  0
DIMENSION
  5
8B
  8
COTATION-JACOBDELAFON
  2
*D1
 10
7.506322627078112
 20
-11.845750171127341
 30
0.0
 11
0.0059590185203648
 21
-9.4140312079622746
 31
0.0
 70
     0
 13
-7.4944045900373828
 23
-6.6386347065513291
 33
0.0
 14
7.506322627078112
 24
-6.6386347065513291
 34
0.0
  0
DIMENSION
  5
C6
  8
COTATION-JACOBDELAFON
  2
*D2
 10
-13.33293023085494
 20
0.0000000000000009
 30
0.0
 11
-17.98906938501592
 21
-3.601745913255983
 31
0.0
 70
     0
 13
-8.7924448973606442
 23
-7.2034918265119643
 33
0.0
 14
-10.00962844354712
 24
0.0
 34
0.0
 50
90.0
  0
INSERT
  5
131
 67
     1
  8
0
  6
CONTINUOUS
  2
ADCADD_ZZ
 10
0.0
 20
0.0
 30
0.0
1001
ADCADD_ZZ
1070
   205
1070
    14
1070
   209
1070
     1
1070
   231
1070
     0
1070
   235
1070
     0
1070
   236
1070
     4
1070
   237
1070
     2
1070
   238
1070
     4
1070
   239
1070
     2
1070
   240
1070
     0
1070
   241
1070
  4096
1070
   242
1070
     2
1070
   244
1070
     0
1070
   245
1070
     1
1070
   303
1040
0.1
1070
   304
1040
4.0
1070
   305
1040
1.0
1070
   306
1040
1.0
1070
   337
1040
0.0
1070
   338
1040
0.3048
1070
   339
1040
0.0625
1070
   340
1040
96.0
1070
   341
1040
4.0
1070
   342
1040
1.0
1070
   530
1010
0.0
1020
0.0
1030
0.0
1070
   531
1010
0.0
1020
0.0
1030
0.0
1070
   107
1000

1070
   108
1000
Architectural Desktop
1070
   135
1000
L120
1070
   136
1000
'
1070
   137
1000
m
1001
SDSK_PMN
1070
   100
1000
ACADARCH
1070
   300
1040
2453077.6376951379
  0
ENDSEC
  0
EOF
