  0
SECTION
  2
HEADER
  9
$ACADVER
  1
AC1009
  9
$INSBASE
 10
-0.0000000000000018
 20
0.0
 30
0.0
  9
$EXTMIN
 10
-13.16281752797385
 20
-0.8999999999999989
 30
0.0
  9
$EXTMAX
 10
4.2434950344483493
 20
16.58330114084993
 30
0.0
  9
$LIMMIN
 10
0.0
 20
0.0
  9
$LIMMAX
 10
12.0
 20
9.0
  9
$ORTHOMODE
 70
     1
  9
$REGENMODE
 70
     1
  9
$FILLMODE
 70
     1
  9
$QTEXTMODE
 70
     0
  9
$MIRRTEXT
 70
     1
  9
$DRAGMODE
 70
     2
  9
$LTSCALE
 40
1.0
  9
$OSMODE
 70
     1
  9
$ATTMODE
 70
     1
  9
$TEXTSIZE
 40
0.2
  9
$TRACEWID
 40
0.05
  9
$TEXTSTYLE
  7
STANDARD
  9
$CLAYER
  8
0
  9
$CELTYPE
  6
CONTINUOUS
  9
$CECOLOR
 62
   256
  9
$DIMSCALE
 40
1.0
  9
$DIMASZ
 40
0.18
  9
$DIMEXO
 40
0.0625
  9
$DIMDLI
 40
0.38
  9
$DIMRND
 40
0.0
  9
$DIMDLE
 40
0.0
  9
$DIMEXE
 40
0.18
  9
$DIMTP
 40
0.0
  9
$DIMTM
 40
0.0
  9
$DIMTXT
 40
0.18
  9
$DIMCEN
 40
0.09
  9
$DIMTSZ
 40
0.0
  9
$DIMTOL
 70
     0
  9
$DIMLIM
 70
     0
  9
$DIMTIH
 70
     1
  9
$DIMTOH
 70
     1
  9
$DIMSE1
 70
     0
  9
$DIMSE2
 70
     0
  9
$DIMTAD
 70
     0
  9
$DIMZIN
 70
     0
  9
$DIMBLK
  1

  9
$DIMASO
 70
     1
  9
$DIMSHO
 70
     1
  9
$DIMPOST
  1

  9
$DIMAPOST
  1

  9
$DIMALT
 70
     0
  9
$DIMALTD
 70
     2
  9
$DIMALTF
 40
25.399999999999999
  9
$DIMLFAC
 40
1.0
  9
$DIMTOFL
 70
     0
  9
$DIMTVP
 40
0.0
  9
$DIMTIX
 70
     0
  9
$DIMSOXD
 70
     0
  9
$DIMSAH
 70
     0
  9
$DIMBLK1
  1

  9
$DIMBLK2
  1

  9
$DIMSTYLE
  2
STANDARD
  9
$DIMCLRD
 70
     0
  9
$DIMCLRE
 70
     0
  9
$DIMCLRT
 70
     0
  9
$DIMTFAC
 40
1.0
  9
$DIMGAP
 40
0.09
  9
$LUNITS
 70
     2
  9
$LUPREC
 70
     4
  9
$SKETCHINC
 40
0.1
  9
$FILLETRAD
 40
0.0
  9
$AUNITS
 70
     0
  9
$AUPREC
 70
     2
  9
$MENU
  1
.
  9
$ELEVATION
 40
0.0
  9
$PELEVATION
 40
0.0
  9
$THICKNESS
 40
0.0
  9
$LIMCHECK
 70
     0
  9
$BLIPMODE
 70
     0
  9
$CHAMFERA
 40
0.0
  9
$CHAMFERB
 40
0.0
  9
$SKPOLY
 70
     0
  9
$TDCREATE
 40
2453067.5968662729
  9
$TDUPDATE
 40
2453077.6378783681
  9
$TDINDWG
 40
0.0155836458
  9
$TDUSRTIMER
 40
0.0155836458
  9
$USRTIMER
 70
     1
  9
$ANGBASE
 50
0.0
  9
$ANGDIR
 70
     0
  9
$PDMODE
 70
     0
  9
$PDSIZE
 40
0.0
  9
$PLINEWID
 40
0.0
  9
$COORDS
 70
     1
  9
$SPLFRAME
 70
     0
  9
$SPLINETYPE
 70
     6
  9
$SPLINESEGS
 70
     8
  9
$ATTDIA
 70
     1
  9
$ATTREQ
 70
     1
  9
$HANDLING
 70
 22529
  9
$HANDSEED
  5
2DA
  9
$SURFTAB1
 70
     6
  9
$SURFTAB2
 70
     6
  9
$SURFTYPE
 70
     6
  9
$SURFU
 70
     6
  9
$SURFV
 70
     6
  9
$UCSNAME
  2

  9
$UCSORG
 10
0.0
 20
0.0
 30
0.0
  9
$UCSXDIR
 10
1.0
 20
0.0
 30
0.0
  9
$UCSYDIR
 10
0.0
 20
1.0
 30
0.0
  9
$PUCSNAME
  2

  9
$PUCSORG
 10
0.0
 20
0.0
 30
0.0
  9
$PUCSXDIR
 10
1.0
 20
0.0
 30
0.0
  9
$PUCSYDIR
 10
0.0
 20
1.0
 30
0.0
  9
$USERI1
 70
     0
  9
$USERI2
 70
     0
  9
$USERI3
 70
     0
  9
$USERI4
 70
     0
  9
$USERI5
 70
     0
  9
$USERR1
 40
0.0
  9
$USERR2
 40
0.0
  9
$USERR3
 40
0.0
  9
$USERR4
 40
0.0
  9
$USERR5
 40
0.0
  9
$WORLDVIEW
 70
     1
  9
$SHADEDGE
 70
     3
  9
$SHADEDIF
 70
    70
  9
$TILEMODE
 70
     1
  9
$MAXACTVP
 70
    64
  9
$PLIMCHECK
 70
     0
  9
$PEXTMIN
 10
-3.3056395283165401
 20
-2.1824138773907338
 30
0.0
  9
$PEXTMAX
 10
293.69436047168341
 20
397.32777628613678
 30
0.0
  9
$PLIMMIN
 10
-0.1979161059762549
 20
-0.2679166643638311
  9
$PLIMMAX
 10
11.493750144177531
 20
7.9987497780266699
  9
$UNITMODE
 70
     0
  9
$VISRETAIN
 70
     1
  9
$PLINEGEN
 70
     0
  9
$PSLTSCALE
 70
     1
  0
ENDSEC
  0
SECTION
  2
TABLES
  0
TABLE
  2
VPORT
 70
     2
  0
VPORT
  2
*ACTIVE
 70
     0
 10
0.0
 20
0.0
 11
1.0
 21
1.0
 12
-3.1779814329723202
 22
7.8419938789378998
 13
0.0
 23
0.0
 14
1.0
 24
1.0
 15
0.0
 25
0.0
 16
0.0
 26
0.0
 36
1.0
 17
0.0
 27
0.0
 37
0.0
 40
17.694591350455109
 41
1.928853754940711
 42
50.0
 43
0.0
 44
0.0
 50
0.0
 51
0.0
 71
     0
 72
   100
 73
     1
 74
     1
 75
     0
 76
     0
 77
     0
 78
     0
  0
ENDTAB
  0
TABLE
  2
LTYPE
 70
     1
  0
LTYPE
  2
CONTINUOUS
 70
     0
  3
Solid line
 72
    65
 73
     0
 40
0.0
  0
ENDTAB
  0
TABLE
  2
LAYER
 70
     3
  0
LAYER
  2
0
 70
     0
 62
     7
  6
CONTINUOUS
  0
LAYER
  2
DEFPOINTS
 70
     0
 62
     7
  6
CONTINUOUS
  0
LAYER
  2
COTATION-JACOBDELAFON
 70
     0
 62
     8
  6
CONTINUOUS
  0
ENDTAB
  0
TABLE
  2
STYLE
 70
     2
  0
STYLE
  2
STANDARD
 70
     0
 40
0.0
 41
1.0
 50
0.0
 71
     0
 42
0.2
  3
txt
  4

  0
STYLE
  2
JACOB-DELAFON
 70
     0
 40
0.0
 41
1.0
 50
0.0
 71
     0
 42
2.5
  3
txt
  4

  0
ENDTAB
  0
TABLE
  2
VIEW
 70
     0
  0
ENDTAB
  0
TABLE
  2
UCS
 70
     0
  0
ENDTAB
  0
TABLE
  2
APPID
 70
     9
  0
APPID
  2
ACAD
 70
     0
  0
APPID
  2
ADCADD_ZZ
 70
     0
  0
APPID
  2
SDSK_PMN
 70
     0
  0
APPID
  2
ACAECLAYERSTANDARD
 70
     0
  0
APPID
  2
AECBASE
 70
     0
  0
APPID
  2
AEC_DWGVARSSETUP_DATA
 70
     0
  0
APPID
  2
AEC_DISPREPCONFIG_DATA
 70
     0
  0
APPID
  2
AEC_DISPREPSET_DATA
 70
     0
  0
APPID
  2
DCO15
 70
     0
  0
ENDTAB
  0
TABLE
  2
DIMSTYLE
 70
     2
  0
DIMSTYLE
  2
STANDARD
 70
     0
  3

  4

  5

  6

  7

 40
1.0
 41
0.18
 42
0.0625
 43
0.38
 44
0.18
 45
0.0
 46
0.0
 47
0.0
 48
0.0
140
0.18
141
0.09
142
0.0
143
25.399999999999999
144
1.0
145
0.0
146
1.0
147
0.09
 71
     0
 72
     0
 73
     1
 74
     1
 75
     0
 76
     0
 77
     0
 78
     0
170
     0
171
     2
172
     0
173
     0
174
     0
175
     0
176
     0
177
     0
178
     0
  0
DIMSTYLE
  2
COTATION-JACOB-DELAFON
 70
     0
  3

  4

  5
OBLIQUE
  6

  7

 40
1.0
 41
1.8
 42
0.625
 43
3.7999999999999989
 44
1.8
 45
0.0
 46
0.0
 47
0.0
 48
0.0
140
3.0
141
0.9
142
0.0
143
25.399999999999999
144
1.0
145
0.0
146
1.0
147
0.9
 71
     0
 72
     0
 73
     0
 74
     0
 75
     0
 76
     0
 77
     1
 78
    12
170
     0
171
     2
172
     0
173
     0
174
     0
175
     0
176
     0
177
     0
178
     0
  0
ENDTAB
  0
ENDSEC
  0
SECTION
  2
BLOCKS
  0
BLOCK
  8
0
  2
$MODEL_SPACE
 70
     0
 10
0.0
 20
0.0
 30
0.0
  3
$MODEL_SPACE
  1

  0
ENDBLK
  5
9
  8
0
  0
BLOCK
 67
     1
  8
0
  2
$PAPER_SPACE
 70
     0
 10
0.0
 20
0.0
 30
0.0
  3
$PAPER_SPACE
  1

  0
ENDBLK
  5
E
 67
     1
  8
0
  0
BLOCK
  8
0
  2
*D0
 70
     1
 10
0.0
 20
0.0
 30
0.0
  3
*D0
  1

  0
LINE
  5
C5
  8
COTATION-JACOBDELAFON
 62
     0
 10
-2.2255067268234141
 20
0.0000000000000002
 30
0.0
 11
-8.0126811023258302
 21
0.0000000000000018
 31
0.0
  0
LINE
  5
C6
  8
COTATION-JACOBDELAFON
 62
     0
 10
-3.4426902730098869
 20
7.2034918265119643
 30
0.0
 11
-8.0126811023258302
 21
7.2034918265119652
 31
0.0
  0
LINE
  5
C7
  8
COTATION-JACOBDELAFON
 62
     0
 10
-6.212681102325833
 20
0.0000000000000013
 30
0.0
 11
-6.2126811023258313
 21
7.2034918265119652
 31
0.0
  0
TEXT
  5
C8
  8
0
  6
CONTINUOUS
 62
     0
 10
-9.3688202564868153
 20
0.6999723798316985
 30
0.0
 40
3.0
  1
7.2
 50
90.0
  7
JACOB-DELAFON
  0
INSERT
  5
C9
  8
COTATION-JACOBDELAFON
 62
     0
  2
_OBLIQUE
 10
-6.212681102325833
 20
0.0000000000000013
 30
0.0
 41
1.8
 42
1.8
 43
1.8
 50
270.0
  0
INSERT
  5
CA
  8
COTATION-JACOBDELAFON
 62
     0
  2
_OBLIQUE
 10
-6.2126811023258313
 20
7.2034918265119652
 30
0.0
 41
1.8
 42
1.8
 43
1.8
 50
90.0
  0
POINT
  5
CB
  8
DEFPOINTS
 62
     0
 10
-1.6005067268234141
 20
0.0
 30
0.0
  0
POINT
  5
CC
  8
DEFPOINTS
 62
     0
 10
-2.8176902730098869
 20
7.2034918265119643
 30
0.0
  0
POINT
  5
CD
  8
DEFPOINTS
 62
     0
 10
-6.2126811023258313
 20
7.2034918265119652
 30
0.0
  0
ENDBLK
  5
46
  8
0
  0
BLOCK
  8
0
  2
_OBLIQUE
 70
     0
 10
0.0
 20
0.0
 30
0.0
  3
_OBLIQUE
  1

  0
LINE
  5
54
  8
0
  6
BYBLOCK
 62
     0
 10
-0.5
 20
-0.5
 30
0.0
 11
0.5
 21
0.5
 31
0.0
  0
ENDBLK
  5
56
  8
0
  0
BLOCK
  8
0
  2
*D2
 70
     1
 10
0.0
 20
0.0
 30
0.0
  3
*D2
  1

  0
LINE
  5
CE
  8
COTATION-JACOBDELAFON
 62
     0
 10
-3.3604130714890701
 20
7.2583961696708741
 30
0.0
 11
-3.3604130714890692
 21
11.38200509719373
 31
0.0
  0
LINE
  5
CF
  8
COTATION-JACOBDELAFON
 62
     0
 10
3.3434950344483481
 20
7.2583961696709016
 30
0.0
 11
3.3434950344483489
 21
11.38200509719373
 31
0.0
  0
LINE
  5
D0
  8
COTATION-JACOBDELAFON
 62
     0
 10
-3.3604130714890701
 20
9.5820050971937292
 30
0.0
 11
3.3434950344483481
 21
9.5820050971937292
 31
0.0
  0
TEXT
  5
D1
  8
0
  6
CONTINUOUS
 62
     0
 10
-2.905116590143825
 20
12.78930386936289
 30
0.0
 40
3.0
  1
6.7
  7
JACOB-DELAFON
  0
INSERT
  5
D2
  8
COTATION-JACOBDELAFON
 62
     0
  2
_OBLIQUE
 10
-3.3604130714890701
 20
9.5820050971937292
 30
0.0
 41
1.8
 42
1.8
 43
1.8
 50
180.0
  0
INSERT
  5
D3
  8
COTATION-JACOBDELAFON
 62
     0
  2
_OBLIQUE
 10
3.3434950344483481
 20
9.5820050971937292
 30
0.0
 41
1.8
 42
1.8
 43
1.8
  0
POINT
  5
D4
  8
DEFPOINTS
 62
     0
 10
-3.3604130714890701
 20
6.6333961696708741
 30
0.0
  0
POINT
  5
D5
  8
DEFPOINTS
 62
     0
 10
3.3434950344483481
 20
6.6333961696709016
 30
0.0
  0
POINT
  5
D6
  8
DEFPOINTS
 62
     0
 10
3.3434950344483481
 20
9.5820050971937292
 30
0.0
  0
ENDBLK
  5
8D
  8
0
  0
BLOCK
  8
0
  2
ADCADD_ZZ
 70
     0
 10
0.0
 20
0.0
 30
0.0
  3
ADCADD_ZZ
  1

  0
ENDBLK
  5
F2
  8
0
  0
ENDSEC
  0
SECTION
  2
ENTITIES
  0
POLYLINE
  5
24
  8
0
  6
CONTINUOUS
 66
     1
 10
0.0
 20
0.0
 30
0.0
 70
     1
  0
VERTEX
  5
25A
  8
0
  6
CONTINUOUS
 10
-3.2458222930911371
 20
6.4910594714411038
 30
0.0
  0
VERTEX
  5
25B
  8
0
  6
CONTINUOUS
 10
-3.2855470962690769
 20
6.5151921700063147
 30
0.0
  0
VERTEX
  5
25C
  8
0
  6
CONTINUOUS
 10
-3.3306194691055988
 20
6.5736677845401061
 30
0.0
  0
VERTEX
  5
25D
  8
0
  6
CONTINUOUS
 10
-3.3604130714890701
 20
6.6692928938727221
 30
0.0
  0
VERTEX
  5
25E
  8
0
  6
CONTINUOUS
 10
-3.3604130714890701
 20
7.0252584040803461
 30
0.0
  0
VERTEX
  5
25F
  8
0
  6
CONTINUOUS
 10
-3.3306194691055988
 20
7.1208835134130188
 30
0.0
  0
VERTEX
  5
260
  8
0
  6
CONTINUOUS
 10
-3.2855470962690769
 20
7.1793606200141928
 30
0.0
  0
VERTEX
  5
261
  8
0
  6
CONTINUOUS
 10
-3.2458222930911371
 20
7.2034918265119643
 30
0.0
  0
VERTEX
  5
262
  8
0
  6
CONTINUOUS
 10
3.2289042560504089
 20
7.2034918265119643
 30
0.0
  0
VERTEX
  5
263
  8
0
  6
CONTINUOUS
 10
3.268629059228366
 20
7.1793606200141928
 30
0.0
  0
VERTEX
  5
264
  8
0
  6
CONTINUOUS
 10
3.3144653705875409
 20
7.1208835134130188
 30
0.0
  0
VERTEX
  5
265
  8
0
  6
CONTINUOUS
 10
3.3434950344483481
 20
7.0252584040804029
 30
0.0
  0
VERTEX
  5
266
  8
0
  6
CONTINUOUS
 10
3.3434950344483481
 20
6.6692928938727221
 30
0.0
  0
VERTEX
  5
267
  8
0
  6
CONTINUOUS
 10
3.3144653705875409
 20
6.5736677845401061
 30
0.0
  0
VERTEX
  5
268
  8
0
  6
CONTINUOUS
 10
3.268629059228366
 20
6.5151921700063147
 30
0.0
  0
VERTEX
  5
269
  8
0
  6
CONTINUOUS
 10
3.2289042560504089
 20
6.4910594714411038
 30
0.0
  0
SEQEND
  5
26A
  8
0
  6
CONTINUOUS
  0
POLYLINE
  5
25
  8
0
  6
CONTINUOUS
 66
     1
 10
0.0
 20
0.0
 30
0.0
  0
VERTEX
  5
26B
  8
0
  6
CONTINUOUS
 10
0.3439248248546498
 20
6.4910594714411038
 30
0.0
  0
VERTEX
  5
26C
  8
0
  6
CONTINUOUS
 10
0.3495018741136704
 20
5.1253765277765231
 30
0.0
  0
VERTEX
  5
26D
  8
0
  6
CONTINUOUS
 10
0.4075612018352857
 20
4.9841926316261427
 30
0.0
  0
VERTEX
  5
26E
  8
0
  6
CONTINUOUS
 10
0.5389586277315815
 20
4.9081926851615938
 30
0.0
  0
VERTEX
  5
26F
  8
0
  6
CONTINUOUS
 10
1.226503298119151
 20
4.7344653063597368
 30
0.0
  0
VERTEX
  5
270
  8
0
  6
CONTINUOUS
 10
1.232175323103188
 20
4.7296593571772121
 30
0.0
  0
SEQEND
  5
271
  8
0
  6
CONTINUOUS
  0
POLYLINE
  5
26
  8
0
  6
CONTINUOUS
 66
     1
 10
0.0
 20
0.0
 30
0.0
  0
VERTEX
  5
272
  8
0
  6
CONTINUOUS
 10
-1.2329392616258581
 20
4.7296593571772121
 30
0.0
  0
VERTEX
  5
273
  8
0
  6
CONTINUOUS
 10
-1.227267236641836
 20
4.7344653063597368
 30
0.0
  0
VERTEX
  5
274
  8
0
  6
CONTINUOUS
 10
-0.539722566254266
 20
4.9081926851615938
 30
0.0
  0
VERTEX
  5
275
  8
0
  6
CONTINUOUS
 10
-0.4075612018353106
 20
4.9841926316261427
 30
0.0
  0
VERTEX
  5
276
  8
0
  6
CONTINUOUS
 10
-0.3502658126363549
 20
5.1253765277765231
 30
0.0
  0
VERTEX
  5
277
  8
0
  6
CONTINUOUS
 10
-0.3558428618953755
 20
6.4910594714411038
 30
0.0
  0
SEQEND
  5
278
  8
0
  6
CONTINUOUS
  0
POLYLINE
  5
27
  8
0
  6
CONTINUOUS
 66
     1
 10
0.0
 20
0.0
 30
0.0
  0
VERTEX
  5
279
  8
0
  6
CONTINUOUS
 10
-0.3502658126363549
 20
5.1253765277765231
 30
0.0
  0
VERTEX
  5
27A
  8
0
  6
CONTINUOUS
 10
0.3495018741136704
 20
5.1253765277765231
 30
0.0
  0
SEQEND
  5
27B
  8
0
  6
CONTINUOUS
  0
POLYLINE
  5
28
  8
0
  6
CONTINUOUS
 66
     1
 10
0.0
 20
0.0
 30
0.0
  0
VERTEX
  5
27C
  8
0
  6
CONTINUOUS
 10
2.0286387469046612
 20
0.3311330320191814
 30
0.0
  0
VERTEX
  5
27D
  8
0
  6
CONTINUOUS
 10
-2.0286387469046652
 20
0.3311330320191814
 30
0.0
  0
SEQEND
  5
27E
  8
0
  6
CONTINUOUS
  0
POLYLINE
  5
29
  8
0
  6
CONTINUOUS
 66
     1
 10
0.0
 20
0.0
 30
0.0
  0
VERTEX
  5
27F
  8
0
  6
CONTINUOUS
 10
-1.467143932754815
 20
0.8251789381289427
 30
0.0
  0
VERTEX
  5
280
  8
0
  6
CONTINUOUS
 10
1.4663799942321629
 20
0.8251789381289427
 30
0.0
  0
SEQEND
  5
281
  8
0
  6
CONTINUOUS
  0
POLYLINE
  5
2A
  8
0
  6
CONTINUOUS
 66
     1
 10
0.0
 20
0.0
 30
0.0
  0
VERTEX
  5
282
  8
0
  6
CONTINUOUS
 10
-1.467143932754815
 20
2.013733739342058
 30
0.0
  0
VERTEX
  5
283
  8
0
  6
CONTINUOUS
 10
1.4663799942321629
 20
2.013733739342058
 30
0.0
  0
SEQEND
  5
284
  8
0
  6
CONTINUOUS
  0
POLYLINE
  5
2B
  8
0
  6
CONTINUOUS
 66
     1
 10
0.0
 20
0.0
 30
0.0
 70
     1
  0
VERTEX
  5
285
  8
0
  6
CONTINUOUS
 10
-2.0286387469046652
 20
0.0
 30
0.0
  0
VERTEX
  5
286
  8
0
  6
CONTINUOUS
 10
-2.0286387469046652
 20
0.3311330320191814
 30
0.0
  0
VERTEX
  5
287
  8
0
  6
CONTINUOUS
 10
-1.9300906774824429
 20
0.344450479839395
 30
0.0
  0
VERTEX
  5
288
  8
0
  6
CONTINUOUS
 10
-1.7452175550004609
 20
0.4008237713684366
 30
0.0
  0
VERTEX
  5
289
  8
0
  6
CONTINUOUS
 10
-1.5985413586511219
 20
0.5079639110693393
 30
0.0
  0
VERTEX
  5
28A
  8
0
  6
CONTINUOUS
 10
-1.5022851047968431
 20
0.6535546283654981
 30
0.0
  0
VERTEX
  5
28B
  8
0
  6
CONTINUOUS
 10
-1.467143932754815
 20
0.8251789381289427
 30
0.0
  0
VERTEX
  5
28C
  8
0
  6
CONTINUOUS
 10
-1.467143932754815
 20
2.013733739342058
 30
0.0
  0
VERTEX
  5
28D
  8
0
  6
CONTINUOUS
 10
-1.467143932754815
 20
4.7296593571772121
 30
0.0
  0
VERTEX
  5
28E
  8
0
  6
CONTINUOUS
 10
1.4663799942321629
 20
4.7296593571772121
 30
0.0
  0
VERTEX
  5
28F
  8
0
  6
CONTINUOUS
 10
1.4663799942321629
 20
2.013733739342058
 30
0.0
  0
VERTEX
  5
290
  8
0
  6
CONTINUOUS
 10
1.4663799942321629
 20
0.8251789381289427
 30
0.0
  0
VERTEX
  5
291
  8
0
  6
CONTINUOUS
 10
1.5015211662741941
 20
0.6535546283654981
 30
0.0
  0
VERTEX
  5
292
  8
0
  6
CONTINUOUS
 10
1.5985413586511179
 20
0.5079639110693393
 30
0.0
  0
VERTEX
  5
293
  8
0
  6
CONTINUOUS
 10
1.7452175550004581
 20
0.4008237713684366
 30
0.0
  0
VERTEX
  5
294
  8
0
  6
CONTINUOUS
 10
1.9293267389597939
 20
0.344450479839395
 30
0.0
  0
VERTEX
  5
295
  8
0
  6
CONTINUOUS
 10
2.0286387469046612
 20
0.3311330320191814
 30
0.0
  0
VERTEX
  5
296
  8
0
  6
CONTINUOUS
 10
2.0286387469046612
 20
0.0
 30
0.0
  0
SEQEND
  5
297
  8
0
  6
CONTINUOUS
  0
POLYLINE
  5
2C
  8
0
  6
CONTINUOUS
 66
     1
 10
0.0
 20
0.0
 30
0.0
  0
VERTEX
  5
298
  8
0
  6
CONTINUOUS
 10
-3.2458222930911371
 20
6.4910594714411038
 30
0.0
  0
VERTEX
  5
299
  8
0
  6
CONTINUOUS
 10
-3.2458222930911371
 20
6.5084823427868344
 30
0.0
  0
VERTEX
  5
29A
  8
0
  6
CONTINUOUS
 10
-3.2458222930911371
 20
6.559148476407386
 30
0.0
  0
VERTEX
  5
29B
  8
0
  6
CONTINUOUS
 10
-3.2458222930911371
 20
6.6379520175673568
 30
0.0
  0
VERTEX
  5
29C
  8
0
  6
CONTINUOUS
 10
-3.2458222930911371
 20
6.7371819618037696
 30
0.0
  0
VERTEX
  5
29D
  8
0
  6
CONTINUOUS
 10
-3.2458222930911371
 20
6.8472264107514604
 30
0.0
  0
VERTEX
  5
29E
  8
0
  6
CONTINUOUS
 10
-3.2458222930911371
 20
6.9573693361492976
 30
0.0
  0
VERTEX
  5
29F
  8
0
  6
CONTINUOUS
 10
-3.2458222930911371
 20
7.0565992803857114
 30
0.0
  0
VERTEX
  5
2A0
  8
0
  6
CONTINUOUS
 10
-3.2458222930911371
 20
7.1354028215456822
 30
0.0
  0
VERTEX
  5
2A1
  8
0
  6
CONTINUOUS
 10
-3.2458222930911371
 20
7.1859689866486463
 30
0.0
  0
VERTEX
  5
2A2
  8
0
  6
CONTINUOUS
 10
-3.2458222930911371
 20
7.2034918265119643
 30
0.0
  0
SEQEND
  5
2A3
  8
0
  6
CONTINUOUS
  0
POLYLINE
  5
2D
  8
0
  6
CONTINUOUS
 66
     1
 10
0.0
 20
0.0
 30
0.0
 70
     1
  0
VERTEX
  5
2A4
  8
0
  6
CONTINUOUS
 10
-0.0059590185203646
 20
6.4910594714411038
 30
0.0
  0
VERTEX
  5
2A5
  8
0
  6
CONTINUOUS
 10
-0.1152022272597151
 20
6.5084823427868344
 30
0.0
  0
VERTEX
  5
2A6
  8
0
  6
CONTINUOUS
 10
-0.2137502966819369
 20
6.559148476407386
 30
0.0
  0
VERTEX
  5
2A7
  8
0
  6
CONTINUOUS
 10
-0.2924359645151711
 20
6.6379520175673568
 30
0.0
  0
VERTEX
  5
2A8
  8
0
  6
CONTINUOUS
 10
-0.3420919684876118
 20
6.7371819618037696
 30
0.0
  0
VERTEX
  5
2A9
  8
0
  6
CONTINUOUS
 10
-0.3596625545086418
 20
6.8472264107514604
 30
0.0
  0
VERTEX
  5
2AA
  8
0
  6
CONTINUOUS
 10
-0.3420919684876118
 20
6.9573693361492976
 30
0.0
  0
VERTEX
  5
2AB
  8
0
  6
CONTINUOUS
 10
-0.2924359645151711
 20
7.0565992803857114
 30
0.0
  0
VERTEX
  5
2AC
  8
0
  6
CONTINUOUS
 10
-0.2137502966819369
 20
7.1354028215456822
 30
0.0
  0
VERTEX
  5
2AD
  8
0
  6
CONTINUOUS
 10
-0.1152022272597151
 20
7.1859689866486463
 30
0.0
  0
VERTEX
  5
2AE
  8
0
  6
CONTINUOUS
 10
-0.0059590185203646
 20
7.2034918265119643
 30
0.0
  0
VERTEX
  5
2AF
  8
0
  6
CONTINUOUS
 10
0.1032841902190178
 20
7.1859689866486463
 30
0.0
  0
VERTEX
  5
2B0
  8
0
  6
CONTINUOUS
 10
0.2025961981638851
 20
7.1354028215456822
 30
0.0
  0
VERTEX
  5
2B1
  8
0
  6
CONTINUOUS
 10
0.2805179274744738
 20
7.0565992803857114
 30
0.0
  0
VERTEX
  5
2B2
  8
0
  6
CONTINUOUS
 10
0.3309378699695458
 20
6.9573693361492976
 30
0.0
  0
VERTEX
  5
2B3
  8
0
  6
CONTINUOUS
 10
0.3477445174679161
 20
6.8472264107514604
 30
0.0
  0
VERTEX
  5
2B4
  8
0
  6
CONTINUOUS
 10
0.3309378699695458
 20
6.7371819618037696
 30
0.0
  0
VERTEX
  5
2B5
  8
0
  6
CONTINUOUS
 10
0.2805179274744738
 20
6.6379520175673568
 30
0.0
  0
VERTEX
  5
2B6
  8
0
  6
CONTINUOUS
 10
0.2025961981638851
 20
6.559148476407386
 30
0.0
  0
VERTEX
  5
2B7
  8
0
  6
CONTINUOUS
 10
0.1032841902190178
 20
6.5084823427868344
 30
0.0
  0
SEQEND
  5
2B8
  8
0
  6
CONTINUOUS
  0
POLYLINE
  5
2E
  8
0
  6
CONTINUOUS
 66
     1
 10
0.0
 20
0.0
 30
0.0
 70
     1
  0
VERTEX
  5
2B9
  8
0
  6
CONTINUOUS
 10
-0.1098546576011401
 20
6.703237427838217
 30
0.0
  0
VERTEX
  5
2BA
  8
0
  6
CONTINUOUS
 10
-0.1488155222564345
 20
6.742689182677025
 30
0.0
  0
VERTEX
  5
2BB
  8
0
  6
CONTINUOUS
 10
-0.1740254935039793
 20
6.7922541705364381
 30
0.0
  0
VERTEX
  5
2BC
  8
0
  6
CONTINUOUS
 10
-0.1824288172531716
 20
6.8472264107514604
 30
0.0
  0
VERTEX
  5
2BD
  8
0
  6
CONTINUOUS
 10
-0.1740254935039793
 20
6.9022971274166869
 30
0.0
  0
VERTEX
  5
2BE
  8
0
  6
CONTINUOUS
 10
-0.1488155222564345
 20
6.9518621152760431
 30
0.0
  0
VERTEX
  5
2BF
  8
0
  6
CONTINUOUS
 10
-0.1098546576011401
 20
6.9913138701148512
 30
0.0
  0
VERTEX
  5
2C0
  8
0
  6
CONTINUOUS
 10
-0.0601986536287171
 20
7.0165477144412591
 30
0.0
  0
VERTEX
  5
2C1
  8
0
  6
CONTINUOUS
 10
-0.0059590185203646
 20
7.0252584040804029
 30
0.0
  0
VERTEX
  5
2C2
  8
0
  6
CONTINUOUS
 10
0.0490445551106511
 20
7.0165477144412591
 30
0.0
  0
VERTEX
  5
2C3
  8
0
  6
CONTINUOUS
 10
0.0979366205604464
 20
6.9913138701148512
 30
0.0
  0
VERTEX
  5
2C4
  8
0
  6
CONTINUOUS
 10
0.1376614237384004
 20
6.9518621152760431
 30
0.0
  0
VERTEX
  5
2C5
  8
0
  6
CONTINUOUS
 10
0.1621074564632821
 20
6.9022971274166869
 30
0.0
  0
VERTEX
  5
2C6
  8
0
  6
CONTINUOUS
 10
0.1712747187351198
 20
6.8472264107514604
 30
0.0
  0
VERTEX
  5
2C7
  8
0
  6
CONTINUOUS
 10
0.1621074564632821
 20
6.7922541705364381
 30
0.0
  0
VERTEX
  5
2C8
  8
0
  6
CONTINUOUS
 10
0.1376614237384004
 20
6.742689182677025
 30
0.0
  0
VERTEX
  5
2C9
  8
0
  6
CONTINUOUS
 10
0.0979366205604464
 20
6.703237427838217
 30
0.0
  0
VERTEX
  5
2CA
  8
0
  6
CONTINUOUS
 10
0.0490445551106511
 20
6.6780050755792502
 30
0.0
  0
VERTEX
  5
2CB
  8
0
  6
CONTINUOUS
 10
-0.0059590185203646
 20
6.6692928938727221
 30
0.0
  0
VERTEX
  5
2CC
  8
0
  6
CONTINUOUS
 10
-0.0601986536287171
 20
6.6780050755792502
 30
0.0
  0
SEQEND
  5
2CD
  8
0
  6
CONTINUOUS
  0
POLYLINE
  5
2F
  8
0
  6
CONTINUOUS
 66
     1
 10
0.0
 20
0.0
 30
0.0
  0
VERTEX
  5
2CE
  8
0
  6
CONTINUOUS
 10
3.2289042560504089
 20
6.4910594714411038
 30
0.0
  0
VERTEX
  5
2CF
  8
0
  6
CONTINUOUS
 10
3.2289042560504089
 20
6.5084823427868344
 30
0.0
  0
VERTEX
  5
2D0
  8
0
  6
CONTINUOUS
 10
3.2289042560504089
 20
6.559148476407386
 30
0.0
  0
VERTEX
  5
2D1
  8
0
  6
CONTINUOUS
 10
3.2289042560504089
 20
6.6379520175673568
 30
0.0
  0
VERTEX
  5
2D2
  8
0
  6
CONTINUOUS
 10
3.2289042560504089
 20
6.7371819618037696
 30
0.0
  0
VERTEX
  5
2D3
  8
0
  6
CONTINUOUS
 10
3.2289042560504089
 20
6.8472264107514604
 30
0.0
  0
VERTEX
  5
2D4
  8
0
  6
CONTINUOUS
 10
3.2289042560504089
 20
6.9573693361492976
 30
0.0
  0
VERTEX
  5
2D5
  8
0
  6
CONTINUOUS
 10
3.2289042560504089
 20
7.0565992803857114
 30
0.0
  0
VERTEX
  5
2D6
  8
0
  6
CONTINUOUS
 10
3.2289042560504089
 20
7.1354028215456822
 30
0.0
  0
VERTEX
  5
2D7
  8
0
  6
CONTINUOUS
 10
3.2289042560504089
 20
7.1859689866486463
 30
0.0
  0
VERTEX
  5
2D8
  8
0
  6
CONTINUOUS
 10
3.2289042560504089
 20
7.2034918265119643
 30
0.0
  0
SEQEND
  5
2D9
  8
0
  6
CONTINUOUS
  0
DIMENSION
  5
37
  8
COTATION-JACOBDELAFON
  2
*D0
 10
-6.2126811023258313
 20
7.2034918265119652
 30
0.0
 11
-10.86882025648681
 21
3.6017459132559821
 31
0.0
 70
     0
 13
-1.6005067268234141
 23
0.0
 33
0.0
 14
-2.8176902730098869
 24
7.2034918265119643
 34
0.0
 50
90.0
  0
DIMENSION
  5
80
  8
COTATION-JACOBDELAFON
  2
*D2
 10
3.3434950344483481
 20
9.5820050971937292
 30
0.0
 11
-0.0084590185203606
 21
14.2637240603588
 31
0.0
 70
     0
 13
-3.3604130714890701
 23
6.6333961696708741
 33
0.0
 14
3.3434950344483481
 24
6.6333961696709016
 34
0.0
  0
INSERT
  5
F3
 67
     1
  8
0
  6
CONTINUOUS
  2
ADCADD_ZZ
 10
0.0
 20
0.0
 30
0.0
1001
ADCADD_ZZ
1070
   205
1070
    14
1070
   209
1070
     1
1070
   231
1070
     0
1070
   235
1070
     0
1070
   236
1070
     4
1070
   237
1070
     2
1070
   238
1070
     4
1070
   239
1070
     2
1070
   240
1070
     0
1070
   241
1070
  4096
1070
   242
1070
     2
1070
   244
1070
     0
1070
   245
1070
     1
1070
   303
1040
0.1
1070
   304
1040
4.0
1070
   305
1040
1.0
1070
   306
1040
1.0
1070
   337
1040
0.0
1070
   338
1040
0.3048
1070
   339
1040
0.0625
1070
   340
1040
96.0
1070
   341
1040
4.0
1070
   342
1040
1.0
1070
   530
1010
0.0
1020
0.0
1030
0.0
1070
   531
1010
0.0
1020
0.0
1030
0.0
1070
   107
1000

1070
   108
1000
Architectural Desktop
1070
   135
1000
L120
1070
   136
1000
'
1070
   137
1000
m
1001
SDSK_PMN
1070
   100
1000
ACADARCH
1070
   300
1040
2453077.6379113998
  0
ENDSEC
  0
EOF
