  0
SECTION
  2
HEADER
  9
$ACADVER
  1
AC1021
  9
$ACADMAINTVER
 70
    50
  9
$DWGCODEPAGE
  3
ANSI_1252
  9
$LASTSAVEDBY
  1
François
  9
$INSBASE
 10
163.273755
 20
92.10635000000001
 30
0.0
  9
$EXTMIN
 10
147.4521922830149
 20
91.20635000000001
 30
0.0
  9
$EXTMAX
 10
167.4868451621272
 20
120.0962262767816
 30
0.0
  9
$LIMMIN
 10
146.077389
 20
91.04560500000001
  9
$LIMMAX
 10
167.984578
 20
123.390573
  9
$ORTHOMODE
 70
     0
  9
$REGENMODE
 70
     1
  9
$FILLMODE
 70
     1
  9
$QTEXTMODE
 70
     0
  9
$MIRRTEXT
 70
     1
  9
$LTSCALE
 40
1.0
  9
$ATTMODE
 70
     1
  9
$TEXTSIZE
 40
0.0
  9
$TRACEWID
 40
0.05
  9
$TEXTSTYLE
  7
Standard
  9
$CLAYER
  8
Cotation-JacobDelafon
  9
$CELTYPE
  6
Continuous
  9
$CECOLOR
 62
   256
  9
$CELTSCALE
 40
1.0
  9
$DISPSILH
 70
     0
  9
$DIMSCALE
 40
1.0
  9
$DIMASZ
 40
1.8
  9
$DIMEXO
 40
0.625
  9
$DIMDLI
 40
3.799999999999999
  9
$DIMRND
 40
0.0
  9
$DIMDLE
 40
0.0
  9
$DIMEXE
 40
1.8
  9
$DIMTP
 40
0.0
  9
$DIMTM
 40
0.0
  9
$DIMTXT
 40
3.0
  9
$DIMCEN
 40
0.9
  9
$DIMTSZ
 40
0.0
  9
$DIMTOL
 70
     0
  9
$DIMLIM
 70
     0
  9
$DIMTIH
 70
     0
  9
$DIMTOH
 70
     0
  9
$DIMSE1
 70
     0
  9
$DIMSE2
 70
     0
  9
$DIMTAD
 70
     1
  9
$DIMZIN
 70
    12
  9
$DIMBLK
  1
Oblique
  9
$DIMASO
 70
     1
  9
$DIMSHO
 70
     1
  9
$DIMPOST
  1

  9
$DIMAPOST
  1

  9
$DIMALT
 70
     0
  9
$DIMALTD
 70
     2
  9
$DIMALTF
 40
25.4
  9
$DIMLFAC
 40
1.0
  9
$DIMTOFL
 70
     0
  9
$DIMTVP
 40
0.0
  9
$DIMTIX
 70
     0
  9
$DIMSOXD
 70
     0
  9
$DIMSAH
 70
     0
  9
$DIMBLK1
  1

  9
$DIMBLK2
  1

  9
$DIMSTYLE
  2
Cotation-Jacob-Delafon
  9
$DIMCLRD
 70
     0
  9
$DIMCLRE
 70
     0
  9
$DIMCLRT
 70
     0
  9
$DIMTFAC
 40
1.0
  9
$DIMGAP
 40
0.9
  9
$DIMJUST
 70
     0
  9
$DIMSD1
 70
     0
  9
$DIMSD2
 70
     0
  9
$DIMTOLJ
 70
     1
  9
$DIMTZIN
 70
     0
  9
$DIMALTZ
 70
     0
  9
$DIMALTTZ
 70
     0
  9
$DIMUPT
 70
     0
  9
$DIMDEC
 70
     2
  9
$DIMTDEC
 70
     2
  9
$DIMALTU
 70
     2
  9
$DIMALTTD
 70
     2
  9
$DIMTXSTY
  7
Jacob-Delafon
  9
$DIMAUNIT
 70
     0
  9
$DIMADEC
 70
     0
  9
$DIMALTRND
 40
0.0
  9
$DIMAZIN
 70
     3
  9
$DIMDSEP
 70
    46
  9
$DIMATFIT
 70
     3
  9
$DIMFRAC
 70
     0
  9
$DIMLDRBLK
  1
Oblique
  9
$DIMLUNIT
 70
     2
  9
$DIMLWD
 70
    -2
  9
$DIMLWE
 70
    -2
  9
$DIMTMOVE
 70
     2
  9
$DIMFXL
 40
1.0
  9
$DIMFXLON
 70
     0
  9
$DIMJOGANG
 40
0.7853981633974483
  9
$DIMTFILL
 70
     0
  9
$DIMTFILLCLR
 70
     0
  9
$DIMARCSYM
 70
     0
  9
$DIMLTYPE
  6

  9
$DIMLTEX1
  6

  9
$DIMLTEX2
  6

  9
$LUNITS
 70
     2
  9
$LUPREC
 70
     4
  9
$SKETCHINC
 40
0.1
  9
$FILLETRAD
 40
0.0
  9
$AUNITS
 70
     0
  9
$AUPREC
 70
     0
  9
$MENU
  1
acad
  9
$ELEVATION
 40
0.0
  9
$PELEVATION
 40
0.0
  9
$THICKNESS
 40
0.0
  9
$LIMCHECK
 70
     0
  9
$CHAMFERA
 40
0.0
  9
$CHAMFERB
 40
0.0
  9
$CHAMFERC
 40
0.0
  9
$CHAMFERD
 40
0.0
  9
$SKPOLY
 70
     0
  9
$TDCREATE
 40
2454948.858130787
  9
$TDUCREATE
 40
2454948.774797454
  9
$TDUPDATE
 40
2455006.677827500
  9
$TDUUPDATE
 40
2455006.594494167
  9
$TDINDWG
 40
0.0140507292
  9
$TDUSRTIMER
 40
0.0140505556
  9
$USRTIMER
 70
     1
  9
$ANGBASE
 50
0.0
  9
$ANGDIR
 70
     0
  9
$PDMODE
 70
     0
  9
$PDSIZE
 40
0.0
  9
$PLINEWID
 40
0.0
  9
$SPLFRAME
 70
     0
  9
$SPLINETYPE
 70
     6
  9
$SPLINESEGS
 70
     8
  9
$HANDSEED
  5
842
  9
$SURFTAB1
 70
     6
  9
$SURFTAB2
 70
     6
  9
$SURFTYPE
 70
     6
  9
$SURFU
 70
     6
  9
$SURFV
 70
     6
  9
$UCSBASE
  2

  9
$UCSNAME
  2

  9
$UCSORG
 10
0.0
 20
0.0
 30
0.0
  9
$UCSXDIR
 10
1.0
 20
0.0
 30
0.0
  9
$UCSYDIR
 10
0.0
 20
1.0
 30
0.0
  9
$UCSORTHOREF
  2

  9
$UCSORTHOVIEW
 70
     0
  9
$UCSORGTOP
 10
0.0
 20
0.0
 30
0.0
  9
$UCSORGBOTTOM
 10
0.0
 20
0.0
 30
0.0
  9
$UCSORGLEFT
 10
0.0
 20
0.0
 30
0.0
  9
$UCSORGRIGHT
 10
0.0
 20
0.0
 30
0.0
  9
$UCSORGFRONT
 10
0.0
 20
0.0
 30
0.0
  9
$UCSORGBACK
 10
0.0
 20
0.0
 30
0.0
  9
$PUCSBASE
  2

  9
$PUCSNAME
  2

  9
$PUCSORG
 10
0.0
 20
0.0
 30
0.0
  9
$PUCSXDIR
 10
1.0
 20
0.0
 30
0.0
  9
$PUCSYDIR
 10
0.0
 20
1.0
 30
0.0
  9
$PUCSORTHOREF
  2

  9
$PUCSORTHOVIEW
 70
     0
  9
$PUCSORGTOP
 10
0.0
 20
0.0
 30
0.0
  9
$PUCSORGBOTTOM
 10
0.0
 20
0.0
 30
0.0
  9
$PUCSORGLEFT
 10
0.0
 20
0.0
 30
0.0
  9
$PUCSORGRIGHT
 10
0.0
 20
0.0
 30
0.0
  9
$PUCSORGFRONT
 10
0.0
 20
0.0
 30
0.0
  9
$PUCSORGBACK
 10
0.0
 20
0.0
 30
0.0
  9
$USERI1
 70
     0
  9
$USERI2
 70
     0
  9
$USERI3
 70
     0
  9
$USERI4
 70
     0
  9
$USERI5
 70
     0
  9
$USERR1
 40
0.0
  9
$USERR2
 40
0.0
  9
$USERR3
 40
0.0
  9
$USERR4
 40
0.0
  9
$USERR5
 40
0.0
  9
$WORLDVIEW
 70
     1
  9
$SHADEDGE
 70
     3
  9
$SHADEDIF
 70
    70
  9
$TILEMODE
 70
     1
  9
$MAXACTVP
 70
    16
  9
$PINSBASE
 10
0.0
 20
0.0
 30
0.0
  9
$PLIMCHECK
 70
     0
  9
$PEXTMIN
 10
1.000000000000000E+20
 20
1.000000000000000E+20
 30
1.000000000000000E+20
  9
$PEXTMAX
 10
-1.000000000000000E+20
 20
-1.000000000000000E+20
 30
-1.000000000000000E+20
  9
$PLIMMIN
 10
0.0
 20
0.0
  9
$PLIMMAX
 10
12.0
 20
9.0
  9
$UNITMODE
 70
     0
  9
$VISRETAIN
 70
     0
  9
$PLINEGEN
 70
     1
  9
$PSLTSCALE
 70
     0
  9
$TREEDEPTH
 70
  3020
  9
$CMLSTYLE
  2
Standard
  9
$CMLJUST
 70
     0
  9
$CMLSCALE
 40
1.0
  9
$PROXYGRAPHICS
 70
     0
  9
$MEASUREMENT
 70
     1
  9
$CELWEIGHT
370
     0
  9
$ENDCAPS
280
     0
  9
$JOINSTYLE
280
     0
  9
$LWDISPLAY
290
     0
  9
$INSUNITS
 70
     0
  9
$HYPERLINKBASE
  1

  9
$STYLESHEET
  1

  9
$XEDIT
290
     1
  9
$CEPSNTYPE
380
     0
  9
$PSTYLEMODE
290
     1
  9
$FINGERPRINTGUID
  2

  9
$VERSIONGUID
  2
{D82922C7-5667-4807-916A-F78A3C577BA2}
  9
$EXTNAMES
290
     1
  9
$PSVPSCALE
 40
0.0
  9
$OLESTARTUP
290
     0
  9
$SORTENTS
280
   127
  9
$INDEXCTL
280
     0
  9
$HIDETEXT
280
     0
  9
$XCLIPFRAME
290
     0
  9
$HALOGAP
280
     0
  9
$OBSCOLOR
 70
   257
  9
$OBSLTYPE
280
     0
  9
$INTERSECTIONDISPLAY
280
     0
  9
$INTERSECTIONCOLOR
 70
   257
  9
$DIMASSOC
280
     1
  9
$PROJECTNAME
  1

  9
$CAMERADISPLAY
290
     0
  9
$LENSLENGTH
 40
50.0
  9
$CAMERAHEIGHT
 40
0.0
  9
$STEPSPERSEC
 40
2.0
  9
$STEPSIZE
 40
6.0
  9
$3DDWFPREC
 40
2.0
  9
$PSOLWIDTH
 40
0.25
  9
$PSOLHEIGHT
 40
4.0
  9
$LOFTANG1
 40
1.570796326794896
  9
$LOFTANG2
 40
1.570796326794896
  9
$LOFTMAG1
 40
0.0
  9
$LOFTMAG2
 40
0.0
  9
$LOFTPARAM
 70
     7
  9
$LOFTNORMALS
280
     1
  9
$LATITUDE
 40
37.795
  9
$LONGITUDE
 40
-122.394
  9
$NORTHDIRECTION
 40
0.0
  9
$TIMEZONE
 70
 -8000
  9
$LIGHTGLYPHDISPLAY
280
     1
  9
$TILEMODELIGHTSYNCH
280
     1
  9
$CMATERIAL
347
2A8
  9
$SOLIDHIST
280
     1
  9
$SHOWHIST
280
     1
  9
$DWFFRAME
280
     2
  9
$DGNFRAME
280
     0
  9
$REALWORLDSCALE
290
     1
  9
$INTERFERECOLOR
 62
     1
  9
$INTERFEREOBJVS
345
2CA
  9
$INTERFEREVPVS
346
2C7
  9
$CSHADOW
280
     0
  9
$SHADOWPLANELOCATION
 40
0.0
  0
ENDSEC
  0
SECTION
  2
CLASSES
  0
CLASS
  1
IMAGE
  2
AcDbRasterImage
  3
ISM
 90
     2175
 91
        0
280
     0
281
     1
  0
CLASS
  1
DICTIONARYVAR
  2
AcDbDictionaryVar
  3
ObjectDBX Classes
 90
        0
 91
        7
280
     0
281
     0
  0
CLASS
  1
RASTERVARIABLES
  2
AcDbRasterVariables
  3
ISM
 90
        0
 91
        0
280
     0
281
     0
  0
CLASS
  1
IMAGEDEF
  2
AcDbRasterImageDef
  3
ISM
 90
        0
 91
        0
280
     0
281
     0
  0
CLASS
  1
IMAGEDEF_REACTOR
  2
AcDbRasterImageDefReactor
  3
ISM
 90
        1
 91
        0
280
     0
281
     0
  0
CLASS
  1
IDBUFFER
  2
AcDbIdBuffer
  3
ObjectDBX Classes
 90
        0
 91
        0
280
     0
281
     0
  0
CLASS
  1
SPATIAL_FILTER
  2
AcDbSpatialFilter
  3
ObjectDBX Classes
 90
        0
 91
        0
280
     0
281
     0
  0
CLASS
  1
SORTENTSTABLE
  2
AcDbSortentsTable
  3
ObjectDBX Classes
 90
        0
 91
        1
280
     0
281
     0
  0
CLASS
  1
LAYER_INDEX
  2
AcDbLayerIndex
  3
ObjectDBX Classes
 90
        0
 91
        0
280
     0
281
     0
  0
CLASS
  1
SPATIAL_INDEX
  2
AcDbSpatialIndex
  3
ObjectDBX Classes
 90
        0
 91
        0
280
     0
281
     0
  0
CLASS
  1
OBJECT_PTR
  2
CAseDLPNTableRecord
  3
"ASE-LPNTableRecord"
 90
        1
 91
        0
280
     0
281
     0
  0
CLASS
  1
PLOTSETTINGS
  2
AcDbPlotSettings
  3
ObjectDBX Classes
 90
        0
 91
        0
280
     0
281
     0
  0
CLASS
  1
ACDBDICTIONARYWDFLT
  2
AcDbDictionaryWithDefault
  3
ObjectDBX Classes
 90
        0
 91
        1
280
     0
281
     0
  0
CLASS
  1
WIPEOUT
  2
AcDbWipeout
  3
"WipeOut|Product Desc: Object Enabler for WipeOut entity                        |Company: Autodesk, Inc.                        |WEB Address: www.autodesk.com"
 90
     2175
 91
        0
280
     0
281
     1
  0
CLASS
  1
WIPEOUTVARIABLES
  2
AcDbWipeoutVariables
  3
"WipeOut|Product Desc:     WipeOut Dbx Application|Company:          Autodesk, Inc.|WEB Address:      www.autodesk.com"
 90
        0
 91
        1
280
     0
281
     0
  0
CLASS
  1
RTEXT
  2
RText
  3
RText|AutoCAD Express Tool|expresstools@autodesk.com
 90
        0
 91
        0
280
     0
281
     1
  0
CLASS
  1
ARCALIGNEDTEXT
  2
AcDbArcAlignedText
  3
ATEXT|AutoCAD Express Tool|expresstools@autodesk.com
 90
        0
 91
        0
280
     0
281
     1
  0
CLASS
  1
MATERIAL
  2
AcDbMaterial
  3
ObjectDBX Classes
 90
     1153
 91
        3
280
     0
281
     0
  0
CLASS
  1
VISUALSTYLE
  2
AcDbVisualStyle
  3
ObjectDBX Classes
 90
     4095
 91
       16
280
     0
281
     0
  0
CLASS
  1
TABLESTYLE
  2
AcDbTableStyle
  3
ObjectDBX Classes
 90
     4095
 91
        1
280
     0
281
     0
  0
CLASS
  1
SCALE
  2
AcDbScale
  3
ObjectDBX Classes
 90
     1153
 91
       17
280
     0
281
     0
  0
CLASS
  1
MLEADERSTYLE
  2
AcDbMLeaderStyle
  3
ACDB_MLEADERSTYLE_CLASS
 90
     4095
 91
        1
280
     0
281
     0
  0
CLASS
  1
AEC_REFEDIT_STATUS_TRACKER
  2
AecDbRefEditStatusTracker
  3
AecArchBase50|Product Desc: Autodesk Architectural Desktop 2007 |Company: Autodesk,Inc. |WEB Address: www.autodesk.com
 90
      129
 91
        0
280
     0
281
     0
  0
CLASS
  1
NPOCOLLECTION
  2
AcDbImpNonPersistentObjectsCollection
  3
ObjectDBX Classes
 90
     1153
 91
        0
280
     0
281
     0
  0
CLASS
  1
CELLSTYLEMAP
  2
AcDbCellStyleMap
  3
ObjectDBX Classes
 90
     1152
 91
        2
280
     0
281
     0
  0
ENDSEC
  0
SECTION
  2
TABLES
  0
TABLE
  2
VPORT
  5
7
330
0
100
AcDbSymbolTable
 70
     1
  0
VPORT
  5
15
330
7
100
AcDbSymbolTableRecord
100
AcDbViewportTableRecord
  2
*ACTIVE
 70
     0
 10
0.0
 20
0.0
 11
1.0
 21
1.0
 12
155.5942358681221
 22
105.4307026286877
 13
0.0
 23
0.0
 14
1.0
 24
1.0
 15
0.0
 25
0.0
 16
0.0
 26
0.0
 36
1.0
 17
0.0
 27
0.0
 37
0.0
 40
32.37370390221951
 41
1.226824457593688
 42
50.0
 43
0.0
 44
0.0
 50
0.0
 51
0.0
 71
     0
 72
   100
 73
     1
 74
     1
 75
     0
 76
     0
 77
     0
 78
     0
281
     0
 65
     0
110
0.0
120
0.0
130
0.0
111
1.0
121
0.0
131
0.0
112
0.0
122
1.0
132
0.0
 79
     0
146
0.0
348
2C6
 60
     3
 61
     5
292
     1
282
     1
141
0.0
142
0.0
 63
   250
421
  3355443
  0
ENDTAB
  0
TABLE
  2
LTYPE
  5
4
330
0
100
AcDbSymbolTable
 70
     1
  0
LTYPE
  5
11
330
4
100
AcDbSymbolTableRecord
100
AcDbLinetypeTableRecord
  2
ByBlock
 70
     0
  3

 72
    65
 73
     0
 40
0.0
  0
LTYPE
  5
12
330
4
100
AcDbSymbolTableRecord
100
AcDbLinetypeTableRecord
  2
ByLayer
 70
     0
  3

 72
    65
 73
     0
 40
0.0
  0
LTYPE
  5
13
330
4
100
AcDbSymbolTableRecord
100
AcDbLinetypeTableRecord
  2
Continuous
 70
     0
  3
Solid line
 72
    65
 73
     0
 40
0.0
  0
ENDTAB
  0
TABLE
  2
LAYER
  5
2
330
0
100
AcDbSymbolTable
 70
     4
  0
LAYER
  5
14
102
{ACAD_XDICTIONARY
360
56C
102
}
330
2
100
AcDbSymbolTableRecord
100
AcDbLayerTableRecord
  2
0
 70
     0
 62
     7
  6
Continuous
370
    -3
390
1D
347
2B8
  0
LAYER
  5
29
102
{ACAD_XDICTIONARY
360
56E
102
}
330
2
100
AcDbSymbolTableRecord
100
AcDbLayerTableRecord
  2
ARTICLE
 70
     0
 62
     2
  6
Continuous
370
    -3
390
1D
347
2B8
  0
LAYER
  5
800
330
2
100
AcDbSymbolTableRecord
100
AcDbLayerTableRecord
  2
Defpoints
 70
     0
 62
     7
  6
Continuous
290
     0
370
    -3
390
1D
347
2B8
  0
LAYER
  5
801
102
{ACAD_XDICTIONARY
360
802
102
}
330
2
100
AcDbSymbolTableRecord
100
AcDbLayerTableRecord
  2
Cotation-JacobDelafon
 70
     0
 62
     8
  6
Continuous
370
    -3
390
1D
347
2B8
  0
ENDTAB
  0
TABLE
  2
STYLE
  5
3
330
0
100
AcDbSymbolTable
 70
     4
  0
STYLE
  5
17
330
3
100
AcDbSymbolTableRecord
100
AcDbTextStyleTableRecord
  2
Standard
 70
     0
 40
0.0
 41
1.0
 50
0.0
 71
     0
 42
0.0
  3
txt
  4

  0
STYLE
  5
24
330
3
100
AcDbSymbolTableRecord
100
AcDbTextStyleTableRecord
  2
STD
 70
     0
 40
0.0
 41
1.0
 50
0.0
 71
     0
 42
0.0
  3
txt
  4

  0
STYLE
  5
803
330
3
100
AcDbSymbolTableRecord
100
AcDbTextStyleTableRecord
  2
Annotative
 70
     0
 40
0.0
 41
1.0
 50
0.0
 71
     0
 42
0.2
  3
txt
  4

1001
AcadAnnotative
1000
AnnotativeData
1002
{
1070
     1
1070
     1
1002
}
  0
STYLE
  5
80F
330
3
100
AcDbSymbolTableRecord
100
AcDbTextStyleTableRecord
  2
Jacob-Delafon
 70
     0
 40
0.0
 41
1.0
 50
0.0
 71
     0
 42
2.5
  3
ARIAL.TTF
  4

1001
ACAD
1000
Arial
1071
       34
  0
ENDTAB
  0
TABLE
  2
VIEW
  5
5
330
0
100
AcDbSymbolTable
 70
     0
  0
ENDTAB
  0
TABLE
  2
UCS
  5
6
330
0
100
AcDbSymbolTable
 70
     0
  0
ENDTAB
  0
TABLE
  2
APPID
  5
8
330
0
100
AcDbSymbolTable
 70
     3
  0
APPID
  5
16
330
8
100
AcDbSymbolTableRecord
100
AcDbRegAppTableRecord
  2
ACAD
 70
     0
  0
APPID
  5
2E8
330
8
100
AcDbSymbolTableRecord
100
AcDbRegAppTableRecord
  2
ACAD_MLEADERVER
 70
     0
  0
APPID
  5
805
330
8
100
AcDbSymbolTableRecord
100
AcDbRegAppTableRecord
  2
AcadAnnotative
 70
     0
  0
ENDTAB
  0
TABLE
  2
DIMSTYLE
  5
9
330
0
100
AcDbSymbolTable
 70
     3
100
AcDbDimStyleTable
 71
     1
340
810
  0
DIMSTYLE
105
18
330
9
100
AcDbSymbolTableRecord
100
AcDbDimStyleTableRecord
  2
Standard
 70
     0
340
17
  0
DIMSTYLE
105
804
330
9
100
AcDbSymbolTableRecord
100
AcDbDimStyleTableRecord
  2
Annotative
 70
     0
340
17
1001
AcadAnnotative
1000
AnnotativeData
1002
{
1070
     1
1070
     1
1002
}
  0
DIMSTYLE
105
810
102
{ACAD_REACTORS
330
817
330
824
102
}
330
9
100
AcDbSymbolTableRecord
100
AcDbDimStyleTableRecord
  2
Cotation-Jacob-Delafon
 70
     0
 41
1.8
 42
0.625
 43
3.799999999999999
 44
1.8
 73
     0
 74
     0
 77
     1
 78
    12
 79
     3
140
3.0
141
0.9
147
0.9
271
     2
272
     2
279
     2
340
80F
341
80B
342
80B
  0
ENDTAB
  0
TABLE
  2
BLOCK_RECORD
  5
1
330
0
100
AcDbSymbolTable
 70
     3
  0
BLOCK_RECORD
  5
A
102
{ACAD_XDICTIONARY
360
7FE
102
}
330
1
100
AcDbSymbolTableRecord
100
AcDbBlockTableRecord
  2
*MODEL_SPACE
340
20
 70
     0
280
     1
281
     0
  0
BLOCK_RECORD
  5
B
330
1
100
AcDbSymbolTableRecord
100
AcDbBlockTableRecord
  2
*PAPER_SPACE
340
21
 70
     0
280
     1
281
     0
  0
BLOCK_RECORD
  5
80B
330
1
100
AcDbSymbolTableRecord
100
AcDbBlockTableRecord
  2
_Oblique
340
0
102
{BLKREFS
331
81E
331
81F
331
834
331
835
102
}
 70
     0
280
     1
281
     0
  0
BLOCK_RECORD
  5
818
330
1
100
AcDbSymbolTableRecord
100
AcDbBlockTableRecord
  2
*D1
340
0
 70
     0
280
     1
281
     0
  0
BLOCK_RECORD
  5
825
330
1
100
AcDbSymbolTableRecord
100
AcDbBlockTableRecord
  2
*D2
340
0
 70
     0
280
     1
281
     0
  0
ENDTAB
  0
ENDSEC
  0
SECTION
  2
BLOCKS
  0
BLOCK
  5
D
330
A
100
AcDbEntity
  8
0
100
AcDbBlockBegin
  2
*MODEL_SPACE
 70
     0
 10
0.0
 20
0.0
 30
0.0
  3
*MODEL_SPACE
  1

  0
ENDBLK
  5
E
330
A
100
AcDbEntity
  8
0
100
AcDbBlockEnd
  0
BLOCK
  5
F
330
B
100
AcDbEntity
 67
     1
  8
0
100
AcDbBlockBegin
  2
*PAPER_SPACE
 70
     0
 10
0.0
 20
0.0
 30
0.0
  3
*PAPER_SPACE
  1

  0
ENDBLK
  5
10
330
B
100
AcDbEntity
 67
     1
  8
0
100
AcDbBlockEnd
  0
BLOCK
  5
80C
330
80B
100
AcDbEntity
  8
0
100
AcDbBlockBegin
  2
_Oblique
 70
     0
 10
0.0
 20
0.0
 30
0.0
  3
_Oblique
  1

  0
LINE
  5
80D
330
80B
100
AcDbEntity
  8
0
  6
ByBlock
 62
     0
370
    -2
380
     1
100
AcDbLine
 10
-0.5
 20
-0.5
 30
0.0
 11
0.5
 21
0.5
 31
0.0
  0
ENDBLK
  5
80E
330
80B
100
AcDbEntity
  8
0
100
AcDbBlockEnd
  0
BLOCK
  5
819
330
818
100
AcDbEntity
  8
0
370
     0
100
AcDbBlockBegin
  2
*D1
 70
     1
 10
0.0
 20
0.0
 30
0.0
  3
*D1
  1

  0
LINE
  5
81B
330
818
100
AcDbEntity
  8
Cotation-JacobDelafon
  6
Continuous
 62
     0
370
    -2
100
AcDbLine
 10
163.08232
 20
92.10635000000001
 30
0.0
 11
150.3523287086629
 21
92.10635000000001
 31
0.0
  0
LINE
  5
81C
330
818
100
AcDbEntity
  8
Cotation-JacobDelafon
  6
Continuous
 62
     0
370
    -2
100
AcDbLine
 10
162.648755
 20
109.306334
 30
0.0
 11
150.3523287086629
 21
109.306334
 31
0.0
  0
LINE
  5
81D
330
818
100
AcDbEntity
  8
Cotation-JacobDelafon
  6
Continuous
 62
     0
370
    -2
100
AcDbLine
 10
152.1523287086629
 20
92.10635000000001
 30
0.0
 11
152.1523287086629
 21
109.306334
 31
0.0
  0
INSERT
  5
81E
330
818
100
AcDbEntity
  8
Cotation-JacobDelafon
  6
Continuous
 62
     0
370
    -2
100
AcDbBlockReference
  2
_Oblique
 10
152.1523287086629
 20
92.10635000000001
 30
0.0
 41
1.8
 42
1.8
 43
1.8
 50
270.0
  0
INSERT
  5
81F
330
818
100
AcDbEntity
  8
Cotation-JacobDelafon
  6
Continuous
 62
     0
370
    -2
100
AcDbBlockReference
  2
_Oblique
 10
152.1523287086629
 20
109.306334
 30
0.0
 41
1.8
 42
1.8
 43
1.8
 50
90.0
  0
MTEXT
  5
820
330
818
100
AcDbEntity
  8
Cotation-JacobDelafon
  6
Continuous
 62
     0
370
     0
100
AcDbMText
 10
149.7461895545019
 20
100.706342
 30
0.0
 40
3.0
 41
0.0
 46
0.0
 71
     5
 72
     1
  1
\A1;17.2
  7
Jacob-Delafon
 11
0.0000000000000001
 21
1.0
 31
0.0
 73
     1
 44
1.0
  0
POINT
  5
821
330
818
100
AcDbEntity
  8
Defpoints
  6
Continuous
 62
     0
370
     0
100
AcDbPoint
 10
163.70732
 20
92.10635000000001
 30
0.0
  0
POINT
  5
822
330
818
100
AcDbEntity
  8
Defpoints
  6
Continuous
 62
     0
370
     0
100
AcDbPoint
 10
163.273755
 20
109.306334
 30
0.0
  0
POINT
  5
823
330
818
100
AcDbEntity
  8
Defpoints
  6
Continuous
 62
     0
370
     0
100
AcDbPoint
 10
152.1523287086629
 20
109.306334
 30
0.0
  0
ENDBLK
  5
81A
330
818
100
AcDbEntity
  8
0
370
     0
100
AcDbBlockEnd
  0
BLOCK
  5
826
330
825
100
AcDbEntity
  8
0
370
     0
100
AcDbBlockBegin
  2
*D2
 70
     1
 10
0.0
 20
0.0
 30
0.0
  3
*D2
  1

  0
LINE
  5
831
330
825
100
AcDbEntity
  8
Cotation-JacobDelafon
  6
Continuous
 62
     0
370
    -2
100
AcDbLine
 10
160.053624
 20
105.423771
 30
0.0
 11
160.053624
 21
117.2022290052945
 31
0.0
  0
LINE
  5
832
330
825
100
AcDbEntity
  8
Cotation-JacobDelafon
  6
Continuous
 62
     0
370
    -2
100
AcDbLine
 10
166.5868451621272
 20
105.4880262651237
 30
0.0
 11
166.5868451621272
 21
117.2022290052945
 31
0.0
  0
LINE
  5
833
330
825
100
AcDbEntity
  8
Cotation-JacobDelafon
  6
Continuous
 62
     0
370
    -2
100
AcDbLine
 10
160.053624
 20
115.4022290052945
 30
0.0
 11
166.5868451621272
 21
115.4022290052945
 31
0.0
  0
INSERT
  5
834
330
825
100
AcDbEntity
  8
Cotation-JacobDelafon
  6
Continuous
 62
     0
370
    -2
100
AcDbBlockReference
  2
_Oblique
 10
160.053624
 20
115.4022290052945
 30
0.0
 41
1.8
 42
1.8
 43
1.8
 50
180.0
  0
INSERT
  5
835
330
825
100
AcDbEntity
  8
Cotation-JacobDelafon
  6
Continuous
 62
     0
370
    -2
100
AcDbBlockReference
  2
_Oblique
 10
166.5868451621272
 20
115.4022290052945
 30
0.0
 41
1.8
 42
1.8
 43
1.8
  0
MTEXT
  5
836
330
825
100
AcDbEntity
  8
Cotation-JacobDelafon
  6
Continuous
 62
     0
370
     0
100
AcDbMText
 10
163.3202345810636
 20
117.8022290052945
 30
0.0
 40
3.0
 41
0.0
 46
0.0
 71
     5
 72
     1
  1
\A1;7
  7
Jacob-Delafon
 73
     1
 44
1.0
  0
POINT
  5
837
330
825
100
AcDbEntity
  8
Defpoints
  6
Continuous
 62
     0
370
     0
100
AcDbPoint
 10
160.053624
 20
104.798771
 30
0.0
  0
POINT
  5
838
330
825
100
AcDbEntity
  8
Defpoints
  6
Continuous
 62
     0
370
     0
100
AcDbPoint
 10
166.5868451621272
 20
104.8630262651237
 30
0.0
  0
POINT
  5
839
330
825
100
AcDbEntity
  8
Defpoints
  6
Continuous
 62
     0
370
     0
100
AcDbPoint
 10
166.5868451621272
 20
115.4022290052945
 30
0.0
  0
ENDBLK
  5
827
330
825
100
AcDbEntity
  8
0
370
     0
100
AcDbBlockEnd
  0
ENDSEC
  0
SECTION
  2
ENTITIES
  0
LINE
  5
582
330
A
100
AcDbEntity
  8
0
 62
     7
100
AcDbLine
 10
164.006527
 20
94.805927
 30
0.0
 11
164.678665
 21
94.80627199999998
 31
0.0
  0
LINE
  5
583
330
A
100
AcDbEntity
  8
0
 62
     7
100
AcDbLine
 10
164.006527
 20
94.805927
 30
0.0
 11
164.678665
 21
94.80627199999998
 31
0.0
  0
LINE
  5
584
330
A
100
AcDbEntity
  8
0
 62
     7
100
AcDbLine
 10
163.984823
 20
94.80627199999998
 30
0.0
 11
164.006527
 21
94.805927
 31
0.0
  0
LINE
  5
585
330
A
100
AcDbEntity
  8
0
 62
     7
100
AcDbLine
 10
163.984823
 20
94.80627199999998
 30
0.0
 11
164.006527
 21
94.805927
 31
0.0
  0
LINE
  5
586
330
A
100
AcDbEntity
  8
0
 62
     7
100
AcDbLine
 10
163.268587
 20
94.80489399999999
 30
0.0
 11
163.273755
 21
94.80489399999999
 31
0.0
  0
LINE
  5
587
330
A
100
AcDbEntity
  8
0
 62
     7
100
AcDbLine
 10
163.268587
 20
94.80489399999999
 30
0.0
 11
163.273755
 21
94.80489399999999
 31
0.0
  0
LINE
  5
588
330
A
100
AcDbEntity
  8
0
 62
     7
100
AcDbLine
 10
163.273755
 20
94.80489399999999
 30
0.0
 11
163.479427
 21
94.80489399999999
 31
0.0
  0
LINE
  5
589
330
A
100
AcDbEntity
  8
0
 62
     7
100
AcDbLine
 10
163.273755
 20
94.80489399999999
 30
0.0
 11
163.479427
 21
94.80489399999999
 31
0.0
  0
LINE
  5
58A
330
A
100
AcDbEntity
  8
0
 62
     7
100
AcDbLine
 10
160.960718
 20
94.80627199999998
 30
0.0
 11
160.834627
 21
94.80627199999998
 31
0.0
  0
LINE
  5
58B
330
A
100
AcDbEntity
  8
0
 62
     7
100
AcDbLine
 10
160.960718
 20
94.80627199999998
 30
0.0
 11
160.834627
 21
94.80627199999998
 31
0.0
  0
LINE
  5
58C
330
A
100
AcDbEntity
  8
0
 62
     7
100
AcDbLine
 10
161.28249
 20
94.80627199999998
 30
0.0
 11
161.509866
 21
94.80627199999998
 31
0.0
  0
LINE
  5
58D
330
A
100
AcDbEntity
  8
0
 62
     7
100
AcDbLine
 10
161.28249
 20
94.80627199999998
 30
0.0
 11
161.509866
 21
94.80627199999998
 31
0.0
  0
LINE
  5
58E
330
A
100
AcDbEntity
  8
0
 62
     7
100
AcDbLine
 10
161.28249
 20
94.80627199999998
 30
0.0
 11
160.960718
 21
94.80627199999998
 31
0.0
  0
LINE
  5
58F
330
A
100
AcDbEntity
  8
0
 62
     7
100
AcDbLine
 10
161.28249
 20
94.80627199999998
 30
0.0
 11
160.960718
 21
94.80627199999998
 31
0.0
  0
LINE
  5
590
330
A
100
AcDbEntity
  8
0
 62
     7
100
AcDbLine
 10
161.86161
 20
94.80627199999998
 30
0.0
 11
162.256074
 21
94.805927
 31
0.0
  0
LINE
  5
591
330
A
100
AcDbEntity
  8
0
 62
     7
100
AcDbLine
 10
161.86161
 20
94.80627199999998
 30
0.0
 11
162.256074
 21
94.805927
 31
0.0
  0
LINE
  5
592
330
A
100
AcDbEntity
  8
0
 62
     7
100
AcDbLine
 10
161.509866
 20
94.80627199999998
 30
0.0
 11
161.86161
 21
94.80627199999998
 31
0.0
  0
LINE
  5
593
330
A
100
AcDbEntity
  8
0
 62
     7
100
AcDbLine
 10
161.509866
 20
94.80627199999998
 30
0.0
 11
161.86161
 21
94.80627199999998
 31
0.0
  0
LINE
  5
594
330
A
100
AcDbEntity
  8
0
 62
     7
100
AcDbLine
 10
162.53616
 20
94.805927
 30
0.0
 11
163.064293
 21
94.80489399999999
 31
0.0
  0
LINE
  5
595
330
A
100
AcDbEntity
  8
0
 62
     7
100
AcDbLine
 10
162.53616
 20
94.805927
 30
0.0
 11
163.064293
 21
94.80489399999999
 31
0.0
  0
LINE
  5
596
330
A
100
AcDbEntity
  8
0
 62
     7
100
AcDbLine
 10
162.256074
 20
94.805927
 30
0.0
 11
162.53616
 21
94.805927
 31
0.0
  0
LINE
  5
597
330
A
100
AcDbEntity
  8
0
 62
     7
100
AcDbLine
 10
162.256074
 20
94.805927
 30
0.0
 11
162.53616
 21
94.805927
 31
0.0
  0
LINE
  5
598
330
A
100
AcDbEntity
  8
0
 62
     7
100
AcDbLine
 10
163.064293
 20
94.80489399999999
 30
0.0
 11
163.268587
 21
94.80489399999999
 31
0.0
  0
LINE
  5
599
330
A
100
AcDbEntity
  8
0
 62
     7
100
AcDbLine
 10
163.064293
 20
94.80489399999999
 30
0.0
 11
163.268587
 21
94.80489399999999
 31
0.0
  0
LINE
  5
59A
330
A
100
AcDbEntity
  8
0
 62
     7
100
AcDbLine
 10
162.545806
 20
94.306388
 30
0.0
 11
163.273755
 21
94.306388
 31
0.0
  0
LINE
  5
59B
330
A
100
AcDbEntity
  8
0
 62
     7
100
AcDbLine
 10
161.869534
 20
94.306388
 30
0.0
 11
162.545806
 21
94.306388
 31
0.0
  0
LINE
  5
59C
330
A
100
AcDbEntity
  8
0
 62
     7
100
AcDbLine
 10
161.288002
 20
94.306388
 30
0.0
 11
161.869534
 21
94.306388
 31
0.0
  0
LINE
  5
59D
330
A
100
AcDbEntity
  8
0
 62
     7
100
AcDbLine
 10
160.8415169999999
 20
94.306388
 30
0.0
 11
161.288002
 21
94.306388
 31
0.0
  0
LINE
  5
59E
330
A
100
AcDbEntity
  8
0
 62
     7
100
AcDbLine
 10
160.561087
 20
94.306388
 30
0.0
 11
160.8415169999999
 21
94.306388
 31
0.0
  0
LINE
  5
59F
330
A
100
AcDbEntity
  8
0
 62
     7
100
AcDbLine
 10
160.259296
 20
94.31327900000001
 30
0.0
 11
160.4653129999999
 21
94.306388
 31
0.0
  0
LINE
  5
5A0
330
A
100
AcDbEntity
  8
0
 62
     7
100
AcDbLine
 10
160.4653129999999
 20
94.306388
 30
0.0
 11
160.561087
 21
94.306388
 31
0.0
  0
LINE
  5
5A1
330
A
100
AcDbEntity
  8
0
 62
     7
100
AcDbLine
 10
161.869534
 20
94.306388
 30
0.0
 11
161.288002
 21
94.306388
 31
0.0
  0
LINE
  5
5A2
330
A
100
AcDbEntity
  8
0
 62
     7
100
AcDbLine
 10
163.273755
 20
94.306388
 30
0.0
 11
162.554419
 21
94.306388
 31
0.0
  0
LINE
  5
5A3
330
A
100
AcDbEntity
  8
0
 62
     7
100
AcDbLine
 10
164.6783199999999
 20
94.306388
 30
0.0
 11
163.993435
 21
94.306388
 31
0.0
  0
LINE
  5
5A4
330
A
100
AcDbEntity
  8
0
 62
     7
100
AcDbLine
 10
166.288558
 20
94.31327900000001
 30
0.0
 11
166.082541
 21
94.306388
 31
0.0
  0
LINE
  5
5A5
330
A
100
AcDbEntity
  8
0
 62
     7
100
AcDbLine
 10
165.986768
 20
94.306388
 30
0.0
 11
166.082541
 21
94.306388
 31
0.0
  0
LINE
  5
5A6
330
A
100
AcDbEntity
  8
0
 62
     7
100
AcDbLine
 10
165.706337
 20
94.306388
 30
0.0
 11
165.986768
 21
94.306388
 31
0.0
  0
LINE
  5
5A7
330
A
100
AcDbEntity
  8
0
 62
     7
100
AcDbLine
 10
165.259852
 20
94.306388
 30
0.0
 11
165.706337
 21
94.306388
 31
0.0
  0
LINE
  5
5A8
330
A
100
AcDbEntity
  8
0
 62
     7
100
AcDbLine
 10
164.6783199999999
 20
94.306388
 30
0.0
 11
165.259852
 21
94.306388
 31
0.0
  0
LINE
  5
5A9
330
A
100
AcDbEntity
  8
0
 62
     7
100
AcDbLine
 10
164.002048
 20
94.306388
 30
0.0
 11
164.6783199999999
 21
94.306388
 31
0.0
  0
LINE
  5
5AA
330
A
100
AcDbEntity
  8
0
 62
     7
100
AcDbLine
 10
163.273755
 20
94.306388
 30
0.0
 11
164.002048
 21
94.306388
 31
0.0
  0
LINE
  5
5AB
330
A
100
AcDbEntity
  8
0
 62
     7
100
AcDbLine
 10
160.152154
 20
94.36151
 30
0.0
 11
160.259296
 21
94.31327900000001
 31
0.0
  0
LINE
  5
5AC
330
A
100
AcDbEntity
  8
0
 62
     7
100
AcDbLine
 10
166.3957
 20
94.36151
 30
0.0
 11
166.288558
 21
94.31327900000001
 31
0.0
  0
LINE
  5
5AD
330
A
100
AcDbEntity
  8
0
 62
     7
100
AcDbLine
 10
163.273755
 20
94.43282299999999
 30
0.0
 11
162.446932
 21
94.43282299999999
 31
0.0
  0
LINE
  5
5AE
330
A
100
AcDbEntity
  8
0
 62
     7
100
AcDbLine
 10
162.446932
 20
94.43282299999999
 30
0.0
 11
161.676953
 21
94.43282299999999
 31
0.0
  0
LINE
  5
5AF
330
A
100
AcDbEntity
  8
0
 62
     7
100
AcDbLine
 10
161.676953
 20
94.43282299999999
 30
0.0
 11
161.01515
 21
94.43282299999999
 31
0.0
  0
LINE
  5
5B0
330
A
100
AcDbEntity
  8
0
 62
     7
100
AcDbLine
 10
161.01515
 20
94.43282299999999
 30
0.0
 11
160.507688
 21
94.43282299999999
 31
0.0
  0
LINE
  5
5B1
330
A
100
AcDbEntity
  8
0
 62
     7
100
AcDbLine
 10
160.507688
 20
94.43282299999999
 30
0.0
 11
160.188672
 21
94.43282299999999
 31
0.0
  0
LINE
  5
5B2
330
A
100
AcDbEntity
  8
0
 62
     7
100
AcDbLine
 10
160.188672
 20
94.43282299999999
 30
0.0
 11
160.079807
 21
94.43282299999999
 31
0.0
  0
LINE
  5
5B3
330
A
100
AcDbEntity
  8
0
 62
     7
100
AcDbLine
 10
160.079807
 20
94.43282299999999
 30
0.0
 11
160.152154
 21
94.36151
 31
0.0
  0
LINE
  5
5B4
330
A
100
AcDbEntity
  8
0
 62
     7
100
AcDbLine
 10
166.468047
 20
94.43282299999999
 30
0.0
 11
166.3957
 21
94.36151
 31
0.0
  0
LINE
  5
5B5
330
A
100
AcDbEntity
  8
0
 62
     7
100
AcDbLine
 10
166.468047
 20
94.43282299999999
 30
0.0
 11
166.359182
 21
94.43282299999999
 31
0.0
  0
LINE
  5
5B6
330
A
100
AcDbEntity
  8
0
 62
     7
100
AcDbLine
 10
166.359182
 20
94.43282299999999
 30
0.0
 11
166.040167
 21
94.43282299999999
 31
0.0
  0
LINE
  5
5B7
330
A
100
AcDbEntity
  8
0
 62
     7
100
AcDbLine
 10
166.040167
 20
94.43282299999999
 30
0.0
 11
165.532704
 21
94.43282299999999
 31
0.0
  0
LINE
  5
5B8
330
A
100
AcDbEntity
  8
0
 62
     7
100
AcDbLine
 10
165.532704
 20
94.43282299999999
 30
0.0
 11
164.870901
 21
94.43282299999999
 31
0.0
  0
LINE
  5
5B9
330
A
100
AcDbEntity
  8
0
 62
     7
100
AcDbLine
 10
164.870901
 20
94.43282299999999
 30
0.0
 11
164.100922
 21
94.43282299999999
 31
0.0
  0
LINE
  5
5BA
330
A
100
AcDbEntity
  8
0
 62
     7
100
AcDbLine
 10
164.100922
 20
94.43282299999999
 30
0.0
 11
163.273755
 21
94.43282299999999
 31
0.0
  0
LINE
  5
5BB
330
A
100
AcDbEntity
  8
0
 62
     7
100
AcDbLine
 10
160.05328
 20
94.52067300000001
 30
0.0
 11
160.079807
 21
94.43282299999999
 31
0.0
  0
LINE
  5
5BC
330
A
100
AcDbEntity
  8
0
 62
     7
100
AcDbLine
 10
166.494575
 20
94.52067300000001
 30
0.0
 11
166.468047
 21
94.43282299999999
 31
0.0
  0
LINE
  5
5BD
330
A
100
AcDbEntity
  8
0
 62
     7
100
AcDbLine
 10
160.05328
 20
94.59577600000001
 30
0.0
 11
160.05328
 21
94.52067300000001
 31
0.0
  0
LINE
  5
5BE
330
A
100
AcDbEntity
  8
0
 62
     7
100
AcDbLine
 10
166.494575
 20
94.59577600000001
 30
0.0
 11
166.494575
 21
94.52067300000001
 31
0.0
  0
LINE
  5
5BF
330
A
100
AcDbEntity
  8
0
 62
     7
100
AcDbLine
 10
163.273755
 20
94.683282
 30
0.0
 11
162.446932
 21
94.683282
 31
0.0
  0
LINE
  5
5C0
330
A
100
AcDbEntity
  8
0
 62
     7
100
AcDbLine
 10
162.446932
 20
94.683282
 30
0.0
 11
161.676953
 21
94.683282
 31
0.0
  0
LINE
  5
5C1
330
A
100
AcDbEntity
  8
0
 62
     7
100
AcDbLine
 10
161.676953
 20
94.683282
 30
0.0
 11
161.01515
 21
94.683282
 31
0.0
  0
LINE
  5
5C2
330
A
100
AcDbEntity
  8
0
 62
     7
100
AcDbLine
 10
161.01515
 20
94.683282
 30
0.0
 11
160.507688
 21
94.683282
 31
0.0
  0
LINE
  5
5C3
330
A
100
AcDbEntity
  8
0
 62
     7
100
AcDbLine
 10
160.507688
 20
94.683282
 30
0.0
 11
160.188672
 21
94.683282
 31
0.0
  0
LINE
  5
5C4
330
A
100
AcDbEntity
  8
0
 62
     7
100
AcDbLine
 10
160.188672
 20
94.683282
 30
0.0
 11
160.079807
 21
94.683282
 31
0.0
  0
LINE
  5
5C5
330
A
100
AcDbEntity
  8
0
 62
     7
100
AcDbLine
 10
160.079807
 20
94.683282
 30
0.0
 11
160.05328
 21
94.59577600000001
 31
0.0
  0
LINE
  5
5C6
330
A
100
AcDbEntity
  8
0
 62
     7
100
AcDbLine
 10
164.098511
 20
94.683282
 30
0.0
 11
164.870901
 21
94.683282
 31
0.0
  0
LINE
  5
5C7
330
A
100
AcDbEntity
  8
0
 62
     7
100
AcDbLine
 10
166.468047
 20
94.683282
 30
0.0
 11
166.494575
 21
94.59577600000001
 31
0.0
  0
LINE
  5
5C8
330
A
100
AcDbEntity
  8
0
 62
     7
100
AcDbLine
 10
166.468047
 20
94.683282
 30
0.0
 11
166.359182
 21
94.683282
 31
0.0
  0
LINE
  5
5C9
330
A
100
AcDbEntity
  8
0
 62
     7
100
AcDbLine
 10
166.359182
 20
94.683282
 30
0.0
 11
166.040167
 21
94.683282
 31
0.0
  0
LINE
  5
5CA
330
A
100
AcDbEntity
  8
0
 62
     7
100
AcDbLine
 10
166.040167
 20
94.683282
 30
0.0
 11
165.532704
 21
94.683282
 31
0.0
  0
LINE
  5
5CB
330
A
100
AcDbEntity
  8
0
 62
     7
100
AcDbLine
 10
165.532704
 20
94.683282
 30
0.0
 11
164.870901
 21
94.683282
 31
0.0
  0
LINE
  5
5CC
330
A
100
AcDbEntity
  8
0
 62
     7
100
AcDbLine
 10
164.870901
 20
94.683282
 30
0.0
 11
164.100922
 21
94.683282
 31
0.0
  0
LINE
  5
5CD
330
A
100
AcDbEntity
  8
0
 62
     7
100
AcDbLine
 10
164.100922
 20
94.683282
 30
0.0
 11
163.273755
 21
94.683282
 31
0.0
  0
LINE
  5
5CE
330
A
100
AcDbEntity
  8
0
 62
     7
100
AcDbLine
 10
160.152154
 20
94.75494000000001
 30
0.0
 11
160.079807
 21
94.683282
 31
0.0
  0
LINE
  5
5CF
330
A
100
AcDbEntity
  8
0
 62
     7
100
AcDbLine
 10
166.3957
 20
94.75494000000001
 30
0.0
 11
166.468047
 21
94.683282
 31
0.0
  0
LINE
  5
5D0
330
A
100
AcDbEntity
  8
0
 62
     7
100
AcDbLine
 10
160.259296
 20
94.80317099999998
 30
0.0
 11
160.152154
 21
94.75494000000001
 31
0.0
  0
LINE
  5
5D1
330
A
100
AcDbEntity
  8
0
 62
     7
100
AcDbLine
 10
166.288558
 20
94.80317099999998
 30
0.0
 11
166.3957
 21
94.75494000000001
 31
0.0
  0
LINE
  5
5D2
330
A
100
AcDbEntity
  8
0
 62
     7
100
AcDbLine
 10
160.4653129999999
 20
94.80627199999998
 30
0.0
 11
160.259296
 21
94.80317099999998
 31
0.0
  0
LINE
  5
5D3
330
A
100
AcDbEntity
  8
0
 62
     7
100
AcDbLine
 10
166.082541
 20
94.80627199999998
 30
0.0
 11
166.288558
 21
94.80317099999998
 31
0.0
  0
LINE
  5
5D4
330
A
100
AcDbEntity
  8
0
 62
     7
100
AcDbLine
 10
164.805789
 20
98.05396299999999
 30
0.0
 11
164.805789
 21
98.138368
 31
0.0
  0
LINE
  5
5D5
330
A
100
AcDbEntity
  8
0
 62
     7
100
AcDbLine
 10
161.71416
 20
98.05396299999999
 30
0.0
 11
161.71416
 21
98.138368
 31
0.0
  0
LINE
  5
5D6
330
A
100
AcDbEntity
  8
0
 62
     7
100
AcDbLine
 10
162.906852
 20
97.63331700000001
 30
0.0
 11
163.259975
 21
97.62436000000001
 31
0.0
  0
LINE
  5
5D7
330
A
100
AcDbEntity
  8
0
 62
     7
100
AcDbLine
 10
163.259975
 20
97.62436000000001
 30
0.0
 11
163.613097
 21
97.63331700000001
 31
0.0
  0
LINE
  5
5D8
330
A
100
AcDbEntity
  8
0
 62
     7
100
AcDbLine
 10
162.906852
 20
98.559014
 30
0.0
 11
163.259975
 21
98.567627
 31
0.0
  0
LINE
  5
5D9
330
A
100
AcDbEntity
  8
0
 62
     7
100
AcDbLine
 10
163.259975
 20
98.567627
 30
0.0
 11
163.613097
 21
98.559014
 31
0.0
  0
LINE
  5
5DA
330
A
100
AcDbEntity
  8
0
 62
     7
100
AcDbLine
 10
164.791664
 20
97.988162
 30
0.0
 11
164.805789
 21
98.05396299999999
 31
0.0
  0
LINE
  5
5DB
330
A
100
AcDbEntity
  8
0
 62
     7
100
AcDbLine
 10
164.647659
 20
97.82761999999999
 30
0.0
 11
164.702436
 21
97.86103799999999
 31
0.0
  0
LINE
  5
5DC
330
A
100
AcDbEntity
  8
0
 62
     7
100
AcDbLine
 10
164.702436
 20
97.86103799999999
 30
0.0
 11
164.739643
 21
97.91271400000001
 31
0.0
  0
LINE
  5
5DD
330
A
100
AcDbEntity
  8
0
 62
     7
100
AcDbLine
 10
164.739643
 20
97.91271400000001
 30
0.0
 11
164.791664
 21
97.988162
 31
0.0
  0
LINE
  5
5DE
330
A
100
AcDbEntity
  8
0
 62
     7
100
AcDbLine
 10
164.503998
 20
97.761475
 30
0.0
 11
164.647659
 21
97.82761999999999
 31
0.0
  0
LINE
  5
5DF
330
A
100
AcDbEntity
  8
0
 62
     7
100
AcDbLine
 10
164.275244
 20
97.704631
 30
0.0
 11
164.503998
 21
97.761475
 31
0.0
  0
LINE
  5
5E0
330
A
100
AcDbEntity
  8
0
 62
     7
100
AcDbLine
 10
163.977588
 20
97.66122199999999
 30
0.0
 11
164.275244
 21
97.704631
 31
0.0
  0
LINE
  5
5E1
330
A
100
AcDbEntity
  8
0
 62
     7
100
AcDbLine
 10
163.613097
 20
97.63331700000001
 30
0.0
 11
163.631356
 21
97.634006
 31
0.0
  0
LINE
  5
5E2
330
A
100
AcDbEntity
  8
0
 62
     7
100
AcDbLine
 10
163.631356
 20
97.634006
 30
0.0
 11
163.977588
 21
97.66122199999999
 31
0.0
  0
LINE
  5
5E3
330
A
100
AcDbEntity
  8
0
 62
     7
100
AcDbLine
 10
162.906852
 20
97.63331700000001
 30
0.0
 11
162.888593
 21
97.634006
 31
0.0
  0
LINE
  5
5E4
330
A
100
AcDbEntity
  8
0
 62
     7
100
AcDbLine
 10
162.542361
 20
97.66122199999999
 30
0.0
 11
162.888593
 21
97.634006
 31
0.0
  0
LINE
  5
5E5
330
A
100
AcDbEntity
  8
0
 62
     7
100
AcDbLine
 10
162.244705
 20
97.704631
 30
0.0
 11
162.542361
 21
97.66122199999999
 31
0.0
  0
LINE
  5
5E6
330
A
100
AcDbEntity
  8
0
 62
     7
100
AcDbLine
 10
162.015951
 20
97.761475
 30
0.0
 11
162.244705
 21
97.704631
 31
0.0
  0
LINE
  5
5E7
330
A
100
AcDbEntity
  8
0
 62
     7
100
AcDbLine
 10
161.871946
 20
97.82761999999999
 30
0.0
 11
162.015951
 21
97.761475
 31
0.0
  0
LINE
  5
5E8
330
A
100
AcDbEntity
  8
0
 62
     7
100
AcDbLine
 10
161.871946
 20
97.82761999999999
 30
0.0
 11
161.817169
 21
97.86103799999999
 31
0.0
  0
LINE
  5
5E9
330
A
100
AcDbEntity
  8
0
 62
     7
100
AcDbLine
 10
161.817169
 20
97.86103799999999
 30
0.0
 11
161.780306
 21
97.91271400000001
 31
0.0
  0
LINE
  5
5EA
330
A
100
AcDbEntity
  8
0
 62
     7
100
AcDbLine
 10
161.728285
 20
97.988162
 30
0.0
 11
161.780306
 21
97.91271400000001
 31
0.0
  0
LINE
  5
5EB
330
A
100
AcDbEntity
  8
0
 62
     7
100
AcDbLine
 10
161.728285
 20
97.988162
 30
0.0
 11
161.71416
 21
98.05396299999999
 31
0.0
  0
LINE
  5
5EC
330
A
100
AcDbEntity
  8
0
 62
     7
100
AcDbLine
 10
162.906852
 20
98.559014
 30
0.0
 11
162.888593
 21
98.55832499999999
 31
0.0
  0
LINE
  5
5ED
330
A
100
AcDbEntity
  8
0
 62
     7
100
AcDbLine
 10
162.542361
 20
98.530764
 30
0.0
 11
162.888593
 21
98.55832499999999
 31
0.0
  0
LINE
  5
5EE
330
A
100
AcDbEntity
  8
0
 62
     7
100
AcDbLine
 10
162.244705
 20
98.48735600000001
 30
0.0
 11
162.542361
 21
98.530764
 31
0.0
  0
LINE
  5
5EF
330
A
100
AcDbEntity
  8
0
 62
     7
100
AcDbLine
 10
162.015951
 20
98.43085699999999
 30
0.0
 11
162.244705
 21
98.48735600000001
 31
0.0
  0
LINE
  5
5F0
330
A
100
AcDbEntity
  8
0
 62
     7
100
AcDbLine
 10
161.871946
 20
98.364711
 30
0.0
 11
162.015951
 21
98.43085699999999
 31
0.0
  0
LINE
  5
5F1
330
A
100
AcDbEntity
  8
0
 62
     7
100
AcDbLine
 10
161.871946
 20
98.364711
 30
0.0
 11
161.817169
 21
98.33129300000001
 31
0.0
  0
LINE
  5
5F2
330
A
100
AcDbEntity
  8
0
 62
     7
100
AcDbLine
 10
161.817169
 20
98.33129300000001
 30
0.0
 11
161.780306
 21
98.27927199999999
 31
0.0
  0
LINE
  5
5F3
330
A
100
AcDbEntity
  8
0
 62
     7
100
AcDbLine
 10
161.728285
 20
98.203825
 30
0.0
 11
161.780306
 21
98.27927199999999
 31
0.0
  0
LINE
  5
5F4
330
A
100
AcDbEntity
  8
0
 62
     7
100
AcDbLine
 10
161.728285
 20
98.203825
 30
0.0
 11
161.71416
 21
98.138368
 31
0.0
  0
LINE
  5
5F5
330
A
100
AcDbEntity
  8
0
 62
     7
100
AcDbLine
 10
164.791664
 20
98.203825
 30
0.0
 11
164.805789
 21
98.138368
 31
0.0
  0
LINE
  5
5F6
330
A
100
AcDbEntity
  8
0
 62
     7
100
AcDbLine
 10
164.647659
 20
98.364711
 30
0.0
 11
164.702436
 21
98.33129300000001
 31
0.0
  0
LINE
  5
5F7
330
A
100
AcDbEntity
  8
0
 62
     7
100
AcDbLine
 10
164.702436
 20
98.33129300000001
 30
0.0
 11
164.739643
 21
98.27927199999999
 31
0.0
  0
LINE
  5
5F8
330
A
100
AcDbEntity
  8
0
 62
     7
100
AcDbLine
 10
164.739643
 20
98.27927199999999
 30
0.0
 11
164.791664
 21
98.203825
 31
0.0
  0
LINE
  5
5F9
330
A
100
AcDbEntity
  8
0
 62
     7
100
AcDbLine
 10
164.503998
 20
98.43085699999999
 30
0.0
 11
164.647659
 21
98.364711
 31
0.0
  0
LINE
  5
5FA
330
A
100
AcDbEntity
  8
0
 62
     7
100
AcDbLine
 10
164.275244
 20
98.48735600000001
 30
0.0
 11
164.503998
 21
98.43085699999999
 31
0.0
  0
LINE
  5
5FB
330
A
100
AcDbEntity
  8
0
 62
     7
100
AcDbLine
 10
163.977588
 20
98.530764
 30
0.0
 11
164.275244
 21
98.48735600000001
 31
0.0
  0
LINE
  5
5FC
330
A
100
AcDbEntity
  8
0
 62
     7
100
AcDbLine
 10
163.613097
 20
98.559014
 30
0.0
 11
163.631356
 21
98.55832499999999
 31
0.0
  0
LINE
  5
5FD
330
A
100
AcDbEntity
  8
0
 62
     7
100
AcDbLine
 10
163.631356
 20
98.55832499999999
 30
0.0
 11
163.977588
 21
98.530764
 31
0.0
  0
LINE
  5
5FE
330
A
100
AcDbEntity
  8
0
 62
     7
100
AcDbLine
 10
164.58737
 20
107.806856
 30
0.0
 11
164.542584
 21
107.806856
 31
0.0
  0
LINE
  5
5FF
330
A
100
AcDbEntity
  8
0
 62
     7
100
AcDbLine
 10
164.542584
 20
107.806856
 30
0.0
 11
164.411325
 21
107.806856
 31
0.0
  0
LINE
  5
600
330
A
100
AcDbEntity
  8
0
 62
     7
100
AcDbLine
 10
164.411325
 20
107.806856
 30
0.0
 11
164.262497
 21
107.806856
 31
0.0
  0
LINE
  5
601
330
A
100
AcDbEntity
  8
0
 62
     7
100
AcDbLine
 10
162.285357
 20
107.806856
 30
0.0
 11
162.136184
 21
107.806856
 31
0.0
  0
LINE
  5
602
330
A
100
AcDbEntity
  8
0
 62
     7
100
AcDbLine
 10
162.136184
 20
107.806856
 30
0.0
 11
162.005271
 21
107.806856
 31
0.0
  0
LINE
  5
603
330
A
100
AcDbEntity
  8
0
 62
     7
100
AcDbLine
 10
162.005271
 20
107.806856
 30
0.0
 11
161.960484
 21
107.806856
 31
0.0
  0
LINE
  5
604
330
A
100
AcDbEntity
  8
0
 62
     7
100
AcDbLine
 10
161.918799
 20
107.88661
 30
0.0
 11
162.003204
 21
107.995992
 31
0.0
  0
LINE
  5
605
330
A
100
AcDbEntity
  8
0
 62
     7
100
AcDbLine
 10
164.544651
 20
107.995992
 30
0.0
 11
164.629055
 21
107.88661
 31
0.0
  0
LINE
  5
606
330
A
100
AcDbEntity
  8
0
 62
     7
100
AcDbLine
 10
164.582891
 20
107.88661
 30
0.0
 11
164.629055
 21
107.88661
 31
0.0
  0
LINE
  5
607
330
A
100
AcDbEntity
  8
0
 62
     7
100
AcDbLine
 10
164.447499
 20
107.88661
 30
0.0
 11
164.582891
 21
107.88661
 31
0.0
  0
LINE
  5
608
330
A
100
AcDbEntity
  8
0
 62
     7
100
AcDbLine
 10
164.23218
 20
107.88661
 30
0.0
 11
164.447499
 21
107.88661
 31
0.0
  0
LINE
  5
609
330
A
100
AcDbEntity
  8
0
 62
     7
100
AcDbLine
 10
164.21461
 20
107.88661
 30
0.0
 11
164.23218
 21
107.88661
 31
0.0
  0
LINE
  5
60A
330
A
100
AcDbEntity
  8
0
 62
     7
100
AcDbLine
 10
162.315674
 20
107.88661
 30
0.0
 11
162.333244
 21
107.88661
 31
0.0
  0
LINE
  5
60B
330
A
100
AcDbEntity
  8
0
 62
     7
100
AcDbLine
 10
162.100355
 20
107.88661
 30
0.0
 11
162.315674
 21
107.88661
 31
0.0
  0
LINE
  5
60C
330
A
100
AcDbEntity
  8
0
 62
     7
100
AcDbLine
 10
161.964963
 20
107.88661
 30
0.0
 11
162.100355
 21
107.88661
 31
0.0
  0
LINE
  5
60D
330
A
100
AcDbEntity
  8
0
 62
     7
100
AcDbLine
 10
161.918799
 20
107.88661
 30
0.0
 11
161.964963
 21
107.88661
 31
0.0
  0
LINE
  5
60E
330
A
100
AcDbEntity
  8
0
 62
     7
100
AcDbLine
 10
162.140663
 20
108.124839
 30
0.0
 11
162.1985409999999
 21
108.155672
 31
0.0
  0
LINE
  5
60F
330
A
100
AcDbEntity
  8
0
 62
     7
100
AcDbLine
 10
162.003204
 20
107.995992
 30
0.0
 11
162.140663
 21
108.124839
 31
0.0
  0
LINE
  5
610
330
A
100
AcDbEntity
  8
0
 62
     7
100
AcDbLine
 10
164.349314
 20
108.155672
 30
0.0
 11
164.407191
 21
108.124839
 31
0.0
  0
LINE
  5
611
330
A
100
AcDbEntity
  8
0
 62
     7
100
AcDbLine
 10
164.407191
 20
108.124839
 30
0.0
 11
164.544651
 21
107.995992
 31
0.0
  0
LINE
  5
612
330
A
100
AcDbEntity
  8
0
 62
     7
100
AcDbLine
 10
161.913976
 20
107.834245
 30
0.0
 11
161.918799
 21
107.88661
 31
0.0
  0
LINE
  5
613
330
A
100
AcDbEntity
  8
0
 62
     7
100
AcDbLine
 10
161.960484
 20
107.806856
 30
0.0
 11
161.913976
 21
107.834245
 31
0.0
  0
LINE
  5
614
330
A
100
AcDbEntity
  8
0
 62
     7
100
AcDbLine
 10
164.629055
 20
107.88661
 30
0.0
 11
164.633879
 21
107.834245
 31
0.0
  0
LINE
  5
615
330
A
100
AcDbEntity
  8
0
 62
     7
100
AcDbLine
 10
164.633879
 20
107.834245
 30
0.0
 11
164.58737
 21
107.806856
 31
0.0
  0
LINE
  5
616
330
A
100
AcDbEntity
  8
0
 62
     7
100
AcDbLine
 10
161.779617
 20
107.806856
 30
0.0
 11
161.830604
 21
107.806856
 31
0.0
  0
LINE
  5
617
330
A
100
AcDbEntity
  8
0
 62
     7
100
AcDbLine
 10
161.830604
 20
107.806856
 30
0.0
 11
161.960484
 21
107.806856
 31
0.0
  0
LINE
  5
618
330
A
100
AcDbEntity
  8
0
 62
     7
100
AcDbLine
 10
164.58737
 20
107.806856
 30
0.0
 11
164.71725
 21
107.806856
 31
0.0
  0
LINE
  5
619
330
A
100
AcDbEntity
  8
0
 62
     7
100
AcDbLine
 10
164.71725
 20
107.806856
 30
0.0
 11
164.768237
 21
107.806856
 31
0.0
  0
LINE
  5
61A
330
A
100
AcDbEntity
  8
0
 62
     7
100
AcDbLine
 10
165.02593
 20
107.306801
 30
0.0
 11
165.02593
 21
107.556742
 31
0.0
  0
LINE
  5
61B
330
A
100
AcDbEntity
  8
0
 62
     7
100
AcDbLine
 10
164.867112
 20
107.787047
 30
0.0
 11
164.768237
 21
107.806856
 31
0.0
  0
LINE
  5
61C
330
A
100
AcDbEntity
  8
0
 62
     7
100
AcDbLine
 10
164.949794
 20
107.733476
 30
0.0
 11
164.867112
 21
107.787047
 31
0.0
  0
LINE
  5
61D
330
A
100
AcDbEntity
  8
0
 62
     7
100
AcDbLine
 10
165.00526
 20
107.654066
 30
0.0
 11
164.949794
 21
107.733476
 31
0.0
  0
LINE
  5
61E
330
A
100
AcDbEntity
  8
0
 62
     7
100
AcDbLine
 10
165.02593
 20
107.556742
 30
0.0
 11
165.00526
 21
107.654066
 31
0.0
  0
LINE
  5
61F
330
A
100
AcDbEntity
  8
0
 62
     7
100
AcDbLine
 10
165.00526
 20
107.209477
 30
0.0
 11
165.02593
 21
107.306801
 31
0.0
  0
LINE
  5
620
330
A
100
AcDbEntity
  8
0
 62
     7
100
AcDbLine
 10
164.949794
 20
107.130067
 30
0.0
 11
165.00526
 21
107.209477
 31
0.0
  0
LINE
  5
621
330
A
100
AcDbEntity
  8
0
 62
     7
100
AcDbLine
 10
164.867112
 20
107.076496
 30
0.0
 11
164.949794
 21
107.130067
 31
0.0
  0
LINE
  5
622
330
A
100
AcDbEntity
  8
0
 62
     7
100
AcDbLine
 10
164.765826
 20
107.056859
 30
0.0
 11
164.867112
 21
107.076496
 31
0.0
  0
LINE
  5
623
330
A
100
AcDbEntity
  8
0
 62
     7
100
AcDbLine
 10
163.985856
 20
107.871452
 30
0.0
 11
163.906963
 21
107.858705
 31
0.0
  0
LINE
  5
624
330
A
100
AcDbEntity
  8
0
 62
     7
100
AcDbLine
 10
163.906963
 20
107.858705
 30
0.0
 11
163.721617
 21
107.847164
 31
0.0
  0
LINE
  5
625
330
A
100
AcDbEntity
  8
0
 62
     7
100
AcDbLine
 10
163.273755
 20
107.938976
 30
0.0
 11
163.566588
 21
107.932258
 31
0.0
  0
LINE
  5
626
330
A
100
AcDbEntity
  8
0
 62
     7
100
AcDbLine
 10
163.566588
 20
107.932258
 30
0.0
 11
163.852186
 21
107.933291
 31
0.0
  0
LINE
  5
627
330
A
100
AcDbEntity
  8
0
 62
     7
100
AcDbLine
 10
163.852186
 20
107.933291
 30
0.0
 11
164.090243
 21
107.959474
 31
0.0
  0
LINE
  5
628
330
A
100
AcDbEntity
  8
0
 62
     7
100
AcDbLine
 10
164.027542
 20
108.240422
 30
0.0
 11
163.812568
 21
108.173414
 31
0.0
  0
LINE
  5
629
330
A
100
AcDbEntity
  8
0
 62
     7
100
AcDbLine
 10
164.027542
 20
108.240422
 30
0.0
 11
164.199452
 21
108.41526
 31
0.0
  0
LINE
  5
62A
330
A
100
AcDbEntity
  8
0
 62
     7
100
AcDbLine
 10
164.199452
 20
108.41526
 30
0.0
 11
164.351036
 21
108.655383
 31
0.0
  0
LINE
  5
62B
330
A
100
AcDbEntity
  8
0
 62
     7
100
AcDbLine
 10
164.351036
 20
108.655383
 30
0.0
 11
164.367573
 21
108.755463
 31
0.0
  0
LINE
  5
62C
330
A
100
AcDbEntity
  8
0
 62
     7
100
AcDbLine
 10
164.367573
 20
108.755463
 30
0.0
 11
164.374807
 21
108.852098
 31
0.0
  0
LINE
  5
62D
330
A
100
AcDbEntity
  8
0
 62
     7
100
AcDbLine
 10
164.374807
 20
108.852098
 30
0.0
 11
164.371362
 21
108.943221
 31
0.0
  0
LINE
  5
62E
330
A
100
AcDbEntity
  8
0
 62
     7
100
AcDbLine
 10
164.388932
 20
108.861228
 30
0.0
 11
164.392377
 21
108.774756
 31
0.0
  0
LINE
  5
62F
330
A
100
AcDbEntity
  8
0
 62
     7
100
AcDbLine
 10
164.371362
 20
108.943221
 30
0.0
 11
164.343113
 21
109.085331
 31
0.0
  0
LINE
  5
630
330
A
100
AcDbEntity
  8
0
 62
     7
100
AcDbLine
 10
164.343113
 20
109.085331
 30
0.0
 11
164.388932
 21
108.861228
 31
0.0
  0
LINE
  5
631
330
A
100
AcDbEntity
  8
0
 62
     7
100
AcDbLine
 10
164.293848
 20
109.162329
 30
0.0
 11
164.343113
 21
109.085331
 31
0.0
  0
LINE
  5
632
330
A
100
AcDbEntity
  8
0
 62
     7
100
AcDbLine
 10
164.343113
 20
109.085331
 30
0.0
 11
164.294537
 21
109.16319
 31
0.0
  0
LINE
  5
633
330
A
100
AcDbEntity
  8
0
 62
     7
100
AcDbLine
 10
164.293848
 20
109.162329
 30
0.0
 11
164.244238
 21
109.238638
 31
0.0
  0
LINE
  5
634
330
A
100
AcDbEntity
  8
0
 62
     7
100
AcDbLine
 10
164.244238
 20
109.238638
 30
0.0
 11
164.294537
 21
109.16319
 31
0.0
  0
LINE
  5
635
330
A
100
AcDbEntity
  8
0
 62
     7
100
AcDbLine
 10
164.169824
 20
109.287731
 30
0.0
 11
164.244238
 21
109.238638
 31
0.0
  0
LINE
  5
636
330
A
100
AcDbEntity
  8
0
 62
     7
100
AcDbLine
 10
164.078874
 20
109.3022
 30
0.0
 11
164.169824
 21
109.287731
 31
0.0
  0
LINE
  5
637
330
A
100
AcDbEntity
  8
0
 62
     7
100
AcDbLine
 10
164.194973
 20
107.933808
 30
0.0
 11
164.221501
 21
107.870074
 31
0.0
  0
LINE
  5
638
330
A
100
AcDbEntity
  8
0
 62
     7
100
AcDbLine
 10
164.221501
 20
107.870074
 30
0.0
 11
164.298671
 21
107.751046
 31
0.0
  0
LINE
  5
639
330
A
100
AcDbEntity
  8
0
 62
     7
100
AcDbLine
 10
164.386521
 20
108.331372
 30
0.0
 11
164.370673
 21
108.248518
 31
0.0
  0
LINE
  5
63A
330
A
100
AcDbEntity
  8
0
 62
     7
100
AcDbLine
 10
164.392377
 20
108.774756
 30
0.0
 11
164.392377
 21
108.402513
 31
0.0
  0
LINE
  5
63B
330
A
100
AcDbEntity
  8
0
 62
     7
100
AcDbLine
 10
164.392377
 20
108.402513
 30
0.0
 11
164.386521
 21
108.331372
 31
0.0
  0
LINE
  5
63C
330
A
100
AcDbEntity
  8
0
 62
     7
100
AcDbLine
 10
163.985856
 20
107.871452
 30
0.0
 11
164.142263
 21
107.902974
 31
0.0
  0
LINE
  5
63D
330
A
100
AcDbEntity
  8
0
 62
     7
100
AcDbLine
 10
164.209787
 20
107.942765
 30
0.0
 11
164.142263
 21
107.902974
 31
0.0
  0
LINE
  5
63E
330
A
100
AcDbEntity
  8
0
 62
     7
100
AcDbLine
 10
164.090243
 20
107.959474
 30
0.0
 11
164.255263
 21
108.006327
 31
0.0
  0
LINE
  5
63F
330
A
100
AcDbEntity
  8
0
 62
     7
100
AcDbLine
 10
164.209787
 20
107.942765
 30
0.0
 11
164.280412
 21
108.032338
 31
0.0
  0
LINE
  5
640
330
A
100
AcDbEntity
  8
0
 62
     7
100
AcDbLine
 10
164.326576
 20
108.096761
 30
0.0
 11
164.280412
 21
108.032338
 31
0.0
  0
LINE
  5
641
330
A
100
AcDbEntity
  8
0
 62
     7
100
AcDbLine
 10
164.326576
 20
108.096761
 30
0.0
 11
164.354481
 21
108.169108
 31
0.0
  0
LINE
  5
642
330
A
100
AcDbEntity
  8
0
 62
     7
100
AcDbLine
 10
164.370673
 20
108.248518
 30
0.0
 11
164.354481
 21
108.169108
 31
0.0
  0
LINE
  5
643
330
A
100
AcDbEntity
  8
0
 62
     7
100
AcDbLine
 10
163.273755
 20
109.306334
 30
0.0
 11
164.078874
 21
109.3022
 31
0.0
  0
LINE
  5
644
330
A
100
AcDbEntity
  8
0
 62
     7
100
AcDbLine
 10
163.721617
 20
107.847164
 30
0.0
 11
163.273755
 21
107.847164
 31
0.0
  0
LINE
  5
645
330
A
100
AcDbEntity
  8
0
 62
     7
100
AcDbLine
 10
163.273755
 20
107.847164
 30
0.0
 11
162.826237
 21
107.847164
 31
0.0
  0
LINE
  5
646
330
A
100
AcDbEntity
  8
0
 62
     7
100
AcDbLine
 10
162.640891
 20
107.858705
 30
0.0
 11
162.826237
 21
107.847164
 31
0.0
  0
LINE
  5
647
330
A
100
AcDbEntity
  8
0
 62
     7
100
AcDbLine
 10
161.521924
 20
107.556742
 30
0.0
 11
161.521924
 21
107.306801
 31
0.0
  0
LINE
  5
648
330
A
100
AcDbEntity
  8
0
 62
     7
100
AcDbLine
 10
161.779617
 20
107.806856
 30
0.0
 11
161.680743
 21
107.787047
 31
0.0
  0
LINE
  5
649
330
A
100
AcDbEntity
  8
0
 62
     7
100
AcDbLine
 10
161.680743
 20
107.787047
 30
0.0
 11
161.59806
 21
107.733476
 31
0.0
  0
LINE
  5
64A
330
A
100
AcDbEntity
  8
0
 62
     7
100
AcDbLine
 10
161.59806
 20
107.733476
 30
0.0
 11
161.542594
 21
107.654066
 31
0.0
  0
LINE
  5
64B
330
A
100
AcDbEntity
  8
0
 62
     7
100
AcDbLine
 10
161.542594
 20
107.654066
 30
0.0
 11
161.521924
 21
107.556742
 31
0.0
  0
LINE
  5
64C
330
A
100
AcDbEntity
  8
0
 62
     7
100
AcDbLine
 10
161.521924
 20
107.306801
 30
0.0
 11
161.542594
 21
107.209477
 31
0.0
  0
LINE
  5
64D
330
A
100
AcDbEntity
  8
0
 62
     7
100
AcDbLine
 10
161.542594
 20
107.209477
 30
0.0
 11
161.59806
 21
107.130067
 31
0.0
  0
LINE
  5
64E
330
A
100
AcDbEntity
  8
0
 62
     7
100
AcDbLine
 10
161.59806
 20
107.130067
 30
0.0
 11
161.680743
 21
107.076496
 31
0.0
  0
LINE
  5
64F
330
A
100
AcDbEntity
  8
0
 62
     7
100
AcDbLine
 10
161.680743
 20
107.076496
 30
0.0
 11
161.782029
 21
107.056859
 31
0.0
  0
LINE
  5
650
330
A
100
AcDbEntity
  8
0
 62
     7
100
AcDbLine
 10
162.640891
 20
107.858705
 30
0.0
 11
162.561998
 21
107.871452
 31
0.0
  0
LINE
  5
651
330
A
100
AcDbEntity
  8
0
 62
     7
100
AcDbLine
 10
162.981266
 20
107.932258
 30
0.0
 11
163.273755
 21
107.938976
 31
0.0
  0
LINE
  5
652
330
A
100
AcDbEntity
  8
0
 62
     7
100
AcDbLine
 10
162.695668
 20
107.933291
 30
0.0
 11
162.981266
 21
107.932258
 31
0.0
  0
LINE
  5
653
330
A
100
AcDbEntity
  8
0
 62
     7
100
AcDbLine
 10
162.457612
 20
107.959474
 30
0.0
 11
162.695668
 21
107.933291
 31
0.0
  0
LINE
  5
654
330
A
100
AcDbEntity
  8
0
 62
     7
100
AcDbLine
 10
162.745277
 20
108.166352
 30
0.0
 11
163.812568
 21
108.173414
 31
0.0
  0
LINE
  5
655
330
A
100
AcDbEntity
  8
0
 62
     7
100
AcDbLine
 10
162.735286
 20
108.173414
 30
0.0
 11
162.520312
 21
108.240422
 31
0.0
  0
LINE
  5
656
330
A
100
AcDbEntity
  8
0
 62
     7
100
AcDbLine
 10
162.348402
 20
108.41526
 30
0.0
 11
162.520312
 21
108.240422
 31
0.0
  0
LINE
  5
657
330
A
100
AcDbEntity
  8
0
 62
     7
100
AcDbLine
 10
162.196818
 20
108.655383
 30
0.0
 11
162.348402
 21
108.41526
 31
0.0
  0
LINE
  5
658
330
A
100
AcDbEntity
  8
0
 62
     7
100
AcDbLine
 10
162.180282
 20
108.755463
 30
0.0
 11
162.196818
 21
108.655383
 31
0.0
  0
LINE
  5
659
330
A
100
AcDbEntity
  8
0
 62
     7
100
AcDbLine
 10
162.173047
 20
108.852098
 30
0.0
 11
162.180282
 21
108.755463
 31
0.0
  0
LINE
  5
65A
330
A
100
AcDbEntity
  8
0
 62
     7
100
AcDbLine
 10
162.155477
 20
108.774756
 30
0.0
 11
162.158577
 21
108.861228
 31
0.0
  0
LINE
  5
65B
330
A
100
AcDbEntity
  8
0
 62
     7
100
AcDbLine
 10
162.176492
 20
108.943221
 30
0.0
 11
162.173047
 21
108.852098
 31
0.0
  0
LINE
  5
65C
330
A
100
AcDbEntity
  8
0
 62
     7
100
AcDbLine
 10
162.204742
 20
109.085331
 30
0.0
 11
162.158577
 21
108.861228
 31
0.0
  0
LINE
  5
65D
330
A
100
AcDbEntity
  8
0
 62
     7
100
AcDbLine
 10
162.204742
 20
109.085331
 30
0.0
 11
162.176492
 21
108.943221
 31
0.0
  0
LINE
  5
65E
330
A
100
AcDbEntity
  8
0
 62
     7
100
AcDbLine
 10
162.204742
 20
109.085331
 30
0.0
 11
162.254007
 21
109.162329
 31
0.0
  0
LINE
  5
65F
330
A
100
AcDbEntity
  8
0
 62
     7
100
AcDbLine
 10
162.252973
 20
109.16319
 30
0.0
 11
162.204742
 21
109.085331
 31
0.0
  0
LINE
  5
660
330
A
100
AcDbEntity
  8
0
 62
     7
100
AcDbLine
 10
162.252973
 20
109.16319
 30
0.0
 11
162.303616
 21
109.238638
 31
0.0
  0
LINE
  5
661
330
A
100
AcDbEntity
  8
0
 62
     7
100
AcDbLine
 10
162.303616
 20
109.238638
 30
0.0
 11
162.254007
 21
109.162329
 31
0.0
  0
LINE
  5
662
330
A
100
AcDbEntity
  8
0
 62
     7
100
AcDbLine
 10
162.303616
 20
109.238638
 30
0.0
 11
162.37803
 21
109.287731
 31
0.0
  0
LINE
  5
663
330
A
100
AcDbEntity
  8
0
 62
     7
100
AcDbLine
 10
162.37803
 20
109.287731
 30
0.0
 11
162.468981
 21
109.3022
 31
0.0
  0
LINE
  5
664
330
A
100
AcDbEntity
  8
0
 62
     7
100
AcDbLine
 10
162.326009
 20
107.870074
 30
0.0
 11
162.352881
 21
107.933808
 31
0.0
  0
LINE
  5
665
330
A
100
AcDbEntity
  8
0
 62
     7
100
AcDbLine
 10
162.249183
 20
107.751046
 30
0.0
 11
162.326009
 21
107.870074
 31
0.0
  0
LINE
  5
666
330
A
100
AcDbEntity
  8
0
 62
     7
100
AcDbLine
 10
162.177181
 20
108.248518
 30
0.0
 11
162.161334
 21
108.331372
 31
0.0
  0
LINE
  5
667
330
A
100
AcDbEntity
  8
0
 62
     7
100
AcDbLine
 10
162.161334
 20
108.331372
 30
0.0
 11
162.155477
 21
108.402513
 31
0.0
  0
LINE
  5
668
330
A
100
AcDbEntity
  8
0
 62
     7
100
AcDbLine
 10
162.155477
 20
108.402513
 30
0.0
 11
162.155477
 21
108.774756
 31
0.0
  0
LINE
  5
669
330
A
100
AcDbEntity
  8
0
 62
     7
100
AcDbLine
 10
162.405591
 20
107.902974
 30
0.0
 11
162.561998
 21
107.871452
 31
0.0
  0
LINE
  5
66A
330
A
100
AcDbEntity
  8
0
 62
     7
100
AcDbLine
 10
162.405591
 20
107.902974
 30
0.0
 11
162.338067
 21
107.942765
 31
0.0
  0
LINE
  5
66B
330
A
100
AcDbEntity
  8
0
 62
     7
100
AcDbLine
 10
162.292592
 20
108.006327
 30
0.0
 11
162.457612
 21
107.959474
 31
0.0
  0
LINE
  5
66C
330
A
100
AcDbEntity
  8
0
 62
     7
100
AcDbLine
 10
162.267442
 20
108.032338
 30
0.0
 11
162.338067
 21
107.942765
 31
0.0
  0
LINE
  5
66D
330
A
100
AcDbEntity
  8
0
 62
     7
100
AcDbLine
 10
162.267442
 20
108.032338
 30
0.0
 11
162.221278
 21
108.096761
 31
0.0
  0
LINE
  5
66E
330
A
100
AcDbEntity
  8
0
 62
     7
100
AcDbLine
 10
162.193373
 20
108.169108
 30
0.0
 11
162.221278
 21
108.096761
 31
0.0
  0
LINE
  5
66F
330
A
100
AcDbEntity
  8
0
 62
     7
100
AcDbLine
 10
162.193373
 20
108.169108
 30
0.0
 11
162.177181
 21
108.248518
 31
0.0
  0
LINE
  5
670
330
A
100
AcDbEntity
  8
0
 62
     7
100
AcDbLine
 10
162.468981
 20
109.3022
 30
0.0
 11
163.273755
 21
109.306334
 31
0.0
  0
LINE
  5
671
330
A
100
AcDbEntity
  8
0
 62
     7
100
AcDbLine
 10
163.99688
 20
94.80627199999998
 30
0.0
 11
163.479427
 21
94.80489399999999
 31
0.0
  0
LINE
  5
672
330
A
100
AcDbEntity
  8
0
 62
     7
100
AcDbLine
 10
164.680387
 20
94.80627199999998
 30
0.0
 11
163.99688
 21
94.80627199999998
 31
0.0
  0
LINE
  5
673
330
A
100
AcDbEntity
  8
0
 62
     7
100
AcDbLine
 10
166.097355
 20
94.80627199999998
 30
0.0
 11
166.000892
 21
94.80627199999998
 31
0.0
  0
LINE
  5
674
330
A
100
AcDbEntity
  8
0
 62
     7
100
AcDbLine
 10
166.000892
 20
94.80627199999998
 30
0.0
 11
165.717706
 21
94.80627199999998
 31
0.0
  0
LINE
  5
675
330
A
100
AcDbEntity
  8
0
 62
     7
100
AcDbLine
 10
165.717706
 20
94.80627199999998
 30
0.0
 11
165.267432
 21
94.80627199999998
 31
0.0
  0
LINE
  5
676
330
A
100
AcDbEntity
  8
0
 62
     7
100
AcDbLine
 10
165.267432
 20
94.80627199999998
 30
0.0
 11
164.680387
 21
94.80627199999998
 31
0.0
  0
LINE
  5
677
330
A
100
AcDbEntity
  8
0
 62
     7
100
AcDbLine
 10
166.015706
 20
95.795703
 30
0.0
 11
166.097355
 21
94.80627199999998
 31
0.0
  0
LINE
  5
678
330
A
100
AcDbEntity
  8
0
 62
     7
100
AcDbLine
 10
164.7131159999999
 20
98.393305
 30
0.0
 11
164.711738
 21
98.31820200000001
 31
0.0
  0
LINE
  5
679
330
A
100
AcDbEntity
  8
0
 62
     7
100
AcDbLine
 10
160.960718
 20
94.80627199999998
 30
0.0
 11
160.819813
 21
94.80627199999998
 31
0.0
  0
LINE
  5
67A
330
A
100
AcDbEntity
  8
0
 62
     7
100
AcDbLine
 10
160.819813
 20
94.80627199999998
 30
0.0
 11
160.536627
 21
94.80627199999998
 31
0.0
  0
LINE
  5
67B
330
A
100
AcDbEntity
  8
0
 62
     7
100
AcDbLine
 10
160.536627
 20
94.80627199999998
 30
0.0
 11
160.440164
 21
94.80627199999998
 31
0.0
  0
LINE
  5
67C
330
A
100
AcDbEntity
  8
0
 62
     7
100
AcDbLine
 10
161.270087
 20
94.80627199999998
 30
0.0
 11
160.819813
 21
94.80627199999998
 31
0.0
  0
LINE
  5
67D
330
A
100
AcDbEntity
  8
0
 62
     7
100
AcDbLine
 10
161.857132
 20
94.80627199999998
 30
0.0
 11
161.270087
 21
94.80627199999998
 31
0.0
  0
LINE
  5
67E
330
A
100
AcDbEntity
  8
0
 62
     7
100
AcDbLine
 10
163.064293
 20
94.80489399999999
 30
0.0
 11
162.540294
 21
94.80627199999998
 31
0.0
  0
LINE
  5
67F
330
A
100
AcDbEntity
  8
0
 62
     7
100
AcDbLine
 10
162.540294
 20
94.80627199999998
 30
0.0
 11
161.857132
 21
94.80627199999998
 31
0.0
  0
LINE
  5
680
330
A
100
AcDbEntity
  8
0
 62
     7
100
AcDbLine
 10
160.440164
 20
94.80627199999998
 30
0.0
 11
160.521124
 21
95.78950199999999
 31
0.0
  0
LINE
  5
681
330
A
100
AcDbEntity
  8
0
 62
     7
100
AcDbLine
 10
161.825092
 20
98.336117
 30
0.0
 11
161.824403
 21
98.394683
 31
0.0
  0
LINE
  5
682
330
A
100
AcDbEntity
  8
0
 62
     7
100
AcDbLine
 10
165.697724
 20
99.27146
 30
0.0
 11
165.585758
 21
100.169596
 31
0.0
  0
LINE
  5
683
330
A
100
AcDbEntity
  8
0
 62
     7
100
AcDbLine
 10
165.799699
 20
98.272382
 30
0.0
 11
165.697724
 21
99.27146
 31
0.0
  0
LINE
  5
684
330
A
100
AcDbEntity
  8
0
 62
     7
100
AcDbLine
 10
165.966097
 20
96.932585
 30
0.0
 11
165.799699
 21
98.272382
 31
0.0
  0
LINE
  5
685
330
A
100
AcDbEntity
  8
0
 62
     7
100
AcDbLine
 10
166.015706
 20
95.795703
 30
0.0
 11
166.05498
 21
95.87769599999999
 31
0.0
  0
LINE
  5
686
330
A
100
AcDbEntity
  8
0
 62
     7
100
AcDbLine
 10
166.06945
 20
95.91628100000001
 30
0.0
 11
166.05498
 21
95.87769599999999
 31
0.0
  0
LINE
  5
687
330
A
100
AcDbEntity
  8
0
 62
     7
100
AcDbLine
 10
166.05498
 20
95.87769599999999
 30
0.0
 11
166.079785
 21
96.07027700000001
 31
0.0
  0
LINE
  5
688
330
A
100
AcDbEntity
  8
0
 62
     7
100
AcDbLine
 10
166.06945
 20
95.91628100000001
 30
0.0
 11
166.094255
 21
96.108518
 31
0.0
  0
LINE
  5
689
330
A
100
AcDbEntity
  8
0
 62
     7
100
AcDbLine
 10
166.09391
 20
96.151926
 30
0.0
 11
166.094255
 21
96.108518
 31
0.0
  0
LINE
  5
68A
330
A
100
AcDbEntity
  8
0
 62
     7
100
AcDbLine
 10
166.079785
 20
96.07027700000001
 30
0.0
 11
166.020185
 21
96.47955500000001
 31
0.0
  0
LINE
  5
68B
330
A
100
AcDbEntity
  8
0
 62
     7
100
AcDbLine
 10
166.020185
 20
96.47955500000001
 30
0.0
 11
165.966097
 21
96.932585
 31
0.0
  0
LINE
  5
68C
330
A
100
AcDbEntity
  8
0
 62
     7
100
AcDbLine
 10
165.585758
 20
100.169596
 30
0.0
 11
165.515134
 21
100.73597
 31
0.0
  0
LINE
  5
68D
330
A
100
AcDbEntity
  8
0
 62
     7
100
AcDbLine
 10
165.515134
 20
100.73597
 30
0.0
 11
165.422461
 21
101.253768
 31
0.0
  0
LINE
  5
68E
330
A
100
AcDbEntity
  8
0
 62
     7
100
AcDbLine
 10
165.422461
 20
101.253768
 30
0.0
 11
165.330821
 21
101.690262
 31
0.0
  0
LINE
  5
68F
330
A
100
AcDbEntity
  8
0
 62
     7
100
AcDbLine
 10
165.330821
 20
101.690262
 30
0.0
 11
165.285002
 21
102.037527
 31
0.0
  0
LINE
  5
690
330
A
100
AcDbEntity
  8
0
 62
     7
100
AcDbLine
 10
165.285002
 20
102.037527
 30
0.0
 11
165.236426
 21
102.290053
 31
0.0
  0
LINE
  5
691
330
A
100
AcDbEntity
  8
0
 62
     7
100
AcDbLine
 10
165.236426
 20
102.290053
 30
0.0
 11
165.186472
 21
102.443359
 31
0.0
  0
LINE
  5
692
330
A
100
AcDbEntity
  8
0
 62
     7
100
AcDbLine
 10
165.186472
 20
102.443359
 30
0.0
 11
165.138585
 21
102.490213
 31
0.0
  0
LINE
  5
693
330
A
100
AcDbEntity
  8
0
 62
     7
100
AcDbLine
 10
165.138585
 20
102.490213
 30
0.0
 11
165.09311
 21
102.455073
 31
0.0
  0
LINE
  5
694
330
A
100
AcDbEntity
  8
0
 62
     7
100
AcDbLine
 10
165.079329
 20
102.453695
 30
0.0
 11
165.018696
 21
102.161206
 31
0.0
  0
LINE
  5
695
330
A
100
AcDbEntity
  8
0
 62
     7
100
AcDbLine
 10
165.018696
 20
102.161206
 30
0.0
 11
164.978733
 21
101.880431
 31
0.0
  0
LINE
  5
696
330
A
100
AcDbEntity
  8
0
 62
     7
100
AcDbLine
 10
164.978733
 20
101.880431
 30
0.0
 11
164.941526
 21
101.527653
 31
0.0
  0
LINE
  5
697
330
A
100
AcDbEntity
  8
0
 62
     7
100
AcDbLine
 10
164.941526
 20
101.527653
 30
0.0
 11
164.908108
 21
101.10804
 31
0.0
  0
LINE
  5
698
330
A
100
AcDbEntity
  8
0
 62
     7
100
AcDbLine
 10
164.908108
 20
101.10804
 30
0.0
 11
164.87848
 21
100.628828
 31
0.0
  0
LINE
  5
699
330
A
100
AcDbEntity
  8
0
 62
     7
100
AcDbLine
 10
164.87848
 20
100.628828
 30
0.0
 11
164.853676
 21
100.097938
 31
0.0
  0
LINE
  5
69A
330
A
100
AcDbEntity
  8
0
 62
     7
100
AcDbLine
 10
164.853676
 20
100.097938
 30
0.0
 11
164.834039
 21
99.52433
 31
0.0
  0
LINE
  5
69B
330
A
100
AcDbEntity
  8
0
 62
     7
100
AcDbLine
 10
164.834039
 20
99.52433
 30
0.0
 11
164.819569
 21
98.917304
 31
0.0
  0
LINE
  5
69C
330
A
100
AcDbEntity
  8
0
 62
     7
100
AcDbLine
 10
164.753768
 20
98.28822999999999
 30
0.0
 11
164.733097
 21
98.28822999999999
 31
0.0
  0
LINE
  5
69D
330
A
100
AcDbEntity
  8
0
 62
     7
100
AcDbLine
 10
164.708293
 20
98.323025
 30
0.0
 11
164.709671
 21
98.394683
 31
0.0
  0
LINE
  5
69E
330
A
100
AcDbEntity
  8
0
 62
     7
100
AcDbLine
 10
164.794765
 20
98.32853700000001
 30
0.0
 11
164.79442
 21
98.29133
 31
0.0
  0
LINE
  5
69F
330
A
100
AcDbEntity
  8
0
 62
     7
100
AcDbLine
 10
164.79442
 20
98.29133
 30
0.0
 11
164.753768
 21
98.28822999999999
 31
0.0
  0
LINE
  5
6A0
330
A
100
AcDbEntity
  8
0
 62
     7
100
AcDbLine
 10
164.819569
 20
98.917304
 30
0.0
 11
164.810956
 21
98.29890999999999
 31
0.0
  0
LINE
  5
6A1
330
A
100
AcDbEntity
  8
0
 62
     7
100
AcDbLine
 10
164.810956
 20
98.29890999999999
 30
0.0
 11
164.79442
 21
98.29133
 31
0.0
  0
LINE
  5
6A2
330
A
100
AcDbEntity
  8
0
 62
     7
100
AcDbLine
 10
164.810956
 20
98.30752199999999
 30
0.0
 11
164.810956
 21
98.29890999999999
 31
0.0
  0
LINE
  5
6A3
330
A
100
AcDbEntity
  8
0
 62
     7
100
AcDbLine
 10
163.266865
 20
98.56831600000001
 30
0.0
 11
163.664773
 21
98.559703
 31
0.0
  0
LINE
  5
6A4
330
A
100
AcDbEntity
  8
0
 62
     7
100
AcDbLine
 10
163.754001
 20
104.021558
 30
0.0
 11
163.266865
 21
104.074268
 31
0.0
  0
LINE
  5
6A5
330
A
100
AcDbEntity
  8
0
 62
     7
100
AcDbLine
 10
163.664773
 20
98.559703
 30
0.0
 11
164.037533
 21
98.533521
 31
0.0
  0
LINE
  5
6A6
330
A
100
AcDbEntity
  8
0
 62
     7
100
AcDbLine
 10
164.208065
 20
103.87204
 30
0.0
 11
163.754001
 21
104.021558
 31
0.0
  0
LINE
  5
6A7
330
A
100
AcDbEntity
  8
0
 62
     7
100
AcDbLine
 10
164.037533
 20
98.533521
 30
0.0
 11
164.358271
 21
98.491835
 31
0.0
  0
LINE
  5
6A8
330
A
100
AcDbEntity
  8
0
 62
     7
100
AcDbLine
 10
164.598739
 20
103.634329
 30
0.0
 11
164.208065
 21
103.87204
 31
0.0
  0
LINE
  5
6A9
330
A
100
AcDbEntity
  8
0
 62
     7
100
AcDbLine
 10
164.358271
 20
98.491835
 30
0.0
 11
164.604595
 21
98.437402
 31
0.0
  0
LINE
  5
6AA
330
A
100
AcDbEntity
  8
0
 62
     7
100
AcDbLine
 10
164.899151
 20
103.323581
 30
0.0
 11
164.598739
 21
103.634329
 31
0.0
  0
LINE
  5
6AB
330
A
100
AcDbEntity
  8
0
 62
     7
100
AcDbLine
 10
164.899151
 20
103.323581
 30
0.0
 11
164.940148
 21
103.267771
 31
0.0
  0
LINE
  5
6AC
330
A
100
AcDbEntity
  8
0
 62
     7
100
AcDbLine
 10
164.604595
 20
98.437402
 30
0.0
 11
164.759969
 21
98.37401300000001
 31
0.0
  0
LINE
  5
6AD
330
A
100
AcDbEntity
  8
0
 62
     7
100
AcDbLine
 10
165.136518
 20
102.904313
 30
0.0
 11
164.940148
 21
103.267771
 31
0.0
  0
LINE
  5
6AE
330
A
100
AcDbEntity
  8
0
 62
     7
100
AcDbLine
 10
165.136518
 20
102.904313
 30
0.0
 11
165.185438
 21
102.749628
 31
0.0
  0
LINE
  5
6AF
330
A
100
AcDbEntity
  8
0
 62
     7
100
AcDbLine
 10
165.185438
 20
102.749628
 30
0.0
 11
165.231603
 21
102.498825
 31
0.0
  0
LINE
  5
6B0
330
A
100
AcDbEntity
  8
0
 62
     7
100
AcDbLine
 10
164.759969
 20
98.37401300000001
 30
0.0
 11
164.810956
 21
98.30752199999999
 31
0.0
  0
LINE
  5
6B1
330
A
100
AcDbEntity
  8
0
 62
     7
100
AcDbLine
 10
165.319108
 20
101.812907
 30
0.0
 11
165.231603
 21
102.498825
 31
0.0
  0
LINE
  5
6B2
330
A
100
AcDbEntity
  8
0
 62
     7
100
AcDbLine
 10
166.09391
 20
96.151926
 30
0.0
 11
166.103901
 21
100.25159
 31
0.0
  0
LINE
  5
6B3
330
A
100
AcDbEntity
  8
0
 62
     7
100
AcDbLine
 10
166.09391
 20
102.056475
 30
0.0
 11
166.103901
 21
100.25159
 31
0.0
  0
LINE
  5
6B4
330
A
100
AcDbEntity
  8
0
 62
     7
100
AcDbLine
 10
165.265365
 20
102.306245
 30
0.0
 11
165.385598
 21
102.306245
 31
0.0
  0
LINE
  5
6B5
330
A
100
AcDbEntity
  8
0
 62
     7
100
AcDbLine
 10
165.385598
 20
102.306245
 30
0.0
 11
165.580246
 21
102.306245
 31
0.0
  0
LINE
  5
6B6
330
A
100
AcDbEntity
  8
0
 62
     7
100
AcDbLine
 10
165.580246
 20
102.306245
 30
0.0
 11
165.735276
 21
102.306245
 31
0.0
  0
LINE
  5
6B7
330
A
100
AcDbEntity
  8
0
 62
     7
100
AcDbLine
 10
165.735276
 20
102.306245
 30
0.0
 11
165.84793
 21
102.306245
 31
0.0
  0
LINE
  5
6B8
330
A
100
AcDbEntity
  8
0
 62
     7
100
AcDbLine
 10
165.84793
 20
102.306245
 30
0.0
 11
165.916488
 21
102.306245
 31
0.0
  0
LINE
  5
6B9
330
A
100
AcDbEntity
  8
0
 62
     7
100
AcDbLine
 10
165.916488
 20
102.306245
 30
0.0
 11
165.939225
 21
102.306245
 31
0.0
  0
LINE
  5
6BA
330
A
100
AcDbEntity
  8
0
 62
     7
100
AcDbLine
 10
166.09391
 20
102.056475
 30
0.0
 11
166.09391
 21
102.156383
 31
0.0
  0
LINE
  5
6BB
330
A
100
AcDbEntity
  8
0
 62
     7
100
AcDbLine
 10
166.09391
 20
102.156383
 30
0.0
 11
166.081508
 21
102.214605
 31
0.0
  0
LINE
  5
6BC
330
A
100
AcDbEntity
  8
0
 62
     7
100
AcDbLine
 10
166.081508
 20
102.214605
 30
0.0
 11
166.048435
 21
102.262492
 31
0.0
  0
LINE
  5
6BD
330
A
100
AcDbEntity
  8
0
 62
     7
100
AcDbLine
 10
166.048435
 20
102.262492
 30
0.0
 11
165.9995139999999
 21
102.294531
 31
0.0
  0
LINE
  5
6BE
330
A
100
AcDbEntity
  8
0
 62
     7
100
AcDbLine
 10
165.9995139999999
 20
102.294531
 30
0.0
 11
165.939225
 21
102.306245
 31
0.0
  0
LINE
  5
6BF
330
A
100
AcDbEntity
  8
0
 62
     7
100
AcDbLine
 10
160.947971
 20
100.169596
 30
0.0
 11
160.836005
 21
99.27146
 31
0.0
  0
LINE
  5
6C0
330
A
100
AcDbEntity
  8
0
 62
     7
100
AcDbLine
 10
160.836005
 20
99.27146
 30
0.0
 11
160.73403
 21
98.272382
 31
0.0
  0
LINE
  5
6C1
330
A
100
AcDbEntity
  8
0
 62
     7
100
AcDbLine
 10
160.73403
 20
98.272382
 30
0.0
 11
160.567632
 21
96.932585
 31
0.0
  0
LINE
  5
6C2
330
A
100
AcDbEntity
  8
0
 62
     7
100
AcDbLine
 10
160.478749
 20
95.87769599999999
 30
0.0
 11
160.521124
 21
95.78950199999999
 31
0.0
  0
LINE
  5
6C3
330
A
100
AcDbEntity
  8
0
 62
     7
100
AcDbLine
 10
160.478749
 20
95.87769599999999
 30
0.0
 11
160.46428
 21
95.91628100000001
 31
0.0
  0
LINE
  5
6C4
330
A
100
AcDbEntity
  8
0
 62
     7
100
AcDbLine
 10
160.454289
 20
96.07027700000001
 30
0.0
 11
160.478749
 21
95.87769599999999
 31
0.0
  0
LINE
  5
6C5
330
A
100
AcDbEntity
  8
0
 62
     7
100
AcDbLine
 10
160.439475
 20
96.108518
 30
0.0
 11
160.46428
 21
95.91628100000001
 31
0.0
  0
LINE
  5
6C6
330
A
100
AcDbEntity
  8
0
 62
     7
100
AcDbLine
 10
160.439475
 20
96.108518
 30
0.0
 11
160.440164
 21
96.151926
 31
0.0
  0
LINE
  5
6C7
330
A
100
AcDbEntity
  8
0
 62
     7
100
AcDbLine
 10
160.513544
 20
96.47955500000001
 30
0.0
 11
160.454289
 21
96.07027700000001
 31
0.0
  0
LINE
  5
6C8
330
A
100
AcDbEntity
  8
0
 62
     7
100
AcDbLine
 10
160.567632
 20
96.932585
 30
0.0
 11
160.513544
 21
96.47955500000001
 31
0.0
  0
LINE
  5
6C9
330
A
100
AcDbEntity
  8
0
 62
     7
100
AcDbLine
 10
161.018595
 20
100.73597
 30
0.0
 11
160.947971
 21
100.169596
 31
0.0
  0
LINE
  5
6CA
330
A
100
AcDbEntity
  8
0
 62
     7
100
AcDbLine
 10
161.111613
 20
101.253768
 30
0.0
 11
161.018595
 21
100.73597
 31
0.0
  0
LINE
  5
6CB
330
A
100
AcDbEntity
  8
0
 62
     7
100
AcDbLine
 10
161.188783
 20
101.768465
 30
0.0
 11
161.111613
 21
101.253768
 31
0.0
  0
LINE
  5
6CC
330
A
100
AcDbEntity
  8
0
 62
     7
100
AcDbLine
 10
161.249072
 20
102.037527
 30
0.0
 11
161.188783
 21
101.768465
 31
0.0
  0
LINE
  5
6CD
330
A
100
AcDbEntity
  8
0
 62
     7
100
AcDbLine
 10
161.234603
 20
102.115386
 30
0.0
 11
161.188783
 21
101.768465
 31
0.0
  0
LINE
  5
6CE
330
A
100
AcDbEntity
  8
0
 62
     7
100
AcDbLine
 10
161.297304
 20
102.290053
 30
0.0
 11
161.249072
 21
102.037527
 31
0.0
  0
LINE
  5
6CF
330
A
100
AcDbEntity
  8
0
 62
     7
100
AcDbLine
 10
161.347602
 20
102.443359
 30
0.0
 11
161.297304
 21
102.290053
 31
0.0
  0
LINE
  5
6D0
330
A
100
AcDbEntity
  8
0
 62
     7
100
AcDbLine
 10
161.395144
 20
102.490213
 30
0.0
 11
161.347602
 21
102.443359
 31
0.0
  0
LINE
  5
6D1
330
A
100
AcDbEntity
  8
0
 62
     7
100
AcDbLine
 10
161.44062
 20
102.455073
 30
0.0
 11
161.395144
 21
102.490213
 31
0.0
  0
LINE
  5
6D2
330
A
100
AcDbEntity
  8
0
 62
     7
100
AcDbLine
 10
161.472659
 20
102.364811
 30
0.0
 11
161.442687
 21
102.452317
 31
0.0
  0
LINE
  5
6D3
330
A
100
AcDbEntity
  8
0
 62
     7
100
AcDbLine
 10
161.515034
 20
102.161206
 30
0.0
 11
161.472659
 21
102.364811
 31
0.0
  0
LINE
  5
6D4
330
A
100
AcDbEntity
  8
0
 62
     7
100
AcDbLine
 10
161.554997
 20
101.880431
 30
0.0
 11
161.515034
 21
102.161206
 31
0.0
  0
LINE
  5
6D5
330
A
100
AcDbEntity
  8
0
 62
     7
100
AcDbLine
 10
161.592204
 20
101.527653
 30
0.0
 11
161.554997
 21
101.880431
 31
0.0
  0
LINE
  5
6D6
330
A
100
AcDbEntity
  8
0
 62
     7
100
AcDbLine
 10
161.625966
 20
101.10804
 30
0.0
 11
161.592204
 21
101.527653
 31
0.0
  0
LINE
  5
6D7
330
A
100
AcDbEntity
  8
0
 62
     7
100
AcDbLine
 10
161.655249
 20
100.628828
 30
0.0
 11
161.625966
 21
101.10804
 31
0.0
  0
LINE
  5
6D8
330
A
100
AcDbEntity
  8
0
 62
     7
100
AcDbLine
 10
161.680054
 20
100.097938
 30
0.0
 11
161.655249
 21
100.628828
 31
0.0
  0
LINE
  5
6D9
330
A
100
AcDbEntity
  8
0
 62
     7
100
AcDbLine
 10
161.700035
 20
99.52433
 30
0.0
 11
161.680054
 21
100.097938
 31
0.0
  0
LINE
  5
6DA
330
A
100
AcDbEntity
  8
0
 62
     7
100
AcDbLine
 10
161.71416
 20
98.917304
 30
0.0
 11
161.700035
 21
99.52433
 31
0.0
  0
LINE
  5
6DB
330
A
100
AcDbEntity
  8
0
 62
     7
100
AcDbLine
 10
161.824403
 20
98.394683
 30
0.0
 11
161.825092
 21
98.336117
 31
0.0
  0
LINE
  5
6DC
330
A
100
AcDbEntity
  8
0
 62
     7
100
AcDbLine
 10
161.786852
 20
98.28822999999999
 30
0.0
 11
161.779961
 21
98.28822999999999
 31
0.0
  0
LINE
  5
6DD
330
A
100
AcDbEntity
  8
0
 62
     7
100
AcDbLine
 10
161.779961
 20
98.28822999999999
 30
0.0
 11
161.739654
 21
98.29133
 31
0.0
  0
LINE
  5
6DE
330
A
100
AcDbEntity
  8
0
 62
     7
100
AcDbLine
 10
161.739654
 20
98.29133
 30
0.0
 11
161.7389649999999
 21
98.32853700000001
 31
0.0
  0
LINE
  5
6DF
330
A
100
AcDbEntity
  8
0
 62
     7
100
AcDbLine
 10
161.739654
 20
98.29133
 30
0.0
 11
161.722773
 21
98.29890999999999
 31
0.0
  0
LINE
  5
6E0
330
A
100
AcDbEntity
  8
0
 62
     7
100
AcDbLine
 10
161.722773
 20
98.29890999999999
 30
0.0
 11
161.71416
 21
98.917304
 31
0.0
  0
LINE
  5
6E1
330
A
100
AcDbEntity
  8
0
 62
     7
100
AcDbLine
 10
161.722773
 20
98.29890999999999
 30
0.0
 11
161.722773
 21
98.30752199999999
 31
0.0
  0
LINE
  5
6E2
330
A
100
AcDbEntity
  8
0
 62
     7
100
AcDbLine
 10
162.868956
 20
98.559703
 30
0.0
 11
163.266865
 21
98.56831600000001
 31
0.0
  0
LINE
  5
6E3
330
A
100
AcDbEntity
  8
0
 62
     7
100
AcDbLine
 10
163.266865
 20
104.074268
 30
0.0
 11
162.780073
 21
104.021558
 31
0.0
  0
LINE
  5
6E4
330
A
100
AcDbEntity
  8
0
 62
     7
100
AcDbLine
 10
162.496197
 20
98.533521
 30
0.0
 11
162.868956
 21
98.559703
 31
0.0
  0
LINE
  5
6E5
330
A
100
AcDbEntity
  8
0
 62
     7
100
AcDbLine
 10
162.780073
 20
104.021558
 30
0.0
 11
162.325665
 21
103.87204
 31
0.0
  0
LINE
  5
6E6
330
A
100
AcDbEntity
  8
0
 62
     7
100
AcDbLine
 10
162.175458
 20
98.491835
 30
0.0
 11
162.496197
 21
98.533521
 31
0.0
  0
LINE
  5
6E7
330
A
100
AcDbEntity
  8
0
 62
     7
100
AcDbLine
 10
162.325665
 20
103.87204
 30
0.0
 11
161.934991
 21
103.634329
 31
0.0
  0
LINE
  5
6E8
330
A
100
AcDbEntity
  8
0
 62
     7
100
AcDbLine
 10
161.929134
 20
98.437402
 30
0.0
 11
162.175458
 21
98.491835
 31
0.0
  0
LINE
  5
6E9
330
A
100
AcDbEntity
  8
0
 62
     7
100
AcDbLine
 10
161.934991
 20
103.634329
 30
0.0
 11
161.634923
 21
103.323581
 31
0.0
  0
LINE
  5
6EA
330
A
100
AcDbEntity
  8
0
 62
     7
100
AcDbLine
 10
161.593926
 20
103.267771
 30
0.0
 11
161.634923
 21
103.323581
 31
0.0
  0
LINE
  5
6EB
330
A
100
AcDbEntity
  8
0
 62
     7
100
AcDbLine
 10
161.77376
 20
98.37401300000001
 30
0.0
 11
161.929134
 21
98.437402
 31
0.0
  0
LINE
  5
6EC
330
A
100
AcDbEntity
  8
0
 62
     7
100
AcDbLine
 10
161.593926
 20
103.267771
 30
0.0
 11
161.397211
 21
102.904313
 31
0.0
  0
LINE
  5
6ED
330
A
100
AcDbEntity
  8
0
 62
     7
100
AcDbLine
 10
161.348636
 20
102.749628
 30
0.0
 11
161.397211
 21
102.904313
 31
0.0
  0
LINE
  5
6EE
330
A
100
AcDbEntity
  8
0
 62
     7
100
AcDbLine
 10
161.302127
 20
102.498825
 30
0.0
 11
161.348636
 21
102.749628
 31
0.0
  0
LINE
  5
6EF
330
A
100
AcDbEntity
  8
0
 62
     7
100
AcDbLine
 10
161.722773
 20
98.30752199999999
 30
0.0
 11
161.77376
 21
98.37401300000001
 31
0.0
  0
LINE
  5
6F0
330
A
100
AcDbEntity
  8
0
 62
     7
100
AcDbLine
 10
161.302127
 20
102.498825
 30
0.0
 11
161.234603
 21
102.115386
 31
0.0
  0
LINE
  5
6F1
330
A
100
AcDbEntity
  8
0
 62
     7
100
AcDbLine
 10
160.429829
 20
100.25159
 30
0.0
 11
160.440164
 21
96.151926
 31
0.0
  0
LINE
  5
6F2
330
A
100
AcDbEntity
  8
0
 62
     7
100
AcDbLine
 10
160.429829
 20
100.25159
 30
0.0
 11
160.440164
 21
102.056475
 31
0.0
  0
LINE
  5
6F3
330
A
100
AcDbEntity
  8
0
 62
     7
100
AcDbLine
 10
160.697512
 20
102.306245
 30
0.0
 11
160.685799
 21
102.306245
 31
0.0
  0
LINE
  5
6F4
330
A
100
AcDbEntity
  8
0
 62
     7
100
AcDbLine
 10
161.266642
 20
102.307278
 30
0.0
 11
160.598983
 21
102.306245
 31
0.0
  0
LINE
  5
6F5
330
A
100
AcDbEntity
  8
0
 62
     7
100
AcDbLine
 10
160.440164
 20
102.156383
 30
0.0
 11
160.440164
 21
102.056475
 31
0.0
  0
LINE
  5
6F6
330
A
100
AcDbEntity
  8
0
 62
     7
100
AcDbLine
 10
160.452222
 20
102.214605
 30
0.0
 11
160.440164
 21
102.156383
 31
0.0
  0
LINE
  5
6F7
330
A
100
AcDbEntity
  8
0
 62
     7
100
AcDbLine
 10
160.485295
 20
102.262492
 30
0.0
 11
160.452222
 21
102.214605
 31
0.0
  0
LINE
  5
6F8
330
A
100
AcDbEntity
  8
0
 62
     7
100
AcDbLine
 10
160.534559
 20
102.294531
 30
0.0
 11
160.485295
 21
102.262492
 31
0.0
  0
LINE
  5
6F9
330
A
100
AcDbEntity
  8
0
 62
     7
100
AcDbLine
 10
160.594504
 20
102.306245
 30
0.0
 11
160.534559
 21
102.294531
 31
0.0
  0
LINE
  5
6FA
330
A
100
AcDbEntity
  8
0
 62
     7
100
AcDbLine
 10
166.017773
 20
104.048774
 30
0.0
 11
165.924411
 21
104.048774
 31
0.0
  0
LINE
  5
6FB
330
A
100
AcDbEntity
  8
0
 62
     7
100
AcDbLine
 10
165.924411
 20
104.048774
 30
0.0
 11
165.650182
 21
104.048774
 31
0.0
  0
LINE
  5
6FC
330
A
100
AcDbEntity
  8
0
 62
     7
100
AcDbLine
 10
165.650182
 20
104.048774
 30
0.0
 11
165.214033
 21
104.048774
 31
0.0
  0
LINE
  5
6FD
330
A
100
AcDbEntity
  8
0
 62
     7
100
AcDbLine
 10
165.214033
 20
104.048774
 30
0.0
 11
164.645936
 21
104.048774
 31
0.0
  0
LINE
  5
6FE
330
A
100
AcDbEntity
  8
0
 62
     7
100
AcDbLine
 10
164.645936
 20
104.048774
 30
0.0
 11
163.984134
 21
104.048774
 31
0.0
  0
LINE
  5
6FF
330
A
100
AcDbEntity
  8
0
 62
     7
100
AcDbLine
 10
163.984134
 20
104.048774
 30
0.0
 11
163.502509
 21
104.048774
 31
0.0
  0
LINE
  5
700
330
A
100
AcDbEntity
  8
0
 62
     7
100
AcDbLine
 10
163.031565
 20
104.048774
 30
0.0
 11
162.563721
 21
104.048774
 31
0.0
  0
LINE
  5
701
330
A
100
AcDbEntity
  8
0
 62
     7
100
AcDbLine
 10
162.563721
 20
104.048774
 30
0.0
 11
161.901918
 21
104.048774
 31
0.0
  0
LINE
  5
702
330
A
100
AcDbEntity
  8
0
 62
     7
100
AcDbLine
 10
161.901918
 20
104.048774
 30
0.0
 11
161.3334769999999
 21
104.048774
 31
0.0
  0
LINE
  5
703
330
A
100
AcDbEntity
  8
0
 62
     7
100
AcDbLine
 10
161.3334769999999
 20
104.048774
 30
0.0
 11
160.897673
 21
104.048774
 31
0.0
  0
LINE
  5
704
330
A
100
AcDbEntity
  8
0
 62
     7
100
AcDbLine
 10
160.897673
 20
104.048774
 30
0.0
 11
160.6234429999999
 21
104.048774
 31
0.0
  0
LINE
  5
705
330
A
100
AcDbEntity
  8
0
 62
     7
100
AcDbLine
 10
160.6234429999999
 20
104.048774
 30
0.0
 11
160.530081
 21
104.048774
 31
0.0
  0
LINE
  5
706
330
A
100
AcDbEntity
  8
0
 62
     7
100
AcDbLine
 10
161.470592
 20
107.048763
 30
0.0
 11
161.531915
 21
107.048763
 31
0.0
  0
LINE
  5
707
330
A
100
AcDbEntity
  8
0
 62
     7
100
AcDbLine
 10
161.531915
 20
107.048763
 30
0.0
 11
161.712093
 21
107.048763
 31
0.0
  0
LINE
  5
708
330
A
100
AcDbEntity
  8
0
 62
     7
100
AcDbLine
 10
161.712093
 20
107.048763
 30
0.0
 11
161.998725
 21
107.048763
 31
0.0
  0
LINE
  5
709
330
A
100
AcDbEntity
  8
0
 62
     7
100
AcDbLine
 10
161.998725
 20
107.048763
 30
0.0
 11
162.372173
 21
107.048763
 31
0.0
  0
LINE
  5
70A
330
A
100
AcDbEntity
  8
0
 62
     7
100
AcDbLine
 10
162.372173
 20
107.048763
 30
0.0
 11
162.807289
 21
107.048763
 31
0.0
  0
LINE
  5
70B
330
A
100
AcDbEntity
  8
0
 62
     7
100
AcDbLine
 10
162.807289
 20
107.048763
 30
0.0
 11
163.273755
 21
107.048763
 31
0.0
  0
LINE
  5
70C
330
A
100
AcDbEntity
  8
0
 62
     7
100
AcDbLine
 10
163.273755
 20
107.048763
 30
0.0
 11
163.740565
 21
107.048763
 31
0.0
  0
LINE
  5
70D
330
A
100
AcDbEntity
  8
0
 62
     7
100
AcDbLine
 10
163.740565
 20
107.048763
 30
0.0
 11
164.175681
 21
107.048763
 31
0.0
  0
LINE
  5
70E
330
A
100
AcDbEntity
  8
0
 62
     7
100
AcDbLine
 10
164.175681
 20
107.048763
 30
0.0
 11
164.549129
 21
107.048763
 31
0.0
  0
LINE
  5
70F
330
A
100
AcDbEntity
  8
0
 62
     7
100
AcDbLine
 10
164.549129
 20
107.048763
 30
0.0
 11
164.835761
 21
107.048763
 31
0.0
  0
LINE
  5
710
330
A
100
AcDbEntity
  8
0
 62
     7
100
AcDbLine
 10
164.835761
 20
107.048763
 30
0.0
 11
165.01594
 21
107.048763
 31
0.0
  0
LINE
  5
711
330
A
100
AcDbEntity
  8
0
 62
     7
100
AcDbLine
 10
165.01594
 20
107.048763
 30
0.0
 11
165.077262
 21
107.048763
 31
0.0
  0
LINE
  5
712
330
A
100
AcDbEntity
  8
0
 62
     7
100
AcDbLine
 10
160.369195
 20
104.102173
 30
0.0
 11
160.257918
 21
104.186578
 31
0.0
  0
LINE
  5
713
330
A
100
AcDbEntity
  8
0
 62
     7
100
AcDbLine
 10
166.289936
 20
104.186578
 30
0.0
 11
166.178659
 21
104.102173
 31
0.0
  0
LINE
  5
714
330
A
100
AcDbEntity
  8
0
 62
     7
100
AcDbLine
 10
160.257918
 20
104.186578
 30
0.0
 11
160.128383
 21
104.366239
 31
0.0
  0
LINE
  5
715
330
A
100
AcDbEntity
  8
0
 62
     7
100
AcDbLine
 10
166.419472
 20
104.366239
 30
0.0
 11
166.289936
 21
104.186578
 31
0.0
  0
LINE
  5
716
330
A
100
AcDbEntity
  8
0
 62
     7
100
AcDbLine
 10
160.128383
 20
104.366239
 30
0.0
 11
160.057758
 21
104.57484
 31
0.0
  0
LINE
  5
717
330
A
100
AcDbEntity
  8
0
 62
     7
100
AcDbLine
 10
166.489752
 20
104.57484
 30
0.0
 11
166.419472
 21
104.366239
 31
0.0
  0
LINE
  5
718
330
A
100
AcDbEntity
  8
0
 62
     7
100
AcDbLine
 10
160.057758
 20
104.57484
 30
0.0
 11
160.053624
 21
104.798771
 31
0.0
  0
LINE
  5
719
330
A
100
AcDbEntity
  8
0
 62
     7
100
AcDbLine
 10
166.49423
 20
104.798771
 30
0.0
 11
166.489752
 21
104.57484
 31
0.0
  0
LINE
  5
71A
330
A
100
AcDbEntity
  8
0
 62
     7
100
AcDbLine
 10
160.053624
 20
104.798771
 30
0.0
 11
160.162489
 21
105.086781
 31
0.0
  0
LINE
  5
71B
330
A
100
AcDbEntity
  8
0
 62
     7
100
AcDbLine
 10
166.385365
 20
105.086781
 30
0.0
 11
166.49423
 21
104.798771
 31
0.0
  0
LINE
  5
71C
330
A
100
AcDbEntity
  8
0
 62
     7
100
AcDbLine
 10
160.162489
 20
105.086781
 30
0.0
 11
160.368161
 21
105.315191
 31
0.0
  0
LINE
  5
71D
330
A
100
AcDbEntity
  8
0
 62
     7
100
AcDbLine
 10
166.179693
 20
105.315191
 30
0.0
 11
166.385365
 21
105.086781
 31
0.0
  0
LINE
  5
71E
330
A
100
AcDbEntity
  8
0
 62
     7
100
AcDbLine
 10
160.368161
 20
105.315191
 30
0.0
 11
160.622754
 21
105.522413
 31
0.0
  0
LINE
  5
71F
330
A
100
AcDbEntity
  8
0
 62
     7
100
AcDbLine
 10
165.9251
 20
105.522413
 30
0.0
 11
166.179693
 21
105.315191
 31
0.0
  0
LINE
  5
720
330
A
100
AcDbEntity
  8
0
 62
     7
100
AcDbLine
 10
160.622754
 20
105.522413
 30
0.0
 11
160.878035
 21
105.698802
 31
0.0
  0
LINE
  5
721
330
A
100
AcDbEntity
  8
0
 62
     7
100
AcDbLine
 10
165.669819
 20
105.698802
 30
0.0
 11
165.9251
 21
105.522413
 31
0.0
  0
LINE
  5
722
330
A
100
AcDbEntity
  8
0
 62
     7
100
AcDbLine
 10
160.878035
 20
105.698802
 30
0.0
 11
161.101622
 21
105.815936
 31
0.0
  0
LINE
  5
723
330
A
100
AcDbEntity
  8
0
 62
     7
100
AcDbLine
 10
165.446232
 20
105.815936
 30
0.0
 11
165.669819
 21
105.698802
 31
0.0
  0
LINE
  5
724
330
A
100
AcDbEntity
  8
0
 62
     7
100
AcDbLine
 10
161.101622
 20
105.815936
 30
0.0
 11
161.405135
 21
105.951328
 31
0.0
  0
LINE
  5
725
330
A
100
AcDbEntity
  8
0
 62
     7
100
AcDbLine
 10
165.142719
 20
105.951328
 30
0.0
 11
165.446232
 21
105.815936
 31
0.0
  0
LINE
  5
726
330
A
100
AcDbEntity
  8
0
 62
     7
100
AcDbLine
 10
161.405135
 20
105.951328
 30
0.0
 11
161.650081
 21
106.078624
 31
0.0
  0
LINE
  5
727
330
A
100
AcDbEntity
  8
0
 62
     7
100
AcDbLine
 10
164.897773
 20
106.078624
 30
0.0
 11
165.142719
 21
105.951328
 31
0.0
  0
LINE
  5
728
330
A
100
AcDbEntity
  8
0
 62
     7
100
AcDbLine
 10
164.897773
 20
106.078624
 30
0.0
 11
164.842307
 21
106.078624
 31
0.0
  0
LINE
  5
729
330
A
100
AcDbEntity
  8
0
 62
     7
100
AcDbLine
 10
164.842307
 20
106.078624
 30
0.0
 11
164.680043
 21
106.078624
 31
0.0
  0
LINE
  5
72A
330
A
100
AcDbEntity
  8
0
 62
     7
100
AcDbLine
 10
164.680043
 20
106.078624
 30
0.0
 11
164.422005
 21
106.078624
 31
0.0
  0
LINE
  5
72B
330
A
100
AcDbEntity
  8
0
 62
     7
100
AcDbLine
 10
164.422005
 20
106.078624
 30
0.0
 11
164.085764
 21
106.078624
 31
0.0
  0
LINE
  5
72C
330
A
100
AcDbEntity
  8
0
 62
     7
100
AcDbLine
 10
164.085764
 20
106.078624
 30
0.0
 11
163.694057
 21
106.078624
 31
0.0
  0
LINE
  5
72D
330
A
100
AcDbEntity
  8
0
 62
     7
100
AcDbLine
 10
163.694057
 20
106.078624
 30
0.0
 11
163.273755
 21
106.078624
 31
0.0
  0
LINE
  5
72E
330
A
100
AcDbEntity
  8
0
 62
     7
100
AcDbLine
 10
163.273755
 20
106.078624
 30
0.0
 11
162.853798
 21
106.078624
 31
0.0
  0
LINE
  5
72F
330
A
100
AcDbEntity
  8
0
 62
     7
100
AcDbLine
 10
162.853798
 20
106.078624
 30
0.0
 11
162.46209
 21
106.078624
 31
0.0
  0
LINE
  5
730
330
A
100
AcDbEntity
  8
0
 62
     7
100
AcDbLine
 10
162.46209
 20
106.078624
 30
0.0
 11
162.125849
 21
106.078624
 31
0.0
  0
LINE
  5
731
330
A
100
AcDbEntity
  8
0
 62
     7
100
AcDbLine
 10
162.125849
 20
106.078624
 30
0.0
 11
161.867467
 21
106.078624
 31
0.0
  0
LINE
  5
732
330
A
100
AcDbEntity
  8
0
 62
     7
100
AcDbLine
 10
161.867467
 20
106.078624
 30
0.0
 11
161.705547
 21
106.078624
 31
0.0
  0
LINE
  5
733
330
A
100
AcDbEntity
  8
0
 62
     7
100
AcDbLine
 10
161.705547
 20
106.078624
 30
0.0
 11
161.650081
 21
106.078624
 31
0.0
  0
LINE
  5
734
330
A
100
AcDbEntity
  8
0
 62
     7
100
AcDbLine
 10
161.650081
 20
106.078624
 30
0.0
 11
161.728285
 21
106.198858
 31
0.0
  0
LINE
  5
735
330
A
100
AcDbEntity
  8
0
 62
     7
100
AcDbLine
 10
164.819569
 20
106.198858
 30
0.0
 11
164.897773
 21
106.078624
 31
0.0
  0
LINE
  5
736
330
A
100
AcDbEntity
  8
0
 62
     7
100
AcDbLine
 10
164.819569
 20
106.198858
 30
0.0
 11
164.766859
 21
106.198858
 31
0.0
  0
LINE
  5
737
330
A
100
AcDbEntity
  8
0
 62
     7
100
AcDbLine
 10
164.766859
 20
106.198858
 30
0.0
 11
164.612519
 21
106.198858
 31
0.0
  0
LINE
  5
738
330
A
100
AcDbEntity
  8
0
 62
     7
100
AcDbLine
 10
164.612519
 20
106.198858
 30
0.0
 11
164.366884
 21
106.198858
 31
0.0
  0
LINE
  5
739
330
A
100
AcDbEntity
  8
0
 62
     7
100
AcDbLine
 10
164.366884
 20
106.198858
 30
0.0
 11
164.046834
 21
106.198858
 31
0.0
  0
LINE
  5
73A
330
A
100
AcDbEntity
  8
0
 62
     7
100
AcDbLine
 10
164.046834
 20
106.198858
 30
0.0
 11
163.674075
 21
106.198858
 31
0.0
  0
LINE
  5
73B
330
A
100
AcDbEntity
  8
0
 62
     7
100
AcDbLine
 10
163.674075
 20
106.198858
 30
0.0
 11
163.273755
 21
106.198858
 31
0.0
  0
LINE
  5
73C
330
A
100
AcDbEntity
  8
0
 62
     7
100
AcDbLine
 10
163.273755
 20
106.198858
 30
0.0
 11
162.873779
 21
106.198858
 31
0.0
  0
LINE
  5
73D
330
A
100
AcDbEntity
  8
0
 62
     7
100
AcDbLine
 10
162.873779
 20
106.198858
 30
0.0
 11
162.50102
 21
106.198858
 31
0.0
  0
LINE
  5
73E
330
A
100
AcDbEntity
  8
0
 62
     7
100
AcDbLine
 10
162.50102
 20
106.198858
 30
0.0
 11
162.180971
 21
106.198858
 31
0.0
  0
LINE
  5
73F
330
A
100
AcDbEntity
  8
0
 62
     7
100
AcDbLine
 10
162.180971
 20
106.198858
 30
0.0
 11
161.935335
 21
106.198858
 31
0.0
  0
LINE
  5
740
330
A
100
AcDbEntity
  8
0
 62
     7
100
AcDbLine
 10
161.935335
 20
106.198858
 30
0.0
 11
161.780995
 21
106.198858
 31
0.0
  0
LINE
  5
741
330
A
100
AcDbEntity
  8
0
 62
     7
100
AcDbLine
 10
161.780995
 20
106.198858
 30
0.0
 11
161.728285
 21
106.198858
 31
0.0
  0
LINE
  5
742
330
A
100
AcDbEntity
  8
0
 62
     7
100
AcDbLine
 10
161.728285
 20
106.198858
 30
0.0
 11
161.737931
 21
106.326671
 31
0.0
  0
LINE
  5
743
330
A
100
AcDbEntity
  8
0
 62
     7
100
AcDbLine
 10
164.809923
 20
106.326671
 30
0.0
 11
164.819569
 21
106.198858
 31
0.0
  0
LINE
  5
744
330
A
100
AcDbEntity
  8
0
 62
     7
100
AcDbLine
 10
164.809923
 20
106.326671
 30
0.0
 11
164.757558
 21
106.326671
 31
0.0
  0
LINE
  5
745
330
A
100
AcDbEntity
  8
0
 62
     7
100
AcDbLine
 10
164.757558
 20
106.326671
 30
0.0
 11
164.603906
 21
106.326671
 31
0.0
  0
LINE
  5
746
330
A
100
AcDbEntity
  8
0
 62
     7
100
AcDbLine
 10
164.603906
 20
106.326671
 30
0.0
 11
164.359993
 21
106.326671
 31
0.0
  0
LINE
  5
747
330
A
100
AcDbEntity
  8
0
 62
     7
100
AcDbLine
 10
164.359993
 20
106.326671
 30
0.0
 11
164.042011
 21
106.326671
 31
0.0
  0
LINE
  5
748
330
A
100
AcDbEntity
  8
0
 62
     7
100
AcDbLine
 10
164.042011
 20
106.326671
 30
0.0
 11
162.876535
 21
106.326671
 31
0.0
  0
LINE
  5
749
330
A
100
AcDbEntity
  8
0
 62
     7
100
AcDbLine
 10
162.876535
 20
106.326671
 30
0.0
 11
162.505843
 21
106.326671
 31
0.0
  0
LINE
  5
74A
330
A
100
AcDbEntity
  8
0
 62
     7
100
AcDbLine
 10
162.505843
 20
106.326671
 30
0.0
 11
162.187861
 21
106.326671
 31
0.0
  0
LINE
  5
74B
330
A
100
AcDbEntity
  8
0
 62
     7
100
AcDbLine
 10
162.187861
 20
106.326671
 30
0.0
 11
161.943948
 21
106.326671
 31
0.0
  0
LINE
  5
74C
330
A
100
AcDbEntity
  8
0
 62
     7
100
AcDbLine
 10
161.943948
 20
106.326671
 30
0.0
 11
161.790297
 21
106.326671
 31
0.0
  0
LINE
  5
74D
330
A
100
AcDbEntity
  8
0
 62
     7
100
AcDbLine
 10
161.790297
 20
106.326671
 30
0.0
 11
161.737931
 21
106.326671
 31
0.0
  0
LINE
  5
74E
330
A
100
AcDbEntity
  8
0
 62
     7
100
AcDbLine
 10
161.737931
 20
106.326671
 30
0.0
 11
161.691767
 21
106.44501
 31
0.0
  0
LINE
  5
74F
330
A
100
AcDbEntity
  8
0
 62
     7
100
AcDbLine
 10
164.856087
 20
106.44501
 30
0.0
 11
164.809923
 21
106.326671
 31
0.0
  0
LINE
  5
750
330
A
100
AcDbEntity
  8
0
 62
     7
100
AcDbLine
 10
161.691767
 20
106.44501
 30
0.0
 11
161.617697
 21
106.556976
 31
0.0
  0
LINE
  5
751
330
A
100
AcDbEntity
  8
0
 62
     7
100
AcDbLine
 10
164.930157
 20
106.556976
 30
0.0
 11
164.856087
 21
106.44501
 31
0.0
  0
LINE
  5
752
330
A
100
AcDbEntity
  8
0
 62
     7
100
AcDbLine
 10
161.617697
 20
106.556976
 30
0.0
 11
161.543972
 21
106.666702
 31
0.0
  0
LINE
  5
753
330
A
100
AcDbEntity
  8
0
 62
     7
100
AcDbLine
 10
165.003882
 20
106.666702
 30
0.0
 11
164.930157
 21
106.556976
 31
0.0
  0
LINE
  5
754
330
A
100
AcDbEntity
  8
0
 62
     7
100
AcDbLine
 10
161.543972
 20
106.666702
 30
0.0
 11
161.525024
 21
106.689956
 31
0.0
  0
LINE
  5
755
330
A
100
AcDbEntity
  8
0
 62
     7
100
AcDbLine
 10
165.02283
 20
106.689956
 30
0.0
 11
165.003882
 21
106.666702
 31
0.0
  0
LINE
  5
756
330
A
100
AcDbEntity
  8
0
 62
     7
100
AcDbLine
 10
165.02283
 20
106.689956
 30
0.0
 11
164.96323
 21
106.689956
 31
0.0
  0
LINE
  5
757
330
A
100
AcDbEntity
  8
0
 62
     7
100
AcDbLine
 10
164.96323
 20
106.689956
 30
0.0
 11
164.788563
 21
106.689956
 31
0.0
  0
LINE
  5
758
330
A
100
AcDbEntity
  8
0
 62
     7
100
AcDbLine
 10
164.788563
 20
106.689956
 30
0.0
 11
164.510544
 21
106.689956
 31
0.0
  0
LINE
  5
759
330
A
100
AcDbEntity
  8
0
 62
     7
100
AcDbLine
 10
164.510544
 20
106.689956
 30
0.0
 11
164.148465
 21
106.689956
 31
0.0
  0
LINE
  5
75A
330
A
100
AcDbEntity
  8
0
 62
     7
100
AcDbLine
 10
164.148465
 20
106.689956
 30
0.0
 11
163.72644
 21
106.689956
 31
0.0
  0
LINE
  5
75B
330
A
100
AcDbEntity
  8
0
 62
     7
100
AcDbLine
 10
163.72644
 20
106.689956
 30
0.0
 11
163.273755
 21
106.689956
 31
0.0
  0
LINE
  5
75C
330
A
100
AcDbEntity
  8
0
 62
     7
100
AcDbLine
 10
163.273755
 20
106.689956
 30
0.0
 11
162.821414
 21
106.689956
 31
0.0
  0
LINE
  5
75D
330
A
100
AcDbEntity
  8
0
 62
     7
100
AcDbLine
 10
162.821414
 20
106.689956
 30
0.0
 11
162.39939
 21
106.689956
 31
0.0
  0
LINE
  5
75E
330
A
100
AcDbEntity
  8
0
 62
     7
100
AcDbLine
 10
162.39939
 20
106.689956
 30
0.0
 11
162.03731
 21
106.689956
 31
0.0
  0
LINE
  5
75F
330
A
100
AcDbEntity
  8
0
 62
     7
100
AcDbLine
 10
162.03731
 20
106.689956
 30
0.0
 11
161.759291
 21
106.689956
 31
0.0
  0
LINE
  5
760
330
A
100
AcDbEntity
  8
0
 62
     7
100
AcDbLine
 10
161.759291
 20
106.689956
 30
0.0
 11
161.584625
 21
106.689956
 31
0.0
  0
LINE
  5
761
330
A
100
AcDbEntity
  8
0
 62
     7
100
AcDbLine
 10
161.584625
 20
106.689956
 30
0.0
 11
161.525024
 21
106.689956
 31
0.0
  0
LINE
  5
762
330
A
100
AcDbEntity
  8
0
 62
     7
100
AcDbLine
 10
161.525024
 20
106.689956
 30
0.0
 11
161.495741
 21
106.698741
 31
0.0
  0
LINE
  5
763
330
A
100
AcDbEntity
  8
0
 62
     7
100
AcDbLine
 10
165.052113
 20
106.698741
 30
0.0
 11
165.02283
 21
106.689956
 31
0.0
  0
LINE
  5
764
330
A
100
AcDbEntity
  8
0
 62
     7
100
AcDbLine
 10
164.162934
 20
106.698741
 30
0.0
 11
163.73402
 21
106.698741
 31
0.0
  0
LINE
  5
765
330
A
100
AcDbEntity
  8
0
 62
     7
100
AcDbLine
 10
163.73402
 20
106.698741
 30
0.0
 11
163.273755
 21
106.698741
 31
0.0
  0
LINE
  5
766
330
A
100
AcDbEntity
  8
0
 62
     7
100
AcDbLine
 10
163.273755
 20
106.698741
 30
0.0
 11
162.813835
 21
106.698741
 31
0.0
  0
LINE
  5
767
330
A
100
AcDbEntity
  8
0
 62
     7
100
AcDbLine
 10
162.813835
 20
106.698741
 30
0.0
 11
162.38492
 21
106.698741
 31
0.0
  0
LINE
  5
768
330
A
100
AcDbEntity
  8
0
 62
     7
100
AcDbLine
 10
165.077262
 20
106.698741
 30
0.0
 11
165.01594
 21
106.698741
 31
0.0
  0
LINE
  5
769
330
A
100
AcDbEntity
  8
0
 62
     7
100
AcDbLine
 10
165.01594
 20
106.698741
 30
0.0
 11
164.835761
 21
106.698741
 31
0.0
  0
LINE
  5
76A
330
A
100
AcDbEntity
  8
0
 62
     7
100
AcDbLine
 10
164.835761
 20
106.698741
 30
0.0
 11
164.549129
 21
106.698741
 31
0.0
  0
LINE
  5
76B
330
A
100
AcDbEntity
  8
0
 62
     7
100
AcDbLine
 10
164.549129
 20
106.698741
 30
0.0
 11
164.175681
 21
106.698741
 31
0.0
  0
LINE
  5
76C
330
A
100
AcDbEntity
  8
0
 62
     7
100
AcDbLine
 10
164.175681
 20
106.698741
 30
0.0
 11
163.740565
 21
106.698741
 31
0.0
  0
LINE
  5
76D
330
A
100
AcDbEntity
  8
0
 62
     7
100
AcDbLine
 10
163.740565
 20
106.698741
 30
0.0
 11
163.273755
 21
106.698741
 31
0.0
  0
LINE
  5
76E
330
A
100
AcDbEntity
  8
0
 62
     7
100
AcDbLine
 10
163.273755
 20
106.698741
 30
0.0
 11
162.807289
 21
106.698741
 31
0.0
  0
LINE
  5
76F
330
A
100
AcDbEntity
  8
0
 62
     7
100
AcDbLine
 10
162.807289
 20
106.698741
 30
0.0
 11
162.372173
 21
106.698741
 31
0.0
  0
LINE
  5
770
330
A
100
AcDbEntity
  8
0
 62
     7
100
AcDbLine
 10
162.372173
 20
106.698741
 30
0.0
 11
161.998725
 21
106.698741
 31
0.0
  0
LINE
  5
771
330
A
100
AcDbEntity
  8
0
 62
     7
100
AcDbLine
 10
161.998725
 20
106.698741
 30
0.0
 11
161.712093
 21
106.698741
 31
0.0
  0
LINE
  5
772
330
A
100
AcDbEntity
  8
0
 62
     7
100
AcDbLine
 10
161.712093
 20
106.698741
 30
0.0
 11
161.531915
 21
106.698741
 31
0.0
  0
LINE
  5
773
330
A
100
AcDbEntity
  8
0
 62
     7
100
AcDbLine
 10
161.531915
 20
106.698741
 30
0.0
 11
161.470592
 21
106.698741
 31
0.0
  0
LINE
  5
774
330
A
100
AcDbEntity
  8
0
 62
     7
100
AcDbLine
 10
161.470592
 20
106.698741
 30
0.0
 11
161.401345
 21
106.712177
 31
0.0
  0
LINE
  5
775
330
A
100
AcDbEntity
  8
0
 62
     7
100
AcDbLine
 10
165.146164
 20
106.712177
 30
0.0
 11
165.077262
 21
106.698741
 31
0.0
  0
LINE
  5
776
330
A
100
AcDbEntity
  8
0
 62
     7
100
AcDbLine
 10
161.401345
 20
106.712177
 30
0.0
 11
161.343123
 21
106.750073
 31
0.0
  0
LINE
  5
777
330
A
100
AcDbEntity
  8
0
 62
     7
100
AcDbLine
 10
165.204731
 20
106.750073
 30
0.0
 11
165.146164
 21
106.712177
 31
0.0
  0
LINE
  5
778
330
A
100
AcDbEntity
  8
0
 62
     7
100
AcDbLine
 10
161.343123
 20
106.750073
 30
0.0
 11
161.303849
 21
106.806917
 31
0.0
  0
LINE
  5
779
330
A
100
AcDbEntity
  8
0
 62
     7
100
AcDbLine
 10
165.244005
 20
106.806917
 30
0.0
 11
165.204731
 21
106.750073
 31
0.0
  0
LINE
  5
77A
330
A
100
AcDbEntity
  8
0
 62
     7
100
AcDbLine
 10
161.303849
 20
106.806917
 30
0.0
 11
161.290069
 21
106.873752
 31
0.0
  0
LINE
  5
77B
330
A
100
AcDbEntity
  8
0
 62
     7
100
AcDbLine
 10
165.257785
 20
106.873752
 30
0.0
 11
165.244005
 21
106.806917
 31
0.0
  0
LINE
  5
77C
330
A
100
AcDbEntity
  8
0
 62
     7
100
AcDbLine
 10
161.290069
 20
106.873752
 30
0.0
 11
161.303849
 21
106.940759
 31
0.0
  0
LINE
  5
77D
330
A
100
AcDbEntity
  8
0
 62
     7
100
AcDbLine
 10
165.244005
 20
106.940759
 30
0.0
 11
165.257785
 21
106.873752
 31
0.0
  0
LINE
  5
77E
330
A
100
AcDbEntity
  8
0
 62
     7
100
AcDbLine
 10
161.303849
 20
106.940759
 30
0.0
 11
161.343123
 21
106.997603
 31
0.0
  0
LINE
  5
77F
330
A
100
AcDbEntity
  8
0
 62
     7
100
AcDbLine
 10
165.204731
 20
106.997603
 30
0.0
 11
165.244005
 21
106.940759
 31
0.0
  0
LINE
  5
780
330
A
100
AcDbEntity
  8
0
 62
     7
100
AcDbLine
 10
161.343123
 20
106.997603
 30
0.0
 11
161.401345
 21
107.035499
 31
0.0
  0
LINE
  5
781
330
A
100
AcDbEntity
  8
0
 62
     7
100
AcDbLine
 10
165.146164
 20
107.035499
 30
0.0
 11
165.204731
 21
106.997603
 31
0.0
  0
LINE
  5
782
330
A
100
AcDbEntity
  8
0
 62
     7
100
AcDbLine
 10
161.401345
 20
107.035499
 30
0.0
 11
161.470592
 21
107.048763
 31
0.0
  0
LINE
  5
783
330
A
100
AcDbEntity
  8
0
 62
     7
100
AcDbLine
 10
165.077262
 20
107.048763
 30
0.0
 11
165.146164
 21
107.035499
 31
0.0
  0
LINE
  5
784
330
A
100
AcDbEntity
  8
0
 62
     7
100
AcDbLine
 10
160.444987
 20
104.062554
 30
0.0
 11
160.369195
 21
104.102173
 31
0.0
  0
LINE
  5
785
330
A
100
AcDbEntity
  8
0
 62
     7
100
AcDbLine
 10
160.530081
 20
104.048774
 30
0.0
 11
160.444987
 21
104.062554
 31
0.0
  0
LINE
  5
786
330
A
100
AcDbEntity
  8
0
 62
     7
100
AcDbLine
 10
166.178659
 20
104.102173
 30
0.0
 11
166.102867
 21
104.062554
 31
0.0
  0
LINE
  5
787
330
A
100
AcDbEntity
  8
0
 62
     7
100
AcDbLine
 10
166.102867
 20
104.062554
 30
0.0
 11
166.017773
 21
104.048774
 31
0.0
  0
LINE
  5
788
330
A
100
AcDbEntity
  8
0
 62
     7
100
AcDbLine
 10
162.607129
 20
104.048774
 30
0.0
 11
163.031565
 21
104.048774
 31
0.0
  0
LINE
  5
789
330
A
100
AcDbEntity
  8
0
 62
     7
100
AcDbLine
 10
163.502509
 20
104.048774
 30
0.0
 11
163.940725
 21
104.048774
 31
0.0
  0
LINE
  5
78A
330
A
100
AcDbEntity
  8
0
 62
     7
100
AcDbLine
 10
160.697512
 20
102.306245
 30
0.0
 11
160.697512
 21
104.048774
 31
0.0
  0
LINE
  5
78B
330
A
100
AcDbEntity
  8
0
 62
     7
100
AcDbLine
 10
165.850342
 20
104.048774
 30
0.0
 11
165.850342
 21
102.306245
 31
0.0
  0
LINE
  5
78C
330
A
100
AcDbEntity
  8
0
 62
     7
100
AcDbLine
 10
164.140885
 20
92.10635000000001
 30
0.0
 11
163.273755
 21
92.10635000000001
 31
0.0
  0
LINE
  5
78D
330
A
100
AcDbEntity
  8
0
 62
     7
100
AcDbLine
 10
163.273755
 20
92.10635000000001
 30
0.0
 11
162.406969
 21
92.10635000000001
 31
0.0
  0
LINE
  5
78E
330
A
100
AcDbEntity
  8
0
 62
     7
100
AcDbLine
 10
162.406969
 20
92.10635000000001
 30
0.0
 11
161.599438
 21
92.10635000000001
 31
0.0
  0
LINE
  5
78F
330
A
100
AcDbEntity
  8
0
 62
     7
100
AcDbLine
 10
161.599438
 20
92.10635000000001
 30
0.0
 11
160.905596
 21
92.10635000000001
 31
0.0
  0
LINE
  5
790
330
A
100
AcDbEntity
  8
0
 62
     7
100
AcDbLine
 10
160.905596
 20
92.10635000000001
 30
0.0
 11
160.373329
 21
92.10635000000001
 31
0.0
  0
LINE
  5
791
330
A
100
AcDbEntity
  8
0
 62
     7
100
AcDbLine
 10
160.373329
 20
92.10635000000001
 30
0.0
 11
160.03881
 21
92.10635000000001
 31
0.0
  0
LINE
  5
792
330
A
100
AcDbEntity
  8
0
 62
     7
100
AcDbLine
 10
160.03881
 20
92.10635000000001
 30
0.0
 11
159.924778
 21
92.10635000000001
 31
0.0
  0
LINE
  5
793
330
A
100
AcDbEntity
  8
0
 62
     7
100
AcDbLine
 10
166.623077
 20
92.10635000000001
 30
0.0
 11
166.509044
 21
92.10635000000001
 31
0.0
  0
LINE
  5
794
330
A
100
AcDbEntity
  8
0
 62
     7
100
AcDbLine
 10
166.509044
 20
92.10635000000001
 30
0.0
 11
166.174525
 21
92.10635000000001
 31
0.0
  0
LINE
  5
795
330
A
100
AcDbEntity
  8
0
 62
     7
100
AcDbLine
 10
166.174525
 20
92.10635000000001
 30
0.0
 11
165.642258
 21
92.10635000000001
 31
0.0
  0
LINE
  5
796
330
A
100
AcDbEntity
  8
0
 62
     7
100
AcDbLine
 10
165.642258
 20
92.10635000000001
 30
0.0
 11
164.948416
 21
92.10635000000001
 31
0.0
  0
LINE
  5
797
330
A
100
AcDbEntity
  8
0
 62
     7
100
AcDbLine
 10
164.948416
 20
92.10635000000001
 30
0.0
 11
164.140885
 21
92.10635000000001
 31
0.0
  0
LINE
  5
798
330
A
100
AcDbEntity
  8
0
 62
     7
100
AcDbLine
 10
159.868278
 20
92.118064
 30
0.0
 11
159.924778
 21
92.10635000000001
 31
0.0
  0
LINE
  5
799
330
A
100
AcDbEntity
  8
0
 62
     7
100
AcDbLine
 10
166.679576
 20
92.118064
 30
0.0
 11
166.623077
 21
92.10635000000001
 31
0.0
  0
LINE
  5
79A
330
A
100
AcDbEntity
  8
0
 62
     7
100
AcDbLine
 10
159.819013
 20
92.15044799999999
 30
0.0
 11
159.868278
 21
92.118064
 31
0.0
  0
LINE
  5
79B
330
A
100
AcDbEntity
  8
0
 62
     7
100
AcDbLine
 10
166.728497
 20
92.15044799999999
 30
0.0
 11
166.679576
 21
92.118064
 31
0.0
  0
LINE
  5
79C
330
A
100
AcDbEntity
  8
0
 62
     7
100
AcDbLine
 10
159.78594
 20
92.19799
 30
0.0
 11
159.819013
 21
92.15044799999999
 31
0.0
  0
LINE
  5
79D
330
A
100
AcDbEntity
  8
0
 62
     7
100
AcDbLine
 10
166.761914
 20
92.19799
 30
0.0
 11
166.728497
 21
92.15044799999999
 31
0.0
  0
LINE
  5
79E
330
A
100
AcDbEntity
  8
0
 62
     7
100
AcDbLine
 10
159.773882
 20
92.256212
 30
0.0
 11
159.78594
 21
92.19799
 31
0.0
  0
LINE
  5
79F
330
A
100
AcDbEntity
  8
0
 62
     7
100
AcDbLine
 10
166.773972
 20
92.256212
 30
0.0
 11
166.761914
 21
92.19799
 31
0.0
  0
LINE
  5
7A0
330
A
100
AcDbEntity
  8
0
 62
     7
100
AcDbLine
 10
159.773882
 20
92.30650999999999
 30
0.0
 11
159.773882
 21
92.256212
 31
0.0
  0
LINE
  5
7A1
330
A
100
AcDbEntity
  8
0
 62
     7
100
AcDbLine
 10
166.773972
 20
92.30650999999999
 30
0.0
 11
166.773972
 21
92.256212
 31
0.0
  0
LINE
  5
7A2
330
A
100
AcDbEntity
  8
0
 62
     7
100
AcDbLine
 10
159.78594
 20
92.364733
 30
0.0
 11
159.773882
 21
92.30650999999999
 31
0.0
  0
LINE
  5
7A3
330
A
100
AcDbEntity
  8
0
 62
     7
100
AcDbLine
 10
166.761914
 20
92.364733
 30
0.0
 11
166.773972
 21
92.30650999999999
 31
0.0
  0
LINE
  5
7A4
330
A
100
AcDbEntity
  8
0
 62
     7
100
AcDbLine
 10
159.819358
 20
92.41227499999999
 30
0.0
 11
159.78594
 21
92.364733
 31
0.0
  0
LINE
  5
7A5
330
A
100
AcDbEntity
  8
0
 62
     7
100
AcDbLine
 10
166.728497
 20
92.41227499999999
 30
0.0
 11
166.761914
 21
92.364733
 31
0.0
  0
LINE
  5
7A6
330
A
100
AcDbEntity
  8
0
 62
     7
100
AcDbLine
 10
159.868278
 20
92.44465899999999
 30
0.0
 11
159.819358
 21
92.41227499999999
 31
0.0
  0
LINE
  5
7A7
330
A
100
AcDbEntity
  8
0
 62
     7
100
AcDbLine
 10
166.679576
 20
92.44465899999999
 30
0.0
 11
166.728497
 21
92.41227499999999
 31
0.0
  0
LINE
  5
7A8
330
A
100
AcDbEntity
  8
0
 62
     7
100
AcDbLine
 10
163.273755
 20
92.456372
 30
0.0
 11
162.401457
 21
92.456372
 31
0.0
  0
LINE
  5
7A9
330
A
100
AcDbEntity
  8
0
 62
     7
100
AcDbLine
 10
162.401457
 20
92.456372
 30
0.0
 11
161.588414
 21
92.456372
 31
0.0
  0
LINE
  5
7AA
330
A
100
AcDbEntity
  8
0
 62
     7
100
AcDbLine
 10
161.588414
 20
92.456372
 30
0.0
 11
160.890093
 21
92.456372
 31
0.0
  0
LINE
  5
7AB
330
A
100
AcDbEntity
  8
0
 62
     7
100
AcDbLine
 10
160.890093
 20
92.456372
 30
0.0
 11
160.354381
 21
92.456372
 31
0.0
  0
LINE
  5
7AC
330
A
100
AcDbEntity
  8
0
 62
     7
100
AcDbLine
 10
160.354381
 20
92.456372
 30
0.0
 11
160.017451
 21
92.456372
 31
0.0
  0
LINE
  5
7AD
330
A
100
AcDbEntity
  8
0
 62
     7
100
AcDbLine
 10
160.017451
 20
92.456372
 30
0.0
 11
159.902729
 21
92.456372
 31
0.0
  0
LINE
  5
7AE
330
A
100
AcDbEntity
  8
0
 62
     7
100
AcDbLine
 10
159.902729
 20
92.456372
 30
0.0
 11
159.868278
 21
92.44465899999999
 31
0.0
  0
LINE
  5
7AF
330
A
100
AcDbEntity
  8
0
 62
     7
100
AcDbLine
 10
166.645125
 20
92.456372
 30
0.0
 11
166.679576
 21
92.44465899999999
 31
0.0
  0
LINE
  5
7B0
330
A
100
AcDbEntity
  8
0
 62
     7
100
AcDbLine
 10
166.645125
 20
92.456372
 30
0.0
 11
166.530059
 21
92.456372
 31
0.0
  0
LINE
  5
7B1
330
A
100
AcDbEntity
  8
0
 62
     7
100
AcDbLine
 10
166.530059
 20
92.456372
 30
0.0
 11
166.193473
 21
92.456372
 31
0.0
  0
LINE
  5
7B2
330
A
100
AcDbEntity
  8
0
 62
     7
100
AcDbLine
 10
166.193473
 20
92.456372
 30
0.0
 11
165.657761
 21
92.456372
 31
0.0
  0
LINE
  5
7B3
330
A
100
AcDbEntity
  8
0
 62
     7
100
AcDbLine
 10
165.657761
 20
92.456372
 30
0.0
 11
164.95944
 21
92.456372
 31
0.0
  0
LINE
  5
7B4
330
A
100
AcDbEntity
  8
0
 62
     7
100
AcDbLine
 10
164.95944
 20
92.456372
 30
0.0
 11
164.146398
 21
92.456372
 31
0.0
  0
LINE
  5
7B5
330
A
100
AcDbEntity
  8
0
 62
     7
100
AcDbLine
 10
164.146398
 20
92.456372
 30
0.0
 11
163.273755
 21
92.456372
 31
0.0
  0
LINE
  5
7B6
330
A
100
AcDbEntity
  8
0
 62
     7
100
AcDbLine
 10
159.902729
 20
92.50632600000001
 30
0.0
 11
159.902729
 21
92.456372
 31
0.0
  0
LINE
  5
7B7
330
A
100
AcDbEntity
  8
0
 62
     7
100
AcDbLine
 10
166.645125
 20
92.50632600000001
 30
0.0
 11
166.645125
 21
92.456372
 31
0.0
  0
LINE
  5
7B8
330
A
100
AcDbEntity
  8
0
 62
     7
100
AcDbLine
 10
159.910653
 20
92.545256
 30
0.0
 11
159.902729
 21
92.50632600000001
 31
0.0
  0
LINE
  5
7B9
330
A
100
AcDbEntity
  8
0
 62
     7
100
AcDbLine
 10
166.636857
 20
92.545256
 30
0.0
 11
166.645125
 21
92.50632600000001
 31
0.0
  0
LINE
  5
7BA
330
A
100
AcDbEntity
  8
0
 62
     7
100
AcDbLine
 10
159.933046
 20
92.57695
 30
0.0
 11
159.910653
 21
92.545256
 31
0.0
  0
LINE
  5
7BB
330
A
100
AcDbEntity
  8
0
 62
     7
100
AcDbLine
 10
166.614808
 20
92.57695
 30
0.0
 11
166.636857
 21
92.545256
 31
0.0
  0
LINE
  5
7BC
330
A
100
AcDbEntity
  8
0
 62
     7
100
AcDbLine
 10
159.965774
 20
92.59865500000001
 30
0.0
 11
159.933046
 21
92.57695
 31
0.0
  0
LINE
  5
7BD
330
A
100
AcDbEntity
  8
0
 62
     7
100
AcDbLine
 10
166.58208
 20
92.59865500000001
 30
0.0
 11
166.614808
 21
92.57695
 31
0.0
  0
LINE
  5
7BE
330
A
100
AcDbEntity
  8
0
 62
     7
100
AcDbLine
 10
163.273755
 20
92.606234
 30
0.0
 11
162.427984
 21
92.606234
 31
0.0
  0
LINE
  5
7BF
330
A
100
AcDbEntity
  8
0
 62
     7
100
AcDbLine
 10
162.427984
 20
92.606234
 30
0.0
 11
161.639746
 21
92.606234
 31
0.0
  0
LINE
  5
7C0
330
A
100
AcDbEntity
  8
0
 62
     7
100
AcDbLine
 10
161.639746
 20
92.606234
 30
0.0
 11
160.963129
 21
92.606234
 31
0.0
  0
LINE
  5
7C1
330
A
100
AcDbEntity
  8
0
 62
     7
100
AcDbLine
 10
160.963129
 20
92.606234
 30
0.0
 11
160.443609
 21
92.606234
 31
0.0
  0
LINE
  5
7C2
330
A
100
AcDbEntity
  8
0
 62
     7
100
AcDbLine
 10
160.443609
 20
92.606234
 30
0.0
 11
160.1170139999999
 21
92.606234
 31
0.0
  0
LINE
  5
7C3
330
A
100
AcDbEntity
  8
0
 62
     7
100
AcDbLine
 10
160.1170139999999
 20
92.606234
 30
0.0
 11
160.005737
 21
92.606234
 31
0.0
  0
LINE
  5
7C4
330
A
100
AcDbEntity
  8
0
 62
     7
100
AcDbLine
 10
160.005737
 20
92.606234
 30
0.0
 11
159.965774
 21
92.59865500000001
 31
0.0
  0
LINE
  5
7C5
330
A
100
AcDbEntity
  8
0
 62
     7
100
AcDbLine
 10
166.542117
 20
92.606234
 30
0.0
 11
166.58208
 21
92.59865500000001
 31
0.0
  0
LINE
  5
7C6
330
A
100
AcDbEntity
  8
0
 62
     7
100
AcDbLine
 10
166.542117
 20
92.606234
 30
0.0
 11
166.43084
 21
92.606234
 31
0.0
  0
LINE
  5
7C7
330
A
100
AcDbEntity
  8
0
 62
     7
100
AcDbLine
 10
166.43084
 20
92.606234
 30
0.0
 11
166.104245
 21
92.606234
 31
0.0
  0
LINE
  5
7C8
330
A
100
AcDbEntity
  8
0
 62
     7
100
AcDbLine
 10
166.104245
 20
92.606234
 30
0.0
 11
165.584725
 21
92.606234
 31
0.0
  0
LINE
  5
7C9
330
A
100
AcDbEntity
  8
0
 62
     7
100
AcDbLine
 10
165.584725
 20
92.606234
 30
0.0
 11
164.908108
 21
92.606234
 31
0.0
  0
LINE
  5
7CA
330
A
100
AcDbEntity
  8
0
 62
     7
100
AcDbLine
 10
164.908108
 20
92.606234
 30
0.0
 11
164.11987
 21
92.606234
 31
0.0
  0
LINE
  5
7CB
330
A
100
AcDbEntity
  8
0
 62
     7
100
AcDbLine
 10
164.11987
 20
92.606234
 30
0.0
 11
163.273755
 21
92.606234
 31
0.0
  0
LINE
  5
7CC
330
A
100
AcDbEntity
  8
0
 62
     7
100
AcDbLine
 10
165.566466
 20
92.606234
 30
0.0
 11
164.895017
 21
92.606234
 31
0.0
  0
LINE
  5
7CD
330
A
100
AcDbEntity
  8
0
 62
     7
100
AcDbLine
 10
160.032265
 20
92.788135
 30
0.0
 11
160.031576
 21
92.606234
 31
0.0
  0
LINE
  5
7CE
330
A
100
AcDbEntity
  8
0
 62
     7
100
AcDbLine
 10
166.51559
 20
92.788135
 30
0.0
 11
166.516279
 21
92.606234
 31
0.0
  0
LINE
  5
7CF
330
A
100
AcDbEntity
  8
0
 62
     7
100
AcDbLine
 10
160.056036
 20
92.95832199999999
 30
0.0
 11
160.032265
 21
92.788135
 31
0.0
  0
LINE
  5
7D0
330
A
100
AcDbEntity
  8
0
 62
     7
100
AcDbLine
 10
166.491819
 20
92.95832199999999
 30
0.0
 11
166.51559
 21
92.788135
 31
0.0
  0
LINE
  5
7D1
330
A
100
AcDbEntity
  8
0
 62
     7
100
AcDbLine
 10
160.094965
 20
93.12609899999999
 30
0.0
 11
160.056036
 21
92.95832199999999
 31
0.0
  0
LINE
  5
7D2
330
A
100
AcDbEntity
  8
0
 62
     7
100
AcDbLine
 10
166.452889
 20
93.12609899999999
 30
0.0
 11
166.491819
 21
92.95832199999999
 31
0.0
  0
LINE
  5
7D3
330
A
100
AcDbEntity
  8
0
 62
     7
100
AcDbLine
 10
160.162834
 20
93.29387500000001
 30
0.0
 11
160.094965
 21
93.12609899999999
 31
0.0
  0
LINE
  5
7D4
330
A
100
AcDbEntity
  8
0
 62
     7
100
AcDbLine
 10
166.385021
 20
93.29387500000001
 30
0.0
 11
166.452889
 21
93.12609899999999
 31
0.0
  0
LINE
  5
7D5
330
A
100
AcDbEntity
  8
0
 62
     7
100
AcDbLine
 10
160.343701
 20
93.612546
 30
0.0
 11
160.253095
 21
93.45303800000001
 31
0.0
  0
LINE
  5
7D6
330
A
100
AcDbEntity
  8
0
 62
     7
100
AcDbLine
 10
160.253095
 20
93.45303800000001
 30
0.0
 11
160.162834
 21
93.29387500000001
 31
0.0
  0
LINE
  5
7D7
330
A
100
AcDbEntity
  8
0
 62
     7
100
AcDbLine
 10
166.204153
 20
93.612546
 30
0.0
 11
166.294759
 21
93.45303800000001
 31
0.0
  0
LINE
  5
7D8
330
A
100
AcDbEntity
  8
0
 62
     7
100
AcDbLine
 10
166.294759
 20
93.45303800000001
 30
0.0
 11
166.385021
 21
93.29387500000001
 31
0.0
  0
LINE
  5
7D9
330
A
100
AcDbEntity
  8
0
 62
     7
100
AcDbLine
 10
160.411914
 20
93.77997800000001
 30
0.0
 11
160.343701
 21
93.612546
 31
0.0
  0
LINE
  5
7DA
330
A
100
AcDbEntity
  8
0
 62
     7
100
AcDbLine
 10
166.13594
 20
93.77997800000001
 30
0.0
 11
166.204153
 21
93.612546
 31
0.0
  0
LINE
  5
7DB
330
A
100
AcDbEntity
  8
0
 62
     7
100
AcDbLine
 10
160.44292
 20
93.90985800000001
 30
0.0
 11
160.411914
 21
93.77997800000001
 31
0.0
  0
LINE
  5
7DC
330
A
100
AcDbEntity
  8
0
 62
     7
100
AcDbLine
 10
166.104934
 20
93.90985800000001
 30
0.0
 11
166.13594
 21
93.77997800000001
 31
0.0
  0
LINE
  5
7DD
330
A
100
AcDbEntity
  8
0
 62
     7
100
AcDbLine
 10
160.462212
 20
94.041116
 30
0.0
 11
160.44292
 21
93.90985800000001
 31
0.0
  0
LINE
  5
7DE
330
A
100
AcDbEntity
  8
0
 62
     7
100
AcDbLine
 10
166.0856419999999
 20
94.041116
 30
0.0
 11
166.104934
 21
93.90985800000001
 31
0.0
  0
LINE
  5
7DF
330
A
100
AcDbEntity
  8
0
 62
     7
100
AcDbLine
 10
160.469447
 20
94.173752
 30
0.0
 11
160.462212
 21
94.041116
 31
0.0
  0
LINE
  5
7E0
330
A
100
AcDbEntity
  8
0
 62
     7
100
AcDbLine
 10
166.078063
 20
94.173752
 30
0.0
 11
166.0856419999999
 21
94.041116
 31
0.0
  0
LINE
  5
7E1
330
A
100
AcDbEntity
  8
0
 62
     7
100
AcDbLine
 10
163.273755
 20
94.306388
 30
0.0
 11
162.545806
 21
94.306388
 31
0.0
  0
LINE
  5
7E2
330
A
100
AcDbEntity
  8
0
 62
     7
100
AcDbLine
 10
161.869534
 20
94.306388
 30
0.0
 11
161.288002
 21
94.306388
 31
0.0
  0
LINE
  5
7E3
330
A
100
AcDbEntity
  8
0
 62
     7
100
AcDbLine
 10
161.288002
 20
94.306388
 30
0.0
 11
160.8415169999999
 21
94.306388
 31
0.0
  0
LINE
  5
7E4
330
A
100
AcDbEntity
  8
0
 62
     7
100
AcDbLine
 10
160.8415169999999
 20
94.306388
 30
0.0
 11
160.561087
 21
94.306388
 31
0.0
  0
LINE
  5
7E5
330
A
100
AcDbEntity
  8
0
 62
     7
100
AcDbLine
 10
160.561087
 20
94.306388
 30
0.0
 11
160.4653129999999
 21
94.306388
 31
0.0
  0
LINE
  5
7E6
330
A
100
AcDbEntity
  8
0
 62
     7
100
AcDbLine
 10
160.4653129999999
 20
94.306388
 30
0.0
 11
160.469447
 21
94.173752
 31
0.0
  0
LINE
  5
7E7
330
A
100
AcDbEntity
  8
0
 62
     7
100
AcDbLine
 10
161.288002
 20
94.306388
 30
0.0
 11
161.869534
 21
94.306388
 31
0.0
  0
LINE
  5
7E8
330
A
100
AcDbEntity
  8
0
 62
     7
100
AcDbLine
 10
162.554419
 20
94.306388
 30
0.0
 11
163.273755
 21
94.306388
 31
0.0
  0
LINE
  5
7E9
330
A
100
AcDbEntity
  8
0
 62
     7
100
AcDbLine
 10
163.993435
 20
94.306388
 30
0.0
 11
164.6783199999999
 21
94.306388
 31
0.0
  0
LINE
  5
7EA
330
A
100
AcDbEntity
  8
0
 62
     7
100
AcDbLine
 10
166.082541
 20
94.306388
 30
0.0
 11
166.078063
 21
94.173752
 31
0.0
  0
LINE
  5
7EB
330
A
100
AcDbEntity
  8
0
 62
     7
100
AcDbLine
 10
166.082541
 20
94.306388
 30
0.0
 11
165.986768
 21
94.306388
 31
0.0
  0
LINE
  5
7EC
330
A
100
AcDbEntity
  8
0
 62
     7
100
AcDbLine
 10
165.986768
 20
94.306388
 30
0.0
 11
165.706337
 21
94.306388
 31
0.0
  0
LINE
  5
7ED
330
A
100
AcDbEntity
  8
0
 62
     7
100
AcDbLine
 10
165.706337
 20
94.306388
 30
0.0
 11
165.259852
 21
94.306388
 31
0.0
  0
LINE
  5
7EE
330
A
100
AcDbEntity
  8
0
 62
     7
100
AcDbLine
 10
165.259852
 20
94.306388
 30
0.0
 11
164.6783199999999
 21
94.306388
 31
0.0
  0
LINE
  5
7EF
330
A
100
AcDbEntity
  8
0
 62
     7
100
AcDbLine
 10
164.6783199999999
 20
94.306388
 30
0.0
 11
164.002048
 21
94.306388
 31
0.0
  0
DIMENSION
  5
817
330
A
100
AcDbEntity
  8
Cotation-JacobDelafon
  6
Continuous
370
     0
100
AcDbDimension
  2
*D1
 10
152.1523287086629
 20
109.306334
 30
0.0
 11
149.7461895545019
 21
100.706342
 31
0.0
 70
    32
 71
     5
 42
17.199984
 73
     0
 74
     0
 75
     0
  3
Cotation-Jacob-Delafon
100
AcDbAlignedDimension
 13
163.70732
 23
92.10635000000001
 33
0.0
 14
163.273755
 24
109.306334
 34
0.0
 50
90.0
100
AcDbRotatedDimension
  0
DIMENSION
  5
824
330
A
100
AcDbEntity
  8
Cotation-JacobDelafon
  6
Continuous
370
     0
100
AcDbDimension
  2
*D2
 10
166.5868451621272
 20
115.4022290052945
 30
0.0
 11
163.3202345810636
 21
117.8022290052945
 31
0.0
 70
    32
  1
7
 71
     5
 42
6.533221162127233
 73
     0
 74
     0
 75
     0
  3
Cotation-Jacob-Delafon
100
AcDbAlignedDimension
 13
160.053624
 23
104.798771
 33
0.0
 14
166.5868451621272
 24
104.8630262651237
 34
0.0
100
AcDbRotatedDimension
  0
ENDSEC
  0
SECTION
  2
OBJECTS
  0
DICTIONARY
  5
19
330
0
100
AcDbDictionary
281
     1
  3
ACAD_COLOR
350
2D1
  3
ACAD_GROUP
350
1A
  3
ACAD_LAYOUT
350
1E
  3
ACAD_MATERIAL
350
2A7
  3
ACAD_MLEADERSTYLE
350
2E6
  3
ACAD_MLINESTYLE
350
1B
  3
ACAD_PLOTSETTINGS
350
22
  3
ACAD_PLOTSTYLENAME
350
1F
  3
ACAD_SCALELIST
350
2D4
  3
ACAD_TABLESTYLE
350
2D2
  3
ACAD_VISUALSTYLE
350
2C0
  3
ACAD_WIPEOUT_VARS
350
23
  3
ACDB_RECOMPOSE_DATA
350
574
  3
AcDbVariableDictionary
350
575
  3
AEC_PROPERTY_SET_DEFS
350
809
  0
DICTIONARY
  5
56C
330
14
100
AcDbDictionary
280
     1
281
     1
  3
ADSK_XREC_LAYER_RECONCILED
360
56D
  0
DICTIONARY
  5
56E
330
29
100
AcDbDictionary
280
     1
281
     1
  3
ADSK_XREC_LAYER_RECONCILED
360
56F
  0
DICTIONARY
  5
802
330
801
100
AcDbDictionary
280
     1
281
     1
  0
DICTIONARY
  5
7FE
330
A
100
AcDbDictionary
280
     1
281
     1
  3
ACAD_SORTENTS
360
7FF
  0
DICTIONARY
  5
2D1
102
{ACAD_REACTORS
330
19
102
}
330
19
100
AcDbDictionary
281
     1
  0
DICTIONARY
  5
1A
102
{ACAD_REACTORS
330
19
102
}
330
19
100
AcDbDictionary
281
     1
  0
DICTIONARY
  5
1E
102
{ACAD_REACTORS
330
19
102
}
330
19
100
AcDbDictionary
281
     1
  3
Layout1
350
21
  3
Model
350
20
  0
DICTIONARY
  5
2A7
102
{ACAD_REACTORS
330
19
102
}
330
19
100
AcDbDictionary
281
     1
  3
ByBlock
350
2B0
  3
ByLayer
350
2A8
  3
Global
350
2B8
  0
DICTIONARY
  5
2E6
102
{ACAD_REACTORS
330
19
102
}
330
19
100
AcDbDictionary
281
     1
  3
Standard
350
2E7
  0
DICTIONARY
  5
1B
102
{ACAD_REACTORS
330
19
102
}
330
19
100
AcDbDictionary
281
     1
  3
Standard
350
1C
  0
DICTIONARY
  5
22
102
{ACAD_REACTORS
330
19
102
}
330
19
100
AcDbDictionary
281
     1
  0
ACDBDICTIONARYWDFLT
  5
1F
102
{ACAD_REACTORS
330
19
102
}
330
19
100
AcDbDictionary
281
     1
  3
Normal
350
1D
100
AcDbDictionaryWithDefault
340
1D
  0
DICTIONARY
  5
2D4
102
{ACAD_REACTORS
330
19
102
}
330
19
100
AcDbDictionary
281
     1
  3
A0
350
2D5
  3
A1
350
2D6
  3
A2
350
2D7
  3
A3
350
2D8
  3
A4
350
2D9
  3
A5
350
2DA
  3
A6
350
2DB
  3
A7
350
2DC
  3
A8
350
2DD
  3
A9
350
2DE
  3
B0
350
2DF
  3
B1
350
2E0
  3
B2
350
2E1
  3
B3
350
2E2
  3
B4
350
2E3
  3
B5
350
2E4
  3
B6
350
2E5
  0
DICTIONARY
  5
2D2
102
{ACAD_REACTORS
330
19
102
}
330
19
100
AcDbDictionary
281
     1
  3
Standard
350
2D3
  0
DICTIONARY
  5
2C0
102
{ACAD_REACTORS
330
19
102
}
330
19
100
AcDbDictionary
281
     1
  3
2dWireframe
350
2C6
  3
3D Hidden
350
2C8
  3
3dWireframe
350
2C7
  3
Basic
350
2C5
  3
Brighten
350
2CC
  3
ColorChange
350
2D0
  3
Conceptual
350
2C9
  3
Dim
350
2CB
  3
Facepattern
350
2CF
  3
Flat
350
2C1
  3
FlatWithEdges
350
2C2
  3
Gouraud
350
2C3
  3
GouraudWithEdges
350
2C4
  3
Linepattern
350
2CE
  3
Realistic
350
2CA
  3
Thicken
350
2CD
  0
WIPEOUTVARIABLES
  5
23
330
19
100
AcDbWipeoutVariables
 70
     1
  0
XRECORD
  5
574
102
{ACAD_REACTORS
330
19
102
}
330
19
100
AcDbXrecord
280
     1
 90
        1
330
2D3
  0
DICTIONARY
  5
575
102
{ACAD_REACTORS
330
19
102
}
330
19
100
AcDbDictionary
281
     1
  3
CANNOSCALE
350
579
  3
CMLEADERSTYLE
350
577
  3
CTABLESTYLE
350
576
  3
LAYEREVAL
350
57B
  3
LAYERNOTIFY
350
57C
  3
LIGHTINGUNITS
350
57A
  3
MSLTSCALE
350
578
  0
DICTIONARY
  5
809
102
{ACAD_REACTORS
330
19
102
}
330
19
100
AcDbDictionary
281
     1
  0
XRECORD
  5
56D
102
{ACAD_REACTORS
330
56C
102
}
330
56C
100
AcDbXrecord
280
     1
290
     1
  0
XRECORD
  5
56F
102
{ACAD_REACTORS
330
56E
102
}
330
56E
100
AcDbXrecord
280
     1
290
     1
  0
SORTENTSTABLE
  5
7FF
102
{ACAD_REACTORS
330
7FE
102
}
330
7FE
100
AcDbSortentsTable
330
A
331
729
  5
729
331
760
  5
760
331
6B3
  5
6B3
331
6EA
  5
6EA
331
63D
  5
63D
331
674
  5
674
331
588
  5
588
331
5C7
  5
5C7
331
5FE
  5
5FE
331
7A7
  5
7A7
331
7DE
  5
7DE
331
731
  5
731
331
768
  5
768
331
6BB
  5
6BB
331
6F2
  5
6F2
331
5CF
  5
5CF
331
606
  5
606
331
590
  5
590
331
645
  5
645
331
67C
  5
67C
331
7AF
  5
7AF
331
7E6
  5
7E6
331
6FA
  5
6FA
331
739
  5
739
331
770
  5
770
331
64D
  5
64D
331
684
  5
684
331
5D7
  5
5D7
331
60E
  5
60E
331
598
  5
598
331
6C3
  5
6C3
331
7B7
  5
7B7
331
7EE
  5
7EE
331
702
  5
702
331
68C
  5
68C
331
616
  5
616
331
778
  5
778
331
5A0
  5
5A0
331
780
  5
780
331
6CB
  5
6CB
331
70A
  5
70A
331
655
  5
655
331
694
  5
694
331
741
  5
741
331
5A8
  5
5A8
331
5DF
  5
5DF
331
61E
  5
61E
331
749
  5
749
331
788
  5
788
331
6D3
  5
6D3
331
712
  5
712
331
7BF
  5
7BF
331
626
  5
626
331
65D
  5
65D
331
5B0
  5
5B0
331
5E7
  5
5E7
331
69C
  5
69C
331
7C7
  5
7C7
331
71A
  5
71A
331
751
  5
751
331
6A4
  5
6A4
331
6DB
  5
6DB
331
5EF
  5
5EF
331
62E
  5
62E
331
665
  5
665
331
5B8
  5
5B8
331
790
  5
790
331
798
  5
798
331
7CF
  5
7CF
331
722
  5
722
331
759
  5
759
331
6AC
  5
6AC
331
6E3
  5
6E3
331
5F7
  5
5F7
331
636
  5
636
331
66D
  5
66D
331
7D7
  5
7D7
331
5C0
  5
5C0
331
7A0
  5
7A0
331
6EB
  5
6EB
331
72A
  5
72A
331
761
  5
761
331
63E
  5
63E
331
675
  5
675
331
5C8
  5
5C8
331
5FF
  5
5FF
331
589
  5
589
331
6B4
  5
6B4
331
769
  5
769
331
7A8
  5
7A8
331
7DF
  5
7DF
331
6BC
  5
6BC
331
6F3
  5
6F3
331
646
  5
646
331
67D
  5
67D
331
591
  5
591
331
5D0
  5
5D0
331
607
  5
607
331
732
  5
732
331
73A
  5
73A
331
771
  5
771
331
6C4
  5
6C4
331
6FB
  5
6FB
331
64E
  5
64E
331
685
  5
685
331
7B0
  5
7B0
331
599
  5
599
331
60F
  5
60F
331
7E7
  5
7E7
331
7EF
  5
7EF
331
779
  5
779
331
703
  5
703
331
617
  5
617
331
68D
  5
68D
331
5A1
  5
5A1
331
5D8
  5
5D8
331
7B8
  5
7B8
331
70B
  5
70B
331
742
  5
742
331
695
  5
695
331
6CC
  5
6CC
331
781
  5
781
331
5E0
  5
5E0
331
61F
  5
61F
331
5A9
  5
5A9
331
656
  5
656
331
7C0
  5
7C0
331
713
  5
713
331
74A
  5
74A
331
65E
  5
65E
331
69D
  5
69D
331
5B1
  5
5B1
331
5E8
  5
5E8
331
627
  5
627
331
6D4
  5
6D4
331
789
  5
789
331
791
  5
791
331
7C8
  5
7C8
331
6A5
  5
6A5
331
6DC
  5
6DC
331
62F
  5
62F
331
666
  5
666
331
5B9
  5
5B9
331
5F0
  5
5F0
331
71B
  5
71B
331
752
  5
752
331
75A
  5
75A
331
799
  5
799
331
7D0
  5
7D0
331
6AD
  5
6AD
331
6E4
  5
6E4
331
637
  5
637
331
66E
  5
66E
331
723
  5
723
331
582
  5
582
331
5C1
  5
5C1
331
5F8
  5
5F8
331
7D8
  5
7D8
331
72B
  5
72B
331
762
  5
762
331
6B5
  5
6B5
331
6EC
  5
6EC
331
600
  5
600
331
63F
  5
63F
331
676
  5
676
331
58A
  5
58A
331
5C9
  5
5C9
331
7A1
  5
7A1
331
7A9
  5
7A9
331
7E0
  5
7E0
331
733
  5
733
331
76A
  5
76A
331
6BD
  5
6BD
331
6F4
  5
6F4
331
5D1
  5
5D1
331
608
  5
608
331
592
  5
592
331
647
  5
647
331
67E
  5
67E
331
7B1
  5
7B1
331
7E8
  5
7E8
331
6FC
  5
6FC
331
73B
  5
73B
331
772
  5
772
331
64F
  5
64F
331
686
  5
686
331
610
  5
610
331
59A
  5
59A
331
6C5
  5
6C5
331
77A
  5
77A
331
704
  5
704
331
68E
  5
68E
331
5A2
  5
5A2
331
5D9
  5
5D9
331
618
  5
618
331
782
  5
782
331
7B9
  5
7B9
331
6CD
  5
6CD
331
70C
  5
70C
331
657
  5
657
331
696
  5
696
331
743
  5
743
331
5AA
  5
5AA
331
5E1
  5
5E1
331
620
  5
620
331
74B
  5
74B
331
78A
  5
78A
331
6D5
  5
6D5
331
714
  5
714
331
7C1
  5
7C1
331
628
  5
628
331
65F
  5
65F
331
5B2
  5
5B2
331
5E9
  5
5E9
331
69E
  5
69E
331
7C9
  5
7C9
331
71C
  5
71C
331
753
  5
753
331
6A6
  5
6A6
331
6DD
  5
6DD
331
5F1
  5
5F1
331
630
  5
630
331
667
  5
667
331
5BA
  5
5BA
331
792
  5
792
331
79A
  5
79A
331
7D1
  5
7D1
331
724
  5
724
331
75B
  5
75B
331
66F
  5
66F
331
6AE
  5
6AE
331
6E5
  5
6E5
331
5C2
  5
5C2
331
5F9
  5
5F9
331
583
  5
583
331
638
  5
638
331
7A2
  5
7A2
331
7D9
  5
7D9
331
6B6
  5
6B6
331
6ED
  5
6ED
331
640
  5
640
331
677
  5
677
331
5CA
  5
5CA
331
601
  5
601
331
72C
  5
72C
331
58B
  5
58B
331
763
  5
763
331
76B
  5
76B
331
7AA
  5
7AA
331
7E1
  5
7E1
331
6BE
  5
6BE
331
6F5
  5
6F5
331
648
  5
648
331
67F
  5
67F
331
593
  5
593
331
5D2
  5
5D2
331
609
  5
609
331
734
  5
734
331
7E9
  5
7E9
331
73C
  5
73C
331
773
  5
773
331
6C6
  5
6C6
331
6FD
  5
6FD
331
611
  5
611
331
59B
  5
59B
331
687
  5
687
331
7B2
  5
7B2
331
77B
  5
77B
331
705
  5
705
331
68F
  5
68F
331
619
  5
619
331
650
  5
650
331
5A3
  5
5A3
331
5DA
  5
5DA
331
7BA
  5
7BA
331
70D
  5
70D
331
744
  5
744
331
697
  5
697
331
6CE
  5
6CE
331
783
  5
783
331
5E2
  5
5E2
331
621
  5
621
331
5AB
  5
5AB
331
658
  5
658
331
78B
  5
78B
331
7C2
  5
7C2
331
715
  5
715
331
74C
  5
74C
331
660
  5
660
331
69F
  5
69F
331
6D6
  5
6D6
331
5B3
  5
5B3
331
5EA
  5
5EA
331
629
  5
629
331
793
  5
793
331
7CA
  5
7CA
331
6A7
  5
6A7
331
6DE
  5
6DE
331
631
  5
631
331
668
  5
668
331
5BB
  5
5BB
331
5F2
  5
5F2
331
71D
  5
71D
331
754
  5
754
331
725
  5
725
331
75C
  5
75C
331
6AF
  5
6AF
331
6E6
  5
6E6
331
79B
  5
79B
331
7D2
  5
7D2
331
639
  5
639
331
670
  5
670
331
584
  5
584
331
5C3
  5
5C3
331
5FA
  5
5FA
331
7DA
  5
7DA
331
72D
  5
72D
331
764
  5
764
331
6B7
  5
6B7
331
6EE
  5
6EE
331
602
  5
602
331
641
  5
641
331
678
  5
678
331
58C
  5
58C
331
5CB
  5
5CB
331
7A3
  5
7A3
331
7AB
  5
7AB
331
7E2
  5
7E2
331
735
  5
735
331
76C
  5
76C
331
680
  5
680
331
6BF
  5
6BF
331
6F6
  5
6F6
331
5D3
  5
5D3
331
60A
  5
60A
331
594
  5
594
331
649
  5
649
331
7B3
  5
7B3
331
7EA
  5
7EA
331
6C7
  5
6C7
331
6FE
  5
6FE
331
688
  5
688
331
612
  5
612
331
73D
  5
73D
331
774
  5
774
331
59C
  5
59C
331
77C
  5
77C
331
706
  5
706
331
651
  5
651
331
690
  5
690
331
5A4
  5
5A4
331
5DB
  5
5DB
331
61A
  5
61A
331
784
  5
784
331
7BB
  5
7BB
331
6CF
  5
6CF
331
70E
  5
70E
331
622
  5
622
331
659
  5
659
331
5AC
  5
5AC
331
5E3
  5
5E3
331
698
  5
698
331
745
  5
745
331
74D
  5
74D
331
78C
  5
78C
331
6A0
  5
6A0
331
6D7
  5
6D7
331
62A
  5
62A
331
661
  5
661
331
716
  5
716
331
5B4
  5
5B4
331
5EB
  5
5EB
331
7C3
  5
7C3
331
794
  5
794
331
7CB
  5
7CB
331
71E
  5
71E
331
755
  5
755
331
6A8
  5
6A8
331
6DF
  5
6DF
331
5BC
  5
5BC
331
5F3
  5
5F3
331
632
  5
632
331
669
  5
669
331
79C
  5
79C
331
7D3
  5
7D3
331
726
  5
726
331
75D
  5
75D
331
6E7
  5
6E7
331
671
  5
671
331
6B0
  5
6B0
331
5C4
  5
5C4
331
5FB
  5
5FB
331
585
  5
585
331
63A
  5
63A
331
7A4
  5
7A4
331
7DB
  5
7DB
331
6B8
  5
6B8
331
6EF
  5
6EF
331
642
  5
642
331
679
  5
679
331
5CC
  5
5CC
331
603
  5
603
331
72E
  5
72E
331
58D
  5
58D
331
765
  5
765
331
736
  5
736
331
76D
  5
76D
331
6C0
  5
6C0
331
6F7
  5
6F7
331
64A
  5
64A
331
681
  5
681
331
7AC
  5
7AC
331
595
  5
595
331
5D4
  5
5D4
331
60B
  5
60B
331
7E3
  5
7E3
331
7EB
  5
7EB
331
73E
  5
73E
331
775
  5
775
331
6FF
  5
6FF
331
613
  5
613
331
59D
  5
59D
331
689
  5
689
331
7B4
  5
7B4
331
77D
  5
77D
331
707
  5
707
331
691
  5
691
331
6C8
  5
6C8
331
61B
  5
61B
331
652
  5
652
331
5A5
  5
5A5
331
5DC
  5
5DC
331
7BC
  5
7BC
331
70F
  5
70F
331
746
  5
746
331
699
  5
699
331
6D0
  5
6D0
331
785
  5
785
331
5E4
  5
5E4
331
623
  5
623
331
5AD
  5
5AD
331
65A
  5
65A
331
78D
  5
78D
331
7C4
  5
7C4
331
6D8
  5
6D8
331
717
  5
717
331
74E
  5
74E
331
62B
  5
62B
331
662
  5
662
331
5B5
  5
5B5
331
5EC
  5
5EC
331
6A1
  5
6A1
331
795
  5
795
331
7CC
  5
7CC
331
6A9
  5
6A9
331
6E0
  5
6E0
331
633
  5
633
331
66A
  5
66A
331
5BD
  5
5BD
331
5F4
  5
5F4
331
71F
  5
71F
331
756
  5
756
331
727
  5
727
331
75E
  5
75E
331
79D
  5
79D
331
7D4
  5
7D4
331
6B1
  5
6B1
331
6E8
  5
6E8
331
63B
  5
63B
331
672
  5
672
331
586
  5
586
331
5C5
  5
5C5
331
5FC
  5
5FC
331
7A5
  5
7A5
331
7DC
  5
7DC
331
72F
  5
72F
331
766
  5
766
331
6B9
  5
6B9
331
6F0
  5
6F0
331
5CD
  5
5CD
331
604
  5
604
331
58E
  5
58E
331
643
  5
643
331
67A
  5
67A
331
7AD
  5
7AD
331
7E4
  5
7E4
331
737
  5
737
331
76E
  5
76E
331
682
  5
682
331
6C1
  5
6C1
331
6F8
  5
6F8
331
5D5
  5
5D5
331
60C
  5
60C
331
596
  5
596
331
64B
  5
64B
331
7B5
  5
7B5
331
7EC
  5
7EC
331
700
  5
700
331
68A
  5
68A
331
614
  5
614
331
73F
  5
73F
331
776
  5
776
331
59E
  5
59E
331
77E
  5
77E
331
6C9
  5
6C9
331
708
  5
708
331
653
  5
653
331
692
  5
692
331
5A6
  5
5A6
331
5DD
  5
5DD
331
61C
  5
61C
331
747
  5
747
331
786
  5
786
331
6D1
  5
6D1
331
710
  5
710
331
7BD
  5
7BD
331
624
  5
624
331
65B
  5
65B
331
5AE
  5
5AE
331
5E5
  5
5E5
331
69A
  5
69A
331
718
  5
718
331
74F
  5
74F
331
6A2
  5
6A2
331
6D9
  5
6D9
331
78E
  5
78E
331
62C
  5
62C
331
663
  5
663
331
5B6
  5
5B6
331
5ED
  5
5ED
331
7C5
  5
7C5
331
796
  5
796
331
7CD
  5
7CD
331
720
  5
720
331
757
  5
757
331
6AA
  5
6AA
331
6E1
  5
6E1
331
5BE
  5
5BE
331
5F5
  5
5F5
331
634
  5
634
331
66B
  5
66B
331
79E
  5
79E
331
7D5
  5
7D5
331
75F
  5
75F
331
6E9
  5
6E9
331
728
  5
728
331
63C
  5
63C
331
673
  5
673
331
5C6
  5
5C6
331
5FD
  5
5FD
331
587
  5
587
331
6B2
  5
6B2
331
7A6
  5
7A6
331
7DD
  5
7DD
331
6BA
  5
6BA
331
6F1
  5
6F1
331
644
  5
644
331
67B
  5
67B
331
5CE
  5
5CE
331
605
  5
605
331
730
  5
730
331
58F
  5
58F
331
767
  5
767
331
738
  5
738
331
76F
  5
76F
331
6C2
  5
6C2
331
6F9
  5
6F9
331
64C
  5
64C
331
683
  5
683
331
7AE
  5
7AE
331
597
  5
597
331
5D6
  5
5D6
331
60D
  5
60D
331
7E5
  5
7E5
331
7B6
  5
7B6
331
7ED
  5
7ED
331
777
  5
777
331
701
  5
701
331
615
  5
615
331
59F
  5
59F
331
68B
  5
68B
331
77F
  5
77F
331
740
  5
740
331
693
  5
693
331
6CA
  5
6CA
331
5DE
  5
5DE
331
61D
  5
61D
331
5A7
  5
5A7
331
654
  5
654
331
709
  5
709
331
7BE
  5
7BE
331
711
  5
711
331
748
  5
748
331
69B
  5
69B
331
6D2
  5
6D2
331
787
  5
787
331
5E6
  5
5E6
331
625
  5
625
331
5AF
  5
5AF
331
65C
  5
65C
331
78F
  5
78F
331
7C6
  5
7C6
331
6DA
  5
6DA
331
719
  5
719
331
750
  5
750
331
62D
  5
62D
331
664
  5
664
331
5B7
  5
5B7
331
5EE
  5
5EE
331
6A3
  5
6A3
331
758
  5
758
331
797
  5
797
331
7CE
  5
7CE
331
6AB
  5
6AB
331
6E2
  5
6E2
331
635
  5
635
331
66C
  5
66C
331
5BF
  5
5BF
331
5F6
  5
5F6
331
721
  5
721
331
79F
  5
79F
331
7D6
  5
7D6
  0
LAYOUT
  5
21
102
{ACAD_REACTORS
330
1E
102
}
330
1E
100
AcDbPlotSettings
  1

  2

  4

  6

 40
0.0
 41
0.0
 42
0.0
 43
0.0
 44
0.0
 45
0.0
 46
0.0
 47
0.0
 48
0.0
 49
0.0
140
0.0
141
0.0
142
1.0
143
1.0
 70
     0
 72
     0
 73
     0
 74
     0
  7

 75
     0
147
1.0
 76
     0
 77
     2
 78
   300
148
0.0
149
0.0
100
AcDbLayout
  1
Layout1
 70
     0
 71
     1
 10
0.0
 20
0.0
 11
12.0
 21
9.0
 12
0.0
 22
0.0
 32
0.0
 14
1.000000000000000E+20
 24
1.000000000000000E+20
 34
1.000000000000000E+20
 15
-1.000000000000000E+20
 25
-1.000000000000000E+20
 35
-1.000000000000000E+20
146
0.0
 13
0.0
 23
0.0
 33
0.0
 16
1.0
 26
0.0
 36
0.0
 17
0.0
 27
1.0
 37
0.0
 76
     0
330
B
  0
LAYOUT
  5
20
102
{ACAD_REACTORS
330
1E
102
}
330
1E
100
AcDbPlotSettings
  1

  2

  4

  6

 40
0.0
 41
0.0
 42
0.0
 43
0.0
 44
0.0
 45
0.0
 46
0.0
 47
0.0
 48
0.0
 49
0.0
140
0.0
141
0.0
142
1.0
143
1.0
 70
  1024
 72
     0
 73
     0
 74
     0
  7

 75
     0
147
1.0
 76
     0
 77
     2
 78
   300
148
0.0
149
0.0
100
AcDbLayout
  1
Model
 70
     0
 71
     0
 10
0.0
 20
0.0
 11
0.0
 21
0.0
 12
0.0
 22
0.0
 32
0.0
 14
0.0
 24
0.0
 34
0.0
 15
0.0
 25
0.0
 35
0.0
146
0.0
 13
0.0
 23
0.0
 33
0.0
 16
0.0
 26
0.0
 36
0.0
 17
0.0
 27
0.0
 37
0.0
 76
     0
330
A
331
15
  0
MATERIAL
  5
2B0
102
{ACAD_XDICTIONARY
360
2B1
102
}
102
{ACAD_REACTORS
330
2A7
102
}
330
2A7
100
AcDbMaterial
  1
ByBlock
 72
     0
 43
0.0208333333333333
 43
0.0
 43
0.0
 43
0.0
 43
0.0
 43
0.0208333333333333
 43
0.0
 43
0.0
 43
0.0
 43
0.0
 43
1.0
 43
0.0
 43
0.0
 43
0.0
 43
0.0
 43
1.0
 77
     0
 47
0.0208333333333333
 47
0.0
 47
0.0
 47
0.0
 47
0.0
 47
0.0208333333333333
 47
0.0
 47
0.0
 47
0.0
 47
0.0
 47
1.0
 47
0.0
 47
0.0
 47
0.0
 47
0.0
 47
1.0
171
     0
 49
0.0208333333333333
 49
0.0
 49
0.0
 49
0.0
 49
0.0
 49
0.0208333333333333
 49
0.0
 49
0.0
 49
0.0
 49
0.0
 49
1.0
 49
0.0
 49
0.0
 49
0.0
 49
0.0
 49
1.0
175
     0
142
0.0208333333333333
142
0.0
142
0.0
142
0.0
142
0.0
142
0.0208333333333333
142
0.0
142
0.0
142
0.0
142
0.0
142
1.0
142
0.0
142
0.0
142
0.0
142
0.0
142
1.0
179
     0
144
0.0208333333333333
144
0.0
144
0.0
144
0.0
144
0.0
144
0.0208333333333333
144
0.0
144
0.0
144
0.0
144
0.0
144
1.0
144
0.0
144
0.0
144
0.0
144
0.0
144
1.0
147
0.0208333333333333
147
0.0
147
0.0
147
0.0
147
0.0
147
0.0208333333333333
147
0.0
147
0.0
147
0.0
147
0.0
147
1.0
147
0.0
147
0.0
147
0.0
147
0.0
147
1.0
  0
MATERIAL
  5
2A8
102
{ACAD_XDICTIONARY
360
2A9
102
}
102
{ACAD_REACTORS
330
2A7
102
}
330
2A7
100
AcDbMaterial
  1
ByLayer
 72
     0
 43
0.0208333333333333
 43
0.0
 43
0.0
 43
0.0
 43
0.0
 43
0.0208333333333333
 43
0.0
 43
0.0
 43
0.0
 43
0.0
 43
1.0
 43
0.0
 43
0.0
 43
0.0
 43
0.0
 43
1.0
 77
     0
 47
0.0208333333333333
 47
0.0
 47
0.0
 47
0.0
 47
0.0
 47
0.0208333333333333
 47
0.0
 47
0.0
 47
0.0
 47
0.0
 47
1.0
 47
0.0
 47
0.0
 47
0.0
 47
0.0
 47
1.0
171
     0
 49
0.0208333333333333
 49
0.0
 49
0.0
 49
0.0
 49
0.0
 49
0.0208333333333333
 49
0.0
 49
0.0
 49
0.0
 49
0.0
 49
1.0
 49
0.0
 49
0.0
 49
0.0
 49
0.0
 49
1.0
175
     0
142
0.0208333333333333
142
0.0
142
0.0
142
0.0
142
0.0
142
0.0208333333333333
142
0.0
142
0.0
142
0.0
142
0.0
142
1.0
142
0.0
142
0.0
142
0.0
142
0.0
142
1.0
179
     0
144
0.0208333333333333
144
0.0
144
0.0
144
0.0
144
0.0
144
0.0208333333333333
144
0.0
144
0.0
144
0.0
144
0.0
144
1.0
144
0.0
144
0.0
144
0.0
144
0.0
144
1.0
147
0.0208333333333333
147
0.0
147
0.0
147
0.0
147
0.0
147
0.0208333333333333
147
0.0
147
0.0
147
0.0
147
0.0
147
1.0
147
0.0
147
0.0
147
0.0
147
0.0
147
1.0
  0
MATERIAL
  5
2B8
102
{ACAD_XDICTIONARY
360
2B9
102
}
102
{ACAD_REACTORS
330
2A7
102
}
330
2A7
100
AcDbMaterial
  1
Global
 72
     0
 43
0.0208333333333333
 43
0.0
 43
0.0
 43
0.0
 43
0.0
 43
0.0208333333333333
 43
0.0
 43
0.0
 43
0.0
 43
0.0
 43
1.0
 43
0.0
 43
0.0
 43
0.0
 43
0.0
 43
1.0
 77
     0
 47
0.0208333333333333
 47
0.0
 47
0.0
 47
0.0
 47
0.0
 47
0.0208333333333333
 47
0.0
 47
0.0
 47
0.0
 47
0.0
 47
1.0
 47
0.0
 47
0.0
 47
0.0
 47
0.0
 47
1.0
171
     0
 49
0.0208333333333333
 49
0.0
 49
0.0
 49
0.0
 49
0.0
 49
0.0208333333333333
 49
0.0
 49
0.0
 49
0.0
 49
0.0
 49
1.0
 49
0.0
 49
0.0
 49
0.0
 49
0.0
 49
1.0
175
     0
142
0.0208333333333333
142
0.0
142
0.0
142
0.0
142
0.0
142
0.0208333333333333
142
0.0
142
0.0
142
0.0
142
0.0
142
1.0
142
0.0
142
0.0
142
0.0
142
0.0
142
1.0
179
     0
144
0.0208333333333333
144
0.0
144
0.0
144
0.0
144
0.0
144
0.0208333333333333
144
0.0
144
0.0
144
0.0
144
0.0
144
1.0
144
0.0
144
0.0
144
0.0
144
0.0
144
1.0
147
0.0208333333333333
147
0.0
147
0.0
147
0.0
147
0.0
147
0.0208333333333333
147
0.0
147
0.0
147
0.0
147
0.0
147
1.0
147
0.0
147
0.0
147
0.0
147
0.0
147
1.0
  0
MLEADERSTYLE
  5
2E7
102
{ACAD_REACTORS
330
2E6
102
}
330
2E6
100
AcDbMLeaderStyle
170
     2
171
     1
172
     0
 90
        2
 40
0.0
 41
0.0
173
     1
 91
-1056964608
340
11
 92
       -2
290
     1
 42
2.0
291
     1
 43
0.36
  3
Standard
 44
4.0
300

342
17
174
     1
178
     6
175
     1
176
     0
 93
-1056964608
 45
4.0
292
     0
297
     0
 46
4.0
 94
-1056964608
 47
1.0
 49
1.0
140
1.0
293
     1
141
0.0
294
     1
177
     0
142
1.0
295
     0
296
     0
143
0.125
1001
ACAD_MLEADERVER
1070
     2
  0
MLINESTYLE
  5
1C
102
{ACAD_REACTORS
330
1B
102
}
330
1B
100
AcDbMlineStyle
  2
STANDARD
 70
     0
  3

 62
     0
 51
90.0
 52
90.0
 71
     2
 49
0.5
 62
   256
  6
BYLAYER
 49
-0.5
 62
   256
  6
BYLAYER
  0
ACDBPLACEHOLDER
  5
1D
102
{ACAD_REACTORS
330
1F
102
}
330
1F
  0
SCALE
  5
2D5
102
{ACAD_REACTORS
330
2D4
102
}
330
2D4
100
AcDbScale
 70
     0
300
1:1
140
1.0
141
1.0
290
     1
  0
SCALE
  5
2D6
102
{ACAD_REACTORS
330
2D4
102
}
330
2D4
100
AcDbScale
 70
     0
300
1:2
140
1.0
141
2.0
290
     0
  0
SCALE
  5
2D7
102
{ACAD_REACTORS
330
2D4
102
}
330
2D4
100
AcDbScale
 70
     0
300
1:4
140
1.0
141
4.0
290
     0
  0
SCALE
  5
2D8
102
{ACAD_REACTORS
330
2D4
102
}
330
2D4
100
AcDbScale
 70
     0
300
1:5
140
1.0
141
5.0
290
     0
  0
SCALE
  5
2D9
102
{ACAD_REACTORS
330
2D4
102
}
330
2D4
100
AcDbScale
 70
     0
300
1:8
140
1.0
141
8.0
290
     0
  0
SCALE
  5
2DA
102
{ACAD_REACTORS
330
2D4
102
}
330
2D4
100
AcDbScale
 70
     0
300
1:10
140
1.0
141
10.0
290
     0
  0
SCALE
  5
2DB
102
{ACAD_REACTORS
330
2D4
102
}
330
2D4
100
AcDbScale
 70
     0
300
1:16
140
1.0
141
16.0
290
     0
  0
SCALE
  5
2DC
102
{ACAD_REACTORS
330
2D4
102
}
330
2D4
100
AcDbScale
 70
     0
300
1:20
140
1.0
141
20.0
290
     0
  0
SCALE
  5
2DD
102
{ACAD_REACTORS
330
2D4
102
}
330
2D4
100
AcDbScale
 70
     0
300
1:30
140
1.0
141
30.0
290
     0
  0
SCALE
  5
2DE
102
{ACAD_REACTORS
330
2D4
102
}
330
2D4
100
AcDbScale
 70
     0
300
1:40
140
1.0
141
40.0
290
     0
  0
SCALE
  5
2DF
102
{ACAD_REACTORS
330
2D4
102
}
330
2D4
100
AcDbScale
 70
     0
300
1:50
140
1.0
141
50.0
290
     0
  0
SCALE
  5
2E0
102
{ACAD_REACTORS
330
2D4
102
}
330
2D4
100
AcDbScale
 70
     0
300
1:100
140
1.0
141
100.0
290
     0
  0
SCALE
  5
2E1
102
{ACAD_REACTORS
330
2D4
102
}
330
2D4
100
AcDbScale
 70
     0
300
2:1
140
2.0
141
1.0
290
     0
  0
SCALE
  5
2E2
102
{ACAD_REACTORS
330
2D4
102
}
330
2D4
100
AcDbScale
 70
     0
300
4:1
140
4.0
141
1.0
290
     0
  0
SCALE
  5
2E3
102
{ACAD_REACTORS
330
2D4
102
}
330
2D4
100
AcDbScale
 70
     0
300
8:1
140
8.0
141
1.0
290
     0
  0
SCALE
  5
2E4
102
{ACAD_REACTORS
330
2D4
102
}
330
2D4
100
AcDbScale
 70
     0
300
10:1
140
10.0
141
1.0
290
     0
  0
SCALE
  5
2E5
102
{ACAD_REACTORS
330
2D4
102
}
330
2D4
100
AcDbScale
 70
     0
300
100:1
140
100.0
141
1.0
290
     0
  0
TABLESTYLE
  5
2D3
102
{ACAD_XDICTIONARY
360
572
102
}
102
{ACAD_REACTORS
330
2D2
102
}
330
2D2
100
AcDbTableStyle
  3
Standard
 70
     0
 71
     0
 40
1.5
 41
1.5
280
     0
281
     0
  7
Standard
140
4.5
170
     2
 62
     0
 63
     7
283
     0
 90
      512
 91
        0
  1

274
    -2
284
     1
 64
     0
275
    -2
285
     1
 65
     0
276
    -2
286
     1
 66
     0
277
    -2
287
     1
 67
     0
278
    -2
288
     1
 68
     0
279
    -2
289
     1
 69
     0
  7
Standard
140
6.0
170
     5
 62
     0
 63
     7
283
     0
 90
      512
 91
        0
  1

274
    -2
284
     1
 64
     0
275
    -2
285
     1
 65
     0
276
    -2
286
     1
 66
     0
277
    -2
287
     1
 67
     0
278
    -2
288
     1
 68
     0
279
    -2
289
     1
 69
     0
  7
Standard
140
4.5
170
     5
 62
     0
 63
     7
283
     0
 90
      512
 91
        0
  1

274
    -2
284
     1
 64
     0
275
    -2
285
     1
 65
     0
276
    -2
286
     1
 66
     0
277
    -2
287
     1
 67
     0
278
    -2
288
     1
 68
     0
279
    -2
289
     1
 69
     0
  0
VISUALSTYLE
  5
2C6
102
{ACAD_REACTORS
330
2C0
102
}
330
2C0
100
AcDbVisualStyle
  2
2dWireframe
 70
     4
 71
     0
 72
     2
 73
     0
 90
        0
 40
-0.6
 41
-30.0
 62
     5
 63
     7
421
 16777215
 74
     1
 91
        4
 64
     7
 65
   257
 75
     1
175
     1
 42
1.0
 92
        0
 66
   257
 43
1.0
 76
     1
 77
     6
 78
     2
 67
     7
 79
     5
170
     0
171
     0
290
     0
174
     0
 93
        1
 44
0.0
173
     0
291
     0
 45
0.0
  0
VISUALSTYLE
  5
2C8
102
{ACAD_REACTORS
330
2C0
102
}
330
2C0
100
AcDbVisualStyle
  2
3D Hidden
 70
     6
 71
     1
 72
     2
 73
     2
 90
        0
 40
-0.6
 41
-30.0
 62
     5
 63
     7
421
 16777215
 74
     2
 91
        2
 64
     7
 65
   257
 75
     2
175
     1
 42
40.0
 92
        0
 66
   257
 43
1.0
 76
     1
 77
     6
 78
     2
 67
     7
 79
     3
170
     0
171
     0
290
     0
174
     0
 93
        1
 44
0.0
173
     0
291
     0
 45
0.0
  0
VISUALSTYLE
  5
2C7
102
{ACAD_REACTORS
330
2C0
102
}
330
2C0
100
AcDbVisualStyle
  2
3dWireframe
 70
     5
 71
     0
 72
     2
 73
     0
 90
        0
 40
-0.6
 41
-30.0
 62
     5
 63
     7
421
 16777215
 74
     1
 91
        4
 64
     7
 65
   257
 75
     1
175
     1
 42
1.0
 92
        0
 66
   257
 43
1.0
 76
     1
 77
     6
 78
     2
 67
     7
 79
     5
170
     0
171
     0
290
     0
174
     0
 93
        1
 44
0.0
173
     0
291
     0
 45
0.0
  0
VISUALSTYLE
  5
2C5
102
{ACAD_REACTORS
330
2C0
102
}
330
2C0
100
AcDbVisualStyle
  2
Basic
 70
     7
 71
     1
 72
     0
 73
     1
 90
        0
 40
-0.6
 41
-30.0
 62
     5
 63
     7
421
 16777215
 74
     0
 91
        4
 64
     7
 65
   257
 75
     1
175
     1
 42
1.0
 92
        8
 66
     7
 43
1.0
 76
     1
 77
     6
 78
     2
 67
     7
 79
     5
170
     0
171
     0
290
     0
174
     0
 93
        1
 44
0.0
173
     0
291
     1
 45
0.0
  0
VISUALSTYLE
  5
2CC
102
{ACAD_REACTORS
330
2C0
102
}
330
2C0
100
AcDbVisualStyle
  2
Brighten
 70
    12
 71
     2
 72
     2
 73
     0
 90
        0
 40
-0.6
 41
-30.0
 62
     5
 63
     7
421
 16777215
 74
     1
 91
        4
 64
     7
 65
   257
 75
     1
175
     1
 42
1.0
 92
        8
 66
     7
 43
1.0
 76
     1
 77
     6
 78
     2
 67
     7
 79
     5
170
     0
171
     0
290
     0
174
     0
 93
        1
 44
50.0
173
     0
291
     1
 45
0.0
  0
VISUALSTYLE
  5
2D0
102
{ACAD_REACTORS
330
2C0
102
}
330
2C0
100
AcDbVisualStyle
  2
ColorChange
 70
    16
 71
     2
 72
     2
 73
     3
 90
        0
 40
-0.6
 41
-30.0
 62
     5
 63
     8
421
  8421504
 74
     1
 91
        4
 64
     7
 65
   257
 75
     1
175
     1
 42
1.0
 92
        8
 66
     8
424
  8421504
 43
1.0
 76
     1
 77
     6
 78
     2
 67
     7
 79
     5
170
     0
171
     0
290
     0
174
     0
 93
        1
 44
0.0
173
     0
291
     1
 45
0.0
  0
VISUALSTYLE
  5
2C9
102
{ACAD_REACTORS
330
2C0
102
}
330
2C0
100
AcDbVisualStyle
  2
Conceptual
 70
     9
 71
     3
 72
     2
 73
     0
 90
        0
 40
-0.6
 41
-30.0
 62
     5
 63
     7
421
 16777215
 74
     2
 91
        2
 64
     7
 65
   257
 75
     1
175
     1
 42
40.0
 92
        8
 66
     7
 43
1.0
 76
     1
 77
     6
 78
     2
 67
     7
 79
     3
170
     0
171
     0
290
     0
174
     0
 93
        1
 44
0.0
173
     0
291
     0
 45
0.0
  0
VISUALSTYLE
  5
2CB
102
{ACAD_REACTORS
330
2C0
102
}
330
2C0
100
AcDbVisualStyle
  2
Dim
 70
    11
 71
     2
 72
     2
 73
     0
 90
        0
 40
-0.6
 41
-30.0
 62
     5
 63
     7
421
 16777215
 74
     1
 91
        4
 64
     7
 65
   257
 75
     1
175
     1
 42
1.0
 92
        8
 66
     7
 43
1.0
 76
     1
 77
     6
 78
     2
 67
     7
 79
     5
170
     0
171
     0
290
     0
174
     0
 93
        1
 44
-50.0
173
     0
291
     1
 45
0.0
  0
VISUALSTYLE
  5
2CF
102
{ACAD_REACTORS
330
2C0
102
}
330
2C0
100
AcDbVisualStyle
  2
Facepattern
 70
    15
 71
     2
 72
     2
 73
     0
 90
        0
 40
-0.6
 41
-30.0
 62
     5
 63
     7
421
 16777215
 74
     1
 91
        4
 64
     7
 65
   257
 75
     1
175
     1
 42
1.0
 92
        8
 66
     7
 43
1.0
 76
     1
 77
     6
 78
     2
 67
     7
 79
     5
170
     0
171
     0
290
     0
174
     0
 93
        1
 44
0.0
173
     0
291
     1
 45
0.0
  0
VISUALSTYLE
  5
2C1
102
{ACAD_REACTORS
330
2C0
102
}
330
2C0
100
AcDbVisualStyle
  2
Flat
 70
     0
 71
     2
 72
     1
 73
     1
 90
        2
 40
-0.6
 41
30.0
 62
     5
 63
     7
421
 16777215
 74
     0
 91
        4
 64
     7
 65
   257
 75
     1
175
     1
 42
1.0
 92
        8
 66
     7
 43
1.0
 76
     1
 77
     6
 78
     2
 67
     7
 79
     5
170
     0
171
     0
290
     0
174
     0
 93
       13
 44
0.0
173
     0
291
     1
 45
0.0
  0
VISUALSTYLE
  5
2C2
102
{ACAD_REACTORS
330
2C0
102
}
330
2C0
100
AcDbVisualStyle
  2
FlatWithEdges
 70
     1
 71
     2
 72
     1
 73
     1
 90
        2
 40
-0.6
 41
30.0
 62
     5
 63
     7
421
 16777215
 74
     1
 91
        4
 64
     7
 65
   257
 75
     1
175
     1
 42
1.0
 92
        0
 66
   257
 43
1.0
 76
     1
 77
     6
 78
     2
 67
     7
 79
     5
170
     0
171
     0
290
     0
174
     0
 93
       13
 44
0.0
173
     0
291
     1
 45
0.0
  0
VISUALSTYLE
  5
2C3
102
{ACAD_REACTORS
330
2C0
102
}
330
2C0
100
AcDbVisualStyle
  2
Gouraud
 70
     2
 71
     2
 72
     2
 73
     1
 90
        2
 40
-0.6
 41
30.0
 62
     5
 63
     7
421
 16777215
 74
     0
 91
        4
 64
     7
 65
   257
 75
     1
175
     1
 42
1.0
 92
        0
 66
     7
 43
1.0
 76
     1
 77
     6
 78
     2
 67
     7
 79
     5
170
     0
171
     0
290
     0
174
     0
 93
       13
 44
0.0
173
     0
291
     1
 45
0.0
  0
VISUALSTYLE
  5
2C4
102
{ACAD_REACTORS
330
2C0
102
}
330
2C0
100
AcDbVisualStyle
  2
GouraudWithEdges
 70
     3
 71
     2
 72
     2
 73
     1
 90
        2
 40
-0.6
 41
30.0
 62
     5
 63
     7
421
 16777215
 74
     1
 91
        4
 64
     7
 65
   257
 75
     1
175
     1
 42
1.0
 92
        0
 66
   257
 43
1.0
 76
     1
 77
     6
 78
     2
 67
     7
 79
     5
170
     0
171
     0
290
     0
174
     0
 93
       13
 44
0.0
173
     0
291
     1
 45
0.0
  0
VISUALSTYLE
  5
2CE
102
{ACAD_REACTORS
330
2C0
102
}
330
2C0
100
AcDbVisualStyle
  2
Linepattern
 70
    14
 71
     2
 72
     2
 73
     0
 90
        0
 40
-0.6
 41
-30.0
 62
     5
 63
     7
421
 16777215
 74
     1
 91
        4
 64
     7
 65
   257
 75
     7
175
     7
 42
1.0
 92
        8
 66
     7
 43
1.0
 76
     1
 77
     6
 78
     2
 67
     7
 79
     5
170
     0
171
     0
290
     0
174
     0
 93
        1
 44
0.0
173
     0
291
     1
 45
0.0
  0
VISUALSTYLE
  5
2CA
102
{ACAD_REACTORS
330
2C0
102
}
330
2C0
100
AcDbVisualStyle
  2
Realistic
 70
     8
 71
     2
 72
     2
 73
     0
 90
        0
 40
-0.6
 41
-30.0
 62
     5
 63
     7
421
 16777215
 74
     1
 91
        0
 64
     7
 65
   257
 75
     1
175
     1
 42
1.0
 92
        8
 66
     8
424
  7895160
 43
1.0
 76
     1
 77
     6
 78
     2
 67
     7
 79
     5
170
     0
171
     0
290
     0
174
     0
 93
       13
 44
0.0
173
     0
291
     0
 45
0.0
  0
VISUALSTYLE
  5
2CD
102
{ACAD_REACTORS
330
2C0
102
}
330
2C0
100
AcDbVisualStyle
  2
Thicken
 70
    13
 71
     2
 72
     2
 73
     0
 90
        0
 40
-0.6
 41
-30.0
 62
     5
 63
     7
421
 16777215
 74
     1
 91
        4
 64
     7
 65
   257
 75
     1
175
     1
 42
1.0
 92
       12
 66
     7
 43
1.0
 76
     1
 77
     6
 78
     2
 67
     7
 79
     5
170
     0
171
     0
290
     0
174
     0
 93
        1
 44
0.0
173
     0
291
     1
 45
0.0
  0
DICTIONARYVAR
  5
579
102
{ACAD_REACTORS
330
575
102
}
330
575
100
DictionaryVariables
280
     0
  1
1:1
  0
DICTIONARYVAR
  5
577
102
{ACAD_REACTORS
330
575
102
}
330
575
100
DictionaryVariables
280
     0
  1
STANDARD
  0
DICTIONARYVAR
  5
576
102
{ACAD_REACTORS
330
575
102
}
330
575
100
DictionaryVariables
280
     0
  1
STANDARD
  0
DICTIONARYVAR
  5
57B
102
{ACAD_REACTORS
330
575
102
}
330
575
100
DictionaryVariables
280
     0
  1
1
  0
DICTIONARYVAR
  5
57C
102
{ACAD_REACTORS
330
575
102
}
330
575
100
DictionaryVariables
280
     0
  1
15
  0
DICTIONARYVAR
  5
57A
102
{ACAD_REACTORS
330
575
102
}
330
575
100
DictionaryVariables
280
     0
  1
0
  0
DICTIONARYVAR
  5
578
102
{ACAD_REACTORS
330
575
102
}
330
575
100
DictionaryVariables
280
     0
  1
0
  0
DICTIONARY
  5
2B1
330
2B0
100
AcDbDictionary
280
     1
281
     1
  3
BUMPTILE
360
2B3
  3
DIFFUSETILE
360
2B2
  3
OPACITYTILE
360
2B6
  3
REFLECTIONTILE
360
2B5
  3
REFRACTIONTILE
360
2B7
  3
SPECULARTILE
360
2B4
  0
DICTIONARY
  5
2A9
330
2A8
100
AcDbDictionary
280
     1
281
     1
  3
BUMPTILE
360
2AB
  3
DIFFUSETILE
360
2AA
  3
OPACITYTILE
360
2AE
  3
REFLECTIONTILE
360
2AD
  3
REFRACTIONTILE
360
2AF
  3
SPECULARTILE
360
2AC
  0
DICTIONARY
  5
2B9
330
2B8
100
AcDbDictionary
280
     1
281
     1
  3
BUMPTILE
360
2BB
  3
DIFFUSETILE
360
2BA
  3
OPACITYTILE
360
2BE
  3
REFLECTIONTILE
360
2BD
  3
REFRACTIONTILE
360
2BF
  3
SPECULARTILE
360
2BC
  0
DICTIONARY
  5
572
330
2D3
100
AcDbDictionary
280
     1
281
     1
  3
ACAD_ROUNDTRIP_2008_TABLESTYLE_CELLSTYLEMAP
360
841
  0
XRECORD
  5
2B3
102
{ACAD_REACTORS
330
2B1
102
}
330
2B1
100
AcDbXrecord
280
     1
270
     1
271
     1
  0
XRECORD
  5
2B2
102
{ACAD_REACTORS
330
2B1
102
}
330
2B1
100
AcDbXrecord
280
     1
270
     1
271
     1
  0
XRECORD
  5
2B6
102
{ACAD_REACTORS
330
2B1
102
}
330
2B1
100
AcDbXrecord
280
     1
270
     1
271
     1
  0
XRECORD
  5
2B5
102
{ACAD_REACTORS
330
2B1
102
}
330
2B1
100
AcDbXrecord
280
     1
270
     1
271
     1
  0
XRECORD
  5
2B7
102
{ACAD_REACTORS
330
2B1
102
}
330
2B1
100
AcDbXrecord
280
     1
270
     1
271
     1
  0
XRECORD
  5
2B4
102
{ACAD_REACTORS
330
2B1
102
}
330
2B1
100
AcDbXrecord
280
     1
270
     1
271
     1
  0
XRECORD
  5
2AB
102
{ACAD_REACTORS
330
2A9
102
}
330
2A9
100
AcDbXrecord
280
     1
270
     1
271
     1
  0
XRECORD
  5
2AA
102
{ACAD_REACTORS
330
2A9
102
}
330
2A9
100
AcDbXrecord
280
     1
270
     1
271
     1
  0
XRECORD
  5
2AE
102
{ACAD_REACTORS
330
2A9
102
}
330
2A9
100
AcDbXrecord
280
     1
270
     1
271
     1
  0
XRECORD
  5
2AD
102
{ACAD_REACTORS
330
2A9
102
}
330
2A9
100
AcDbXrecord
280
     1
270
     1
271
     1
  0
XRECORD
  5
2AF
102
{ACAD_REACTORS
330
2A9
102
}
330
2A9
100
AcDbXrecord
280
     1
270
     1
271
     1
  0
XRECORD
  5
2AC
102
{ACAD_REACTORS
330
2A9
102
}
330
2A9
100
AcDbXrecord
280
     1
270
     1
271
     1
  0
XRECORD
  5
2BB
102
{ACAD_REACTORS
330
2B9
102
}
330
2B9
100
AcDbXrecord
280
     1
270
     1
271
     1
  0
XRECORD
  5
2BA
102
{ACAD_REACTORS
330
2B9
102
}
330
2B9
100
AcDbXrecord
280
     1
270
     1
271
     1
  0
XRECORD
  5
2BE
102
{ACAD_REACTORS
330
2B9
102
}
330
2B9
100
AcDbXrecord
280
     1
270
     1
271
     1
  0
XRECORD
  5
2BD
102
{ACAD_REACTORS
330
2B9
102
}
330
2B9
100
AcDbXrecord
280
     1
270
     1
271
     1
  0
XRECORD
  5
2BF
102
{ACAD_REACTORS
330
2B9
102
}
330
2B9
100
AcDbXrecord
280
     1
270
     1
271
     1
  0
XRECORD
  5
2BC
102
{ACAD_REACTORS
330
2B9
102
}
330
2B9
100
AcDbXrecord
280
     1
270
     1
271
     1
  0
CELLSTYLEMAP
  5
841
102
{ACAD_REACTORS
330
572
102
}
330
572
100
AcDbCellStyleMap
 90
        3
300
CELLSTYLE
  1
TABLEFORMAT_BEGIN
 90
        5
170
     1
 91
        0
 92
    32768
 62
   257
 93
        1
300
CONTENTFORMAT
  1
CONTENTFORMAT_BEGIN
 90
        0
 91
        0
 92
      512
 93
        0
300

 40
0.0
140
1.0
 94
        5
 62
     0
340
17
144
6.0
309
CONTENTFORMAT_END
171
     1
301
MARGIN
  1
CELLMARGIN_BEGIN
 40
1.5
 40
1.5
 40
1.5
 40
1.5
 40
4.5
 40
4.5
309
CELLMARGIN_END
 94
        6
 95
        1
302
GRIDFORMAT
  1
GRIDFORMAT_BEGIN
 90
        0
 91
        1
 62
     0
 92
       -2
340
0
 93
        0
 40
1.125
309
GRIDFORMAT_END
 95
        2
302
GRIDFORMAT
  1
GRIDFORMAT_BEGIN
 90
        0
 91
        1
 62
     0
 92
       -2
340
0
 93
        0
 40
1.125
309
GRIDFORMAT_END
 95
        4
302
GRIDFORMAT
  1
GRIDFORMAT_BEGIN
 90
        0
 91
        1
 62
     0
 92
       -2
340
0
 93
        0
 40
1.125
309
GRIDFORMAT_END
 95
        8
302
GRIDFORMAT
  1
GRIDFORMAT_BEGIN
 90
        0
 91
        1
 62
     0
 92
       -2
340
0
 93
        0
 40
1.125
309
GRIDFORMAT_END
 95
       16
302
GRIDFORMAT
  1
GRIDFORMAT_BEGIN
 90
        0
 91
        1
 62
     0
 92
       -2
340
0
 93
        0
 40
1.125
309
GRIDFORMAT_END
 95
       32
302
GRIDFORMAT
  1
GRIDFORMAT_BEGIN
 90
        0
 91
        1
 62
     0
 92
       -2
340
0
 93
        0
 40
1.125
309
GRIDFORMAT_END
309
TABLEFORMAT_END
  1
CELLSTYLE_BEGIN
 90
        1
 91
        1
300
_TITLE
309
CELLSTYLE_END
300
CELLSTYLE
  1
TABLEFORMAT_BEGIN
 90
        5
170
     1
 91
        0
 92
        0
 62
   257
 93
        1
300
CONTENTFORMAT
  1
CONTENTFORMAT_BEGIN
 90
        0
 91
        0
 92
      512
 93
        0
300

 40
0.0
140
1.0
 94
        5
 62
     0
340
17
144
4.5
309
CONTENTFORMAT_END
171
     1
301
MARGIN
  1
CELLMARGIN_BEGIN
 40
1.5
 40
1.5
 40
1.5
 40
1.5
 40
4.5
 40
4.5
309
CELLMARGIN_END
 94
        6
 95
        1
302
GRIDFORMAT
  1
GRIDFORMAT_BEGIN
 90
        0
 91
        1
 62
     0
 92
       -2
340
0
 93
        0
 40
1.125
309
GRIDFORMAT_END
 95
        2
302
GRIDFORMAT
  1
GRIDFORMAT_BEGIN
 90
        0
 91
        1
 62
     0
 92
       -2
340
0
 93
        0
 40
1.125
309
GRIDFORMAT_END
 95
        4
302
GRIDFORMAT
  1
GRIDFORMAT_BEGIN
 90
        0
 91
        1
 62
     0
 92
       -2
340
0
 93
        0
 40
1.125
309
GRIDFORMAT_END
 95
        8
302
GRIDFORMAT
  1
GRIDFORMAT_BEGIN
 90
        0
 91
        1
 62
     0
 92
       -2
340
0
 93
        0
 40
1.125
309
GRIDFORMAT_END
 95
       16
302
GRIDFORMAT
  1
GRIDFORMAT_BEGIN
 90
        0
 91
        1
 62
     0
 92
       -2
340
0
 93
        0
 40
1.125
309
GRIDFORMAT_END
 95
       32
302
GRIDFORMAT
  1
GRIDFORMAT_BEGIN
 90
        0
 91
        1
 62
     0
 92
       -2
340
0
 93
        0
 40
1.125
309
GRIDFORMAT_END
309
TABLEFORMAT_END
  1
CELLSTYLE_BEGIN
 90
        2
 91
        1
300
_HEADER
309
CELLSTYLE_END
300
CELLSTYLE
  1
TABLEFORMAT_BEGIN
 90
        5
170
     1
 91
        0
 92
        0
 62
   257
 93
        1
300
CONTENTFORMAT
  1
CONTENTFORMAT_BEGIN
 90
        0
 91
        0
 92
      512
 93
        0
300

 40
0.0
140
1.0
 94
        2
 62
     0
340
17
144
4.5
309
CONTENTFORMAT_END
171
     1
301
MARGIN
  1
CELLMARGIN_BEGIN
 40
1.5
 40
1.5
 40
1.5
 40
1.5
 40
4.5
 40
4.5
309
CELLMARGIN_END
 94
        6
 95
        1
302
GRIDFORMAT
  1
GRIDFORMAT_BEGIN
 90
        0
 91
        1
 62
     0
 92
       -2
340
0
 93
        0
 40
1.125
309
GRIDFORMAT_END
 95
        2
302
GRIDFORMAT
  1
GRIDFORMAT_BEGIN
 90
        0
 91
        1
 62
     0
 92
       -2
340
0
 93
        0
 40
1.125
309
GRIDFORMAT_END
 95
        4
302
GRIDFORMAT
  1
GRIDFORMAT_BEGIN
 90
        0
 91
        1
 62
     0
 92
       -2
340
0
 93
        0
 40
1.125
309
GRIDFORMAT_END
 95
        8
302
GRIDFORMAT
  1
GRIDFORMAT_BEGIN
 90
        0
 91
        1
 62
     0
 92
       -2
340
0
 93
        0
 40
1.125
309
GRIDFORMAT_END
 95
       16
302
GRIDFORMAT
  1
GRIDFORMAT_BEGIN
 90
        0
 91
        1
 62
     0
 92
       -2
340
0
 93
        0
 40
1.125
309
GRIDFORMAT_END
 95
       32
302
GRIDFORMAT
  1
GRIDFORMAT_BEGIN
 90
        0
 91
        1
 62
     0
 92
       -2
340
0
 93
        0
 40
1.125
309
GRIDFORMAT_END
309
TABLEFORMAT_END
  1
CELLSTYLE_BEGIN
 90
        3
 91
        2
300
_DATA
309
CELLSTYLE_END
  0
ENDSEC
  0
EOF
